osu file format v12

[General]
AudioFilename: Cardfight!! Vanguard Ending 7 - Fighting Growing Diary.mp3
AudioLeadIn: 0
PreviewTime: 56803
Countdown: 1
SampleSet: Normal
StackLeniency: 0.7
Mode: 0
LetterboxInBreaks: 0
WidescreenStoryboard: 0

[Editor]
DistanceSpacing: 1
BeatDivisor: 2
GridSize: 4
TimelineZoom: 1

[Metadata]
Title:Fighting Growing Diary (TV Size)
TitleUnicode:Fighting Growing Diary (TV Size)
Artist:Aso Natsuko
ArtistUnicode:麻生夏子
Creator:Kurapika
Version:Normal
Source:Cardfight!! Vanguard: Asia Circuit
Tags:カードファイト!! ヴァンガード アジアサーキット編 Kādofaito!! Vangādo Ajia Sākito Hen Chapter 2nd second season Ending 7 ED Episode 79 Aichi Sendo Emi Katsuragi Kyou Narumi Asaka Kamui Misaki Tokura Kai Toshiki Ren Suzugamori AL4 Q4 TMS Setsurei Potla
BeatmapID:324834
BeatmapSetID:128225

[Difficulty]
HPDrainRate:3
CircleSize:3
OverallDifficulty:3
ApproachRate:3
SliderMultiplier:0.8
SliderTickRate:1

[Events]
//Background and Video events
0,0,"bg.png",0,0
Video,1469,"Cardfight!! Vanguard Ending 7 - Fighting Growing Diary.avi"
//Break Periods
2,72792,75212
//Storyboard Layer 0 (Background)
//Storyboard Layer 1 (Fail)
//Storyboard Layer 2 (Pass)
//Storyboard Layer 3 (Foreground)
//Storyboard Sound Samples
//Background Colour Transformations
3,100,163,162,255

[TimingPoints]
2668,451.127819548872,5,1,0,100,1,0
56803,-100,5,1,0,100,0,1
72216,-100,5,1,0,100,0,0

[Colours]
Combo1 : 0,128,255
Combo2 : 0,64,128
Combo3 : 128,128,255
Combo4 : 0,128,192

[HitObjects]
32,68,13495,6,0,P|8:120|68:164,1,120.00000089407
256,132,15299,2,0,L|256:220,1,80.0000005960464
140,180,16201,1,0,0:0:0:0:
152,240,16652,1,0,0:0:0:0:
208,228,17104,2,0,P|260:236|304:224,1,80.0000005960464
356,232,18908,5,8,0:0:0:0:
288,252,19359,1,8,0:0:0:0:
220,268,19810,1,8,0:0:0:0:
148,280,20261,2,0,P|116:292|56:280,1,80.0000005960464
78,193,22517,6,0,L|80:97,2,80.0000005960464
192,288,24322,5,8,0:0:0:0:
257,255,24773,1,8,0:0:0:0:
320,224,25224,1,8,0:0:0:0:
353,124,26126,2,0,L|354:38,2,80.0000005960464
131,307,27931,6,0,B|191:300|177:253|199:207|273:187,1,160.000001192093
324,140,29735,1,8,0:0:0:0:
386,95,30186,1,8,0:0:0:0:
448,60,30637,1,8,0:0:0:0:
263,48,31540,6,0,B|216:48|185:148|115:140,1,160.000001192093
106,277,33344,1,8,0:0:0:0:
176,270,33795,1,8,0:0:0:0:
247,263,34246,1,8,0:0:0:0:
107,208,35149,6,0,L|109:66,2,120.00000089407
177,220,36953,2,0,L|178:93,2,120.00000089407
253,238,38758,1,8,0:0:0:0:
330,236,39209,1,8,0:0:0:0:
403,236,39660,1,8,0:0:0:0:
452,108,40562,2,0,P|407:75|282:94,1,160.000001192093
92,164,42367,2,0,B|140:136|316:208|388:172,1,280.000002086162
326,257,44397,2,0,B|304:228|120:284|68:260,1,240.000001788139
388,148,46427,6,0,P|304:128|224:148,1,160.000001192093
228,240,47780,2,0,P|308:260|404:240,1,160.000001192093
26,157,49585,6,2,P|102:67|250:61,1,240.000001788139
267,138,51389,2,2,P|153:227|24:232,1,240.000001788139
116,320,53194,6,0,L|204:320,1,80.0000005960464
280,320,54096,2,0,L|372:320,1,80.0000005960464
364,232,54998,2,0,L|364:168,4,40.0000002980232
76,104,56803,6,0,P|200:84|340:120,1,240.000001788139
296,208,58607,2,0,P|176:240|58:215,1,240.000001788139
248,88,60412,2,0,L|244:292,2,200.000001490116
116,192,63570,2,0,L|216:192,1,80.0000005960464
356,192,64472,2,0,L|252:192,1,80.0000005960464
220,232,65825,2,0,L|220:352,1,120.00000089407
172,120,67630,6,0,B|256:68|256:68|364:120,1,200.000001490116
352,248,69209,2,0,B|272:304|272:304|152:248,1,200.000001490116
176,193,71239,5,2,0:0:0:0:
253,195,71690,5,10,0:0:0:0:
327,195,72141,5,2,0:0:0:0:
403,195,72592,5,2,0:0:0:0:
196,260,76652,6,0,B|148:192|148:192|188:124,1,160.000001192093
292,128,78457,6,0,B|328:196|328:196|280:268,1,160.000001192093
208,92,80261,6,0,L|96:92,1,80.0000005960464
304,92,81164,2,0,L|404:92,1,80.0000005960464
256,192,82066,12,0,83871,0:0:0:0:
