osu file format v14

[General]
AudioFilename: creature.mp3
AudioLeadIn: 0
PreviewTime: 38185
Countdown: 0
SampleSet: Normal
StackLeniency: 0.7
Mode: 0
LetterboxInBreaks: 0
WidescreenStoryboard: 1

[Editor]
Bookmarks: 12921,25553,38185,50816,63448,69764,82395,95027,107658,120290,132921,136079,148711,161343,173974,186606
DistanceSpacing: 0.9
BeatDivisor: 4
GridSize: 8
TimelineZoom: 1

[Metadata]
Title:Creature
TitleUnicode:Creature
Artist:Asking Alexandria
ArtistUnicode:Asking Alexandria
Creator:AlexaBM
Version:Light
Source:
Tags:
BeatmapID:659938
BeatmapSetID:292313

[Difficulty]
HPDrainRate:1
CircleSize:3
OverallDifficulty:2
ApproachRate:3
SliderMultiplier:0.9
SliderTickRate:1

[Events]
//Background and Video events
0,0,"aa.png",0,0
//Break Periods
2,63560,68236
2,120402,132183
2,151981,159815
//Storyboard Layer 0 (Background)
//Storyboard Layer 1 (Fail)
//Storyboard Layer 2 (Pass)
//Storyboard Layer 3 (Foreground)
//Storyboard Sound Samples

[TimingPoints]
12834,394.736842105263,4,1,0,50,1,0
38097,-111.111111111111,4,1,0,50,0,0
50728,-105.263157894737,4,1,0,50,0,1
50827,-105.263157894737,4,1,0,50,0,0
63360,-111.111111111111,4,1,0,50,0,0
192439,-111.111111111111,4,2,0,10,0,0

[Colours]
Combo1 : 190,99,138
Combo2 : 157,92,245
Combo3 : 238,156,34
Combo4 : 241,57,24

[HitObjects]
256,72,12833,6,0,L|368:72,2,90
256,234,14412,2,0,L|144:234,2,90
365,353,15991,2,0,P|437:289|437:273,2,90
207,315,17570,2,0,P|135:379|135:395,2,90
333,213,19149,6,0,L|397:133,1,90
441,80,19939,1,0,0:0:0:0:
281,55,20728,2,0,L|217:135,1,90
168,183,21518,1,0,0:0:0:0:
98,329,22307,6,0,P|202:337|218:329,2,90
48,174,23886,2,0,P|31:127|24:70,1,90
91,41,24676,2,0,P|108:88|115:145,1,90
123,207,25465,5,0,0:0:0:0:
271,140,26255,1,0,0:0:0:0:
216,294,27044,2,0,P|304:342|392:318,1,180
503,223,28623,2,0,P|415:175|327:199,1,180
183,231,30202,2,0,L|71:231,2,90
262,213,31386,1,0,0:0:0:0:
340,231,31781,6,0,P|412:175|404:87,1,180
245,98,33360,2,0,P|173:154|181:242,1,180
319,323,34939,6,0,L|431:315,1,90
421,236,35728,2,0,L|309:244,1,90
250,252,36518,2,0,P|170:188|218:116,1,180
326,68,38097,6,0,L|366:236,1,161.999995056153
297,355,39676,2,0,L|257:187,1,161.999995056153
196,65,41255,2,0,P|300:57|372:81,1,161.999995056153
453,179,42833,2,0,P|349:187|277:163,1,161.999995056153
161,227,44412,6,0,P|177:323|257:339,1,161.999995056153
374,341,45991,2,0,P|358:245|278:229,1,161.999995056153
166,267,47570,2,0,L|190:99,1,161.999995056153
314,32,49149,2,0,L|290:200,1,161.999995056153
168,284,50728,5,0,0:0:0:0:
139,132,51518,1,0,0:0:0:0:
259,36,52307,1,0,0:0:0:0:
392,113,53097,1,0,0:0:0:0:
337,256,53886,2,0,P|297:270|244:263,1,85.4999977169037
184,234,54676,2,0,P|157:197|155:149,1,85.4999977169037
187,87,55465,2,0,B|267:39|267:103|363:55,1,170.999995433807
443,184,57044,6,0,B|363:232|363:168|267:216,1,170.999995433807
154,301,58623,2,0,P|231:351|238:353,2,85.4999977169037
256,192,60202,12,0,63360,0:0:0:0:
168,112,69676,6,0,P|128:208|192:304,1,161.999995056153
256,352,71255,2,0,P|296:256|232:160,1,161.999995056153
160,120,72833,2,0,B|208:112|216:72|216:72|256:88|296:72|296:72|312:120|361:130,1,242.999992584229
418,169,74412,2,0,P|429:264|393:328,1,161.999995056153
261,367,75991,5,0,0:0:0:0:
124,314,76781,2,0,P|76:258|76:242,1,80.9999975280763
78,174,77570,2,0,P|134:126|150:126,1,80.9999975280763
210,160,78360,2,0,P|264:182|368:160,1,161.999995056153
404,300,79939,5,0,0:0:0:0:
260,323,80728,1,0,0:0:0:0:
144,233,81518,1,0,0:0:0:0:
190,94,82307,6,0,P|278:110|366:86,1,161.999995056153
484,44,83886,2,0,P|500:132|476:220,1,161.999995056153
381,304,85465,2,0,B|312:344|312:344|213:328,2,161.999995056153
452,176,87833,1,0,0:0:0:0:
350,70,88623,1,0,0:0:0:0:
248,174,89412,6,0,P|215:248|138:270,2,161.999995056153
361,76,91781,2,0,L|379:244,1,161.999995056153
233,254,93360,1,0,0:0:0:0:
99,312,94149,1,0,0:0:0:0:
230,374,94939,5,0,0:0:0:0:
349,290,95728,1,0,0:0:0:0:
380,147,96518,2,0,P|363:86|282:30,1,161.999995056153
141,53,98097,2,0,B|77:101|77:101|85:149|69:189,1,161.999995056153
119,319,99676,2,0,B|183:271|183:271|175:223|191:183,1,161.999995056153
319,126,101255,5,0,0:0:0:0:
396,249,102044,1,0,0:0:0:0:
253,278,102833,2,0,P|172:269|102:230,1,161.999995056153
105,84,104412,2,0,P|175:46|267:38,1,161.999995056153
295,177,105991,2,0,B|365:215|365:215|456:195,2,161.999995056153
164,242,108360,5,0,0:0:0:0:
21,272,109149,2,0,P|-6:184|23:113,1,161.999995056153
158,82,110728,2,0,B|203:72|221:37|221:37|257:51|306:28,1,161.999995056153
414,121,112307,2,0,B|369:131|351:166|351:166|315:152|266:175,1,161.999995056153
158,79,113886,5,0,0:0:0:0:
82,203,114676,1,0,0:0:0:0:
203,283,115465,2,0,P|270:277|335:204,1,161.999995056153
256,192,117044,12,0,120202,0:0:0:0:
179,253,133623,6,0,P|221:301|241:313,1,80.9999975280763
313,327,134412,2,0,P|393:303|313:119,1,323.999990112305
193,82,136781,5,0,0:0:0:0:
121,208,137570,1,0,0:0:0:0:
247,279,138360,1,0,0:0:0:0:
391,299,139149,2,0,P|423:195|407:131,1,161.999995056153
307,44,140728,2,0,P|275:148|291:212,1,161.999995056153
280,343,142307,6,0,B|360:351|360:279|472:319,1,161.999995056153
474,175,143886,2,0,B|394:167|394:239|282:199,1,161.999995056153
214,107,145465,2,0,L|190:291,1,161.999995056153
61,331,147044,2,0,L|85:147,1,161.999995056153
256,192,148623,12,0,151781,0:0:0:0:
165,110,161255,6,0,B|213:118|221:166|221:166|269:182|341:134,1,161.999995056153
423,88,162833,2,0,L|406:264,1,161.999995056153
275,311,164412,2,0,B|187:279|187:359|107:327,1,161.999995056153
50,203,165991,2,0,B|138:235|138:155|218:187,1,161.999995056153
335,263,167570,5,0,0:0:0:0:
458,186,168360,1,0,0:0:0:0:
378,64,169149,1,0,0:0:0:0:
252,138,169939,1,0,0:0:0:0:
160,257,170728,2,0,P|136:169|152:73,1,161.999995056153
264,18,172307,2,0,P|354:11|446:45,1,161.999995056153
486,161,173886,5,0,0:0:0:0:
454,303,174676,1,0,0:0:0:0:
311,335,175465,1,0,0:0:0:0:
172,288,176255,1,0,0:0:0:0:
116,153,177044,2,0,L|295:121,1,161.999995056153
414,80,178623,2,0,L|366:256,1,161.999995056153
252,320,180202,5,0,0:0:0:0:
184,190,180991,1,0,0:0:0:0:
114,318,181781,1,0,0:0:0:0:
58,183,182570,1,0,0:0:0:0:
114,67,183360,2,0,P|210:43|282:59,1,161.999995056153
362,167,184939,1,0,0:0:0:0:
256,267,185728,1,0,0:0:0:0:
163,153,186518,5,0,0:0:0:0:
277,62,187307,1,0,0:0:0:0:
375,169,188097,1,0,0:0:0:0:
262,261,188886,1,0,0:0:0:0:
164,152,189676,2,0,P|162:105|169:64,1,80.9999975280763
256,192,190465,12,0,192439,0:0:0:0:
