osu file format v14

[General]
AudioFilename: KyB0z - Static Quest - Stage.mp3
AudioLeadIn: 0
PreviewTime: 6980
Countdown: 0
SampleSet: Normal
StackLeniency: 0.3
Mode: 0
LetterboxInBreaks: 1
SkinPreference:Default
WidescreenStoryboard: 1

[Editor]
DistanceSpacing: 1
BeatDivisor: 2
GridSize: 8
TimelineZoom: 1

[Metadata]
Title:Static Quest Stage Music
TitleUnicode:Static Quest Stage Music
Artist:Asier Oreitia
ArtistUnicode:Asier Oreitia
Creator:AndRay2014
Version:Normal
Source:Static Quest
Tags:Video Game Instrumental 8-bit
BeatmapID:587303
BeatmapSetID:256301

[Difficulty]
HPDrainRate:3
CircleSize:3
OverallDifficulty:4
ApproachRate:4
SliderMultiplier:1.4
SliderTickRate:1

[Events]
//Background and Video events
0,0,"maxresdefault.jpg",0,0
//Break Periods
2,18919,27399
2,48702,54356
2,90440,110008
2,174136,190660
//Storyboard Layer 0 (Background)
//Storyboard Layer 1 (Fail)
//Storyboard Layer 2 (Pass)
//Storyboard Layer 3 (Foreground)
//Storyboard Sound Samples

[TimingPoints]
24,434.782608695652,4,1,0,80,1,0
28284,-100,4,1,0,60,0,0
41763,-100,4,1,0,80,0,0
121763,-100,4,1,0,80,0,1
163284,-100,4,1,0,80,0,0

[Colours]
Combo1 : 240,240,5
Combo2 : 5,240,5
Combo3 : 5,5,240
Combo4 : 240,128,5

[HitObjects]
56,72,6980,5,0,0:0:0:0:
200,72,7415,1,8,0:0:0:0:
344,72,7850,2,0,B|400:72|400:72|400:152|400:152|352:152|352:152|352:200|352:200,1,210
240,256,8937,1,0,0:0:0:0:
120,328,9371,2,0,B|64:328|64:328|64:232|64:232|128:232|128:232|128:88|128:88,1,350
264,88,10893,5,8,0:0:0:0:
408,88,11328,2,0,B|472:88|472:88|472:160|472:160|432:160|432:160|432:216,1,210
320,280,12415,1,0,0:0:0:0:
184,328,12850,2,0,B|184:264|184:264|136:264|136:264|136:208|136:208|192:208|192:208|192:144,1,280
192,73,13937,6,0,B|280:73|280:73|376:73|376:73|488:72|488:72|488:152|488:152|400:152|400:152|400:280|400:280|208:280,2,770,0|0|8,0:0|0:0|0:0,0:0:0:0:
352,72,28719,5,0,0:0:0:0:
440,264,29371,1,0,0:0:0:0:
160,296,30241,1,0,0:0:0:0:
104,96,30893,1,8,0:0:0:0:
456,328,32197,5,0,0:0:0:0:
248,328,32850,1,0,0:0:0:0:
360,72,33718,1,0,0:0:0:0:
152,72,34371,1,8,0:0:0:0:
456,360,35676,5,0,0:0:0:0:
248,344,36328,1,0,0:0:0:0:
168,80,37197,1,0,0:0:0:0:
376,104,37850,1,8,0:0:0:0:
32,344,39154,5,0,0:0:0:0:
240,344,39806,1,0,0:0:0:0:
240,64,40676,1,0,0:0:0:0:
448,64,41328,1,8,0:0:0:0:
456,200,41763,6,0,B|456:280|456:280|352:280|352:280|352:224,1,210
208,256,42850,2,0,B|-20:256|-20:256|-20:192|-20:192|108:192,1,420
240,144,44589,6,0,B|240:48|240:48|304:48|304:48|304:96|304:96|384:96|384:96|384:40|384:40|464:40,1,420
400,168,46328,2,0,B|436:168|436:168|436:224|436:224|356:224|356:224|356:304|356:304|264:304|264:304|264:224,1,420
272,88,48067,1,0,0:0:0:0:
128,88,48502,1,0,0:0:0:0:
56,80,55676,6,0,B|128:80|128:80|128:160|128:160|216:160|216:160|216:160|216:160|216:160,1,210
328,160,56763,2,0,B|328:56|328:56|408:56|408:56|408:144|408:144|496:144|496:144|496:224,1,420
416,320,58502,6,0,B|344:320|344:320|344:248|344:248|256:248|256:248|256:152|256:152|160:152|160:152,1,420
72,48,60241,2,0,B|0:48|0:48|0:120|0:120|80:120|80:120|80:192|80:192|0:192|0:192|0:240,1,420
112,320,61980,1,0,0:0:0:0:
256,320,62415,1,0,0:0:0:0:
456,32,63502,5,0,0:0:0:0:
456,240,64154,1,0,0:0:0:0:
176,240,65023,1,0,0:0:0:0:
176,32,65676,1,8,0:0:0:0:
464,336,66980,5,0,0:0:0:0:
256,336,67632,1,0,0:0:0:0:
256,56,68502,1,0,0:0:0:0:
464,56,69154,1,8,0:0:0:0:
136,312,70458,5,0,0:0:0:0:
136,104,71110,1,0,0:0:0:0:
416,104,71980,1,0,0:0:0:0:
416,312,72632,1,8,0:0:0:0:
80,48,73937,5,0,0:0:0:0:
80,256,74589,1,0,0:0:0:0:
360,256,75458,1,0,0:0:0:0:
360,48,76110,1,8,0:0:0:0:
216,48,76545,5,0,0:0:0:0:
72,48,76980,1,8,0:0:0:0:
80,152,77415,2,0,B|80:216|80:216|40:216|40:216|40:288|40:288|96:288,1,210
216,280,78502,1,0,0:0:0:0:
216,184,78937,2,0,B|216:112|216:112|344:112|344:112|344:160|344:160|376:160|376:160|376:192,1,280
448,160,80023,5,0,0:0:0:0:
448,304,80458,1,8,0:0:0:0:
312,296,80893,2,0,B|312:344|312:344|176:344|176:344|176:304,1,210
176,176,81980,1,0,0:0:0:0:
240,56,82415,2,0,B|320:56|320:56|320:120|320:120|392:120|392:120|392:184,1,280
392,256,83502,5,0,0:0:0:0:
248,256,83937,1,8,0:0:0:0:
144,256,84371,2,0,B|80:256|80:256|80:312|80:312|24:312|24:312|24:240,1,210
16,136,85458,1,0,0:0:0:0:
160,136,85893,2,0,B|160:88|160:88|256:88|256:88|256:144|256:144|360:144,1,280
408,144,86980,5,0,0:0:0:0:
408,288,87415,1,8,0:0:0:0:
304,288,87850,2,0,B|304:224|304:224|224:224|224:224|224:288|224:288|168:288,1,210
80,288,88937,1,0,0:0:0:0:
80,152,89371,2,0,B|136:152|136:152|136:104|136:104|256:104|256:104|256:48,1,280
120,192,111328,6,0,L|272:192,1,140,0|8,0:0|0:0,0:0:0:0:
256,192,115023,12,0,118284,0:0:0:0:
64,48,121763,5,0,0:0:0:0:
208,48,122197,1,8,0:0:0:0:
312,48,122523,2,0,L|368:48,1,35
416,48,122850,1,0,0:0:0:0:
416,120,123067,2,0,L|416:208,1,70,8|0,0:0|0:0,0:0:0:0:
424,328,123719,5,0,0:0:0:0:
280,328,124154,2,0,B|216:328|216:328|216:256|216:256|144:256|144:256|144:200|144:200|32:200|32:200,1,350
56,104,125676,5,8,0:0:0:0:
128,104,126002,2,0,L|176:104,1,35
232,104,126328,1,0,0:0:0:0:
304,104,126545,2,0,L|304:184,1,70,8|0,0:0|0:0,0:0:0:0:
304,312,127197,5,0,0:0:0:0:
160,312,127632,2,0,B|160:240|160:240|80:240|80:240|8:240|8:240|8:176,1,280
24,112,128719,5,0,0:0:0:0:
24,32,129154,1,8,0:0:0:0:
128,32,129480,2,0,L|184:32,1,35
232,32,129806,1,0,0:0:0:0:
304,32,130023,2,0,L|384:32|384:32,1,70,8|0,0:0|0:0,0:0:0:0:
448,96,130676,5,0,0:0:0:0:
368,208,131110,2,0,B|368:280|368:280|304:280|304:280|304:360|304:360|224:360,1,280
168,360,132197,5,0,0:0:0:0:
24,360,132632,1,8,0:0:0:0:
24,256,132958,2,0,L|24:216,1,35
24,152,133284,1,0,0:0:0:0:
24,80,133502,2,0,L|104:80,1,70,8|0,0:0|0:0,0:0:0:0:
232,80,134154,5,0,0:0:0:0:
376,80,134589,1,0,0:0:0:0:
376,152,134806,2,0,L|376:232,1,70
376,296,135241,2,0,L|296:296,1,70,8|0,0:0|0:0,0:0:0:0:
232,296,135676,6,0,B|40:296|40:296|40:136|40:136|248:136,1,560
256,192,139154,12,0,142632,0:0:0:0:
64,56,144371,6,0,L|368:56,1,280
440,320,146110,5,0,0:0:0:0:
296,320,146545,1,8,0:0:0:0:
192,320,146871,2,0,L|128:320,1,35
88,320,147197,1,0,0:0:0:0:
88,248,147415,2,0,L|88:168,1,70,8|0,0:0|0:0,0:0:0:0:
96,40,148067,5,0,0:0:0:0:
240,40,148502,2,0,B|320:40|320:40|320:128|320:128|320:192|320:192|240:192,1,280
200,192,149589,5,0,0:0:0:0:
64,192,150023,1,8,0:0:0:0:
64,296,150350,2,0,L|64:352,1,35
136,328,150676,1,0,0:0:0:0:
208,328,150893,2,0,L|288:328,1,70,8|0,0:0|0:0,0:0:0:0:
416,328,151545,5,0,0:0:0:0:
400,192,151980,2,0,B|496:192|496:192|496:120|496:120|496:64|496:64|424:64,1,280
368,64,153067,5,0,0:0:0:0:
224,64,153502,1,8,0:0:0:0:
120,64,153828,2,0,L|120:112,1,35
120,168,154154,1,0,0:0:0:0:
120,240,154371,2,0,L|192:240,1,70,8|0,0:0|0:0,0:0:0:0:
328,248,155023,5,0,0:0:0:0:
360,112,155458,2,0,B|408:112|408:112|408:192|408:192|472:192|472:192|472:280,1,280
400,288,156545,5,0,0:0:0:0:
256,288,156980,1,8,0:0:0:0:
152,288,157306,2,0,L|96:288,1,35
48,288,157632,1,0,0:0:0:0:
48,208,157850,2,0,L|48:128,1,70,8|0,0:0|0:0,0:0:0:0:
168,64,158502,5,0,0:0:0:0:
312,64,158937,2,0,B|376:64|376:64|448:64|448:64|448:144|448:144|376:144,1,280
312,144,160023,5,0,0:0:0:0:
312,288,160458,1,8,0:0:0:0:
208,288,160784,2,0,L|144:288,1,35
104,288,161110,1,0,0:0:0:0:
104,216,161328,2,0,L|104:144,1,70,8|0,0:0|0:0,0:0:0:0:
184,32,161980,5,0,0:0:0:0:
328,32,162415,2,0,B|416:32|416:32|416:96|416:96|416:160|416:160|352:160,1,280
352,232,163502,6,0,B|352:304|352:304|80:304|80:304|80:152|80:152,1,490
216,144,165458,2,0,B|216:72|216:72|440:72|440:72|440:280,1,490
256,192,167197,12,0,170458,0:0:0:0:
208,96,172197,6,0,B|296:96|296:96|296:168|296:168|224:168|224:168|224:232|224:232|344:232|344:232|344:288|344:288|232:288|232:288,1,560
256,136,191980,5,0,0:0:0:0:
56,328,192850,1,0,0:0:0:0:
336,328,193719,1,0,0:0:0:0:
344,48,194589,5,0,0:0:0:0:
64,48,195458,1,0,0:0:0:0:
64,328,196328,1,0,0:0:0:0:
344,328,197197,1,0,0:0:0:0:
200,88,198067,1,0,0:0:0:0:
256,192,198502,12,0,201763,0:0:0:0:
256,192,202197,12,0,204806,0:0:0:0:
432,104,205458,5,0,0:0:0:0:
320,24,205893,1,0,0:0:0:0:
184,32,206328,1,0,0:0:0:0:
88,128,206763,1,0,0:0:0:0:
88,272,207197,5,0,0:0:0:0:
208,352,207632,1,0,0:0:0:0:
344,344,208067,1,0,0:0:0:0:
432,232,208502,1,0,0:0:0:0:
408,88,208937,5,0,0:0:0:0:
280,40,209371,1,0,0:0:0:0:
144,72,209806,1,0,0:0:0:0:
88,200,210241,1,0,0:0:0:0:
168,312,210676,5,0,0:0:0:0:
304,328,211110,1,0,0:0:0:0:
424,248,211545,1,0,0:0:0:0:
448,112,211980,2,0,L|400:32,1,70
