osu file format v4

[General]
AudioFilename: Rewrite (4th Opening).ogg
AudioLeadIn: 0
AudioHash: 9bc7c0d4003a062b1d0f2f0af012ea7a
PreviewTime: 74325
SampleSet: Normal

[Metadata]
Title:Rewrite 4th Opening
Artist:Asian Kung-fu Generation
Creator:MCXD
Version:Sweatin

[Difficulty]
HPDrainRate:7
CircleSize:6
OverallDifficulty:6
SliderMultiplier: 1
SliderTickRate: 1

[Events]
2,43018,52494
3,0,88,52,52

[TimingPoints]
-5450,335.195530726257,4,1,1

[HitObjects]
160,320,5276,1,0,
256,320,5779,1,0,
352,320,6281,1,0,
456,256,6952,1,0,
456,128,7622,1,0,
352,64,7957,5,0,
256,64,8460,1,0,
160,64,8963,1,0,
56,128,9633,1,0,
56,256,10304,1,0,
56,352,10639,6,0,B|56:352|472:352,1,400
480,192,12650,1,0,
456,32,13320,6,0,B|456:32|40:32,1,400
32,192,15331,1,0,
64,320,16002,6,0,B|64:320|382:384|448:224,1,400
480,160,18013,1,0,
448,64,18684,6,0,B|448:64|130:0|64:160,1,400
32,224,20695,1,0,
128,320,21365,5,0,
256,320,21868,1,0,
384,320,22371,1,0,
384,256,22706,1,0,
256,256,23209,1,0,
128,256,23712,1,0,
128,192,24047,5,0,
160,96,24550,1,0,
256,32,25052,2,0,B|256:32|408:31|472:147|480:224,1,300
384,320,26728,5,0,
256,320,27231,1,0,
128,320,27734,1,0,
128,256,28069,1,0,
256,256,28572,1,0,
384,256,29075,1,0,
384,192,29410,5,0,
352,96,29913,1,0,
256,32,30415,2,0,B|256:32|104:31|96:160,2,200
320,64,32091,5,0,
320,160,32594,1,0,
320,256,33097,1,0,
256,256,33432,1,0,
160,256,33935,1,0,
64,256,34438,1,0,
64,336,34773,5,0,
160,336,35276,1,0,
256,336,35779,2,0,B|256:336|368:336|432:240|416:80,1,300
192,64,37455,5,0,
192,160,37958,1,0,
192,256,38461,1,0,
256,256,38796,1,0,
352,256,39299,1,0,
448,256,39802,1,0,
448,336,40137,5,0,
352,336,40640,1,0,
256,336,41143,2,0,B|256:336|144:336|96:224,2,200
320,320,42818,5,0,
160,96,53544,5,0,
256,96,54047,1,0,
352,96,54550,1,0,
352,160,54885,1,0,
256,160,55387,1,0,
160,160,55890,1,0,
160,224,56225,5,0,
224,288,56728,1,0,
320,320,57231,2,0,B|320:320|459:346|512:259|448:96,1,300
352,96,58907,5,0,
256,96,59410,1,0,
160,96,59913,1,0,
160,160,60248,1,0,
256,160,60750,1,0,
352,160,61253,1,0,
352,224,61588,5,0,
288,288,62091,1,0,
192,320,62594,2,0,B|192:320|78:337|32:224,1,200
0,128,63600,1,0,
104,64,64270,6,0,B|104:64|424:64,1,300
404,136,65611,2,0,B|404:136|104:136,1,300
104,208,66952,1,0,
168,256,67455,1,0,
240,288,67957,1,0,
472,64,69298,5,0,
408,64,69633,2,0,B|408:64|88:64,1,300
108,136,70974,2,0,B|108:136|408:136,1,300
408,208,72315,1,0,
344,256,72818,1,0,
272,288,73320,1,0,
64,208,74661,5,0,
88,152,74996,2,0,B|88:152|256:-60|440:176,1,400
416,256,76840,1,0,
416,256,77008,1,0,
352,288,77343,1,0,
288,320,77678,2,0,B|288:320|64:320,3,200
64,224,80360,5,0,
128,160,80695,1,0,
192,224,81030,1,0,
256,160,81365,2,0,B|256:160|480:160,1,200
480,224,82371,1,0,
416,288,82706,1,0,
328,320,83041,2,0,B|328:320|168:320,4,150
424,152,85722,6,0,B|424:152|256:-60|72:176,1,400
96,256,87566,1,0,
96,256,87734,1,0,
160,288,88069,1,0,
224,320,88404,2,0,B|224:320|448:320,3,200
448,224,91086,5,0,
384,160,91421,1,0,
320,224,91756,1,0,
256,160,92091,2,0,B|256:160|32:160,2,200
256,192,93767,12,0,96449
