osu file format v5

[General]
AudioFilename: World World World.mp3
AudioLeadIn: 1004
PreviewTime: -1
Countdown: 1
SampleSet: Soft
StackLeniency: 0.7
Mode: 0
EditorBookmarks: 34,12495,25042,31316,37590,50400,62947

[Metadata]
Title:World World World
Artist:Asian Kung-Fu Generation
Creator:DawnII
Version:Normal
Source:
Tags:

[Difficulty]
HPDrainRate:0
CircleSize:4
OverallDifficulty:4
SliderMultiplier:1.4
SliderTickRate:1

[Events]
//Background and Video events
0,0,"covernu5.jpg"
1,-850,"WorldWorldWorldPV.avi"
//Break Periods
//Storyboard Layer 0 (Background)
//Storyboard Layer 1 (Failing)
//Storyboard Layer 2 (Passing)
//Storyboard Layer 3 (Foreground)
//Storyboard Sound Samples
//Background Colour Transformations
3,100,163,162,255

[TimingPoints]
544,522.893885162444,3,2,0,100

[HitObjects]
128,96,544,1,0
256,96,805,1,0
384,96,1066,1,2
384,288,2112,1,0
256,288,2374,1,0
128,288,2635,1,2
128,64,3681,5,0
128,192,3942,1,0
128,320,4204,1,2
352,320,5250,1,0
352,192,5511,1,0
352,64,5772,1,2
384,288,6818,5,0
256,288,7080,1,0
128,288,7341,1,2
128,96,8387,1,0
256,96,8648,1,0
384,96,8910,1,2
384,320,9956,5,0
384,192,10217,1,0
384,64,10478,1,2
128,64,11524,1,0
128,192,11786,1,0
128,320,12047,1,2
160,96,13093,5,0
256,192,13354,1,0
352,288,13616,1,2
352,96,14662,1,0
256,192,14923,1,0
160,288,15185,1,2
352,288,16230,5,0
256,192,16492,1,0
160,96,16753,1,2
160,288,17799,1,0
256,192,18060,1,0
352,96,18322,1,2
160,96,19368,6,0,B|96:128,1,70
96,224,19891,1,2
352,288,20936,2,0,B|416:256,1,70
416,160,21459,1,2
256,192,22505,12,0,25120
128,96,25642,6,0,B|64:160|96:224,1,140
128,288,26427,2,0,B|196:352|256:320,1,140
384,320,27211,1,0
384,192,27473,1,0
384,64,27734,1,0
256,64,27995,2,0,B|160:64|160:160,1,140
256,192,28780,1,0
256,192,29564,1,0
256,192,30348,1,0
256,192,31133,1,4
384,96,31917,6,0,B|448:160|416:224,1,140
384,288,32701,2,0,B|316:352|256:320,1,140
128,320,33486,1,0
128,192,33747,1,0
128,64,34009,1,0
256,64,34270,2,0,B|352:64|352:160,1,140
256,192,35054,1,0
256,192,35839,1,0
256,192,36623,1,0
256,192,37342,1,4
128,288,38192,6,0,B|64:224|96:160,1,140
128,96,38976,2,0,B|196:32|256:64,1,140
384,64,39761,1,0
384,192,40022,1,0
384,320,40283,1,0
256,320,40545,2,0,B|160:320|160:224,1,140
256,192,41329,2,0,B|320:128|256:64,1,140
256,64,42114,2,0,B|192:128|256:192,1,140
256,192,42898,2,0,B|320:256|256:320,1,140
256,320,43682,2,4,B|192:256|256:192,1,140
384,288,44467,6,0,B|448:224|416:160,1,140
384,96,45251,2,0,B|316:32|256:64,1,140
128,64,46035,1,0
128,192,46297,1,0
128,320,46558,1,0
256,320,46820,2,0,B|352:320|352:224,1,140
256,192,47604,2,0,B|192:128|256:64,1,140
256,64,48388,2,0,B|320:128|256:192,1,140
256,192,49173,2,0,B|192:256|256:320,1,140
256,320,49957,2,4,B|320:256|256:192,1,140
224,96,50741,6,0,B|64:128,1,140
87,123,51526,2,0,B|119:187,1,70
192,288,52049,1,0
320,320,52310,2,0,B|384:256,1,70
371,272,52833,1,0
448,160,53094,2,0,B|320:96,1,140
320,192,53879,2,0,B|192:96,1,140
208,108,54663,2,0,B|96:224,1,140
110,208,55447,2,0,B|224:320,1,140
209,306,56232,2,4,B|320:192,1,140
288,288,57016,6,0,B|448:256,1,140
425,261,57800,2,0,B|384:192,1,70
320,96,58323,1,0
192,64,58585,2,0,B|128:128,1,70
143,113,59108,1,0
64,224,59369,2,0,B|192:288,1,140
192,192,60153,2,0,B|320:288,1,140
304,276,60938,2,0,B|416:160,1,140
402,176,61722,2,0,B|288:64,1,140
303,78,62506,2,4,B|192:192,1,140
128,192,63291,6,2,B|96:256,2,70
192,192,64075,6,2,B|160:256,2,70
256,192,64859,6,2,B|224:256,2,70
320,192,65644,6,4,B|384:224,1,70
448,192,66167,1,4
416,128,66428,6,2,B|448:64,2,70
352,128,67212,6,2,B|384:64,2,70
288,128,67997,6,2,B|320:64,2,70
224,128,68781,6,4,B|160:160,1,70
96,128,69304,1,4
96,192,69565,6,2,B|160:160,2,70
96,256,70350,6,2,B|160:224,2,70
96,320,71134,6,2,B|160:288,2,70
160,352,71919,6,4,B|224:384,1,70
288,352,72441,1,4
352,288,72703,6,2,B|288:320,2,70
352,224,73487,6,2,B|288:256,2,70
352,160,74272,6,2,B|288:192,2,70
288,128,75056,6,4,B|224:96,1,70
160,128,75579,1,4
