osu file format v5

[General]
AudioFilename: World World World.mp3
AudioLeadIn: 1004
PreviewTime: -1
Countdown: 1
SampleSet: Soft
StackLeniency: 0.7
Mode: 0
EditorBookmarks: 34,12495,25042,31316,37590,50400,62947

[Metadata]
Title:World World World
Artist:Asian Kung-Fu Generation
Creator:DawnII
Version:Hard
Source:
Tags:

[Difficulty]
HPDrainRate:7
CircleSize:5
OverallDifficulty:7
SliderMultiplier:1.4
SliderTickRate:1

[Events]
//Background and Video events
0,0,"covernu5.jpg"
1,-850,"WorldWorldWorldPV.avi"
//Break Periods
//Storyboard Layer 0 (Background)
//Storyboard Layer 1 (Failing)
//Storyboard Layer 2 (Passing)
//Storyboard Layer 3 (Foreground)
//Storyboard Sound Samples
//Background Colour Transformations
3,100,163,162,255

[TimingPoints]
544,522.893885162443,3,2,0,100

[HitObjects]
96,32,544,1,0
224,32,805,1,0
352,32,1066,1,2
416,128,1328,1,0
288,128,1589,1,0
160,128,1851,1,2
96,224,2112,1,0
224,224,2374,1,0
352,224,2635,1,2
416,320,2897,1,0
288,320,3158,1,0
160,320,3419,1,2
32,320,3681,5,0
32,192,3942,1,0
32,64,4204,1,2
160,64,4465,1,0
160,192,4727,1,0
160,320,4988,1,2
288,320,5250,1,0
288,192,5511,1,0
288,64,5772,1,2
416,64,6034,1,0
416,192,6295,1,0
416,320,6557,1,2
416,320,6818,5,0
288,320,7080,1,0
160,320,7341,1,2
96,224,7603,1,0
224,224,7864,1,0
352,224,8125,1,2
416,128,8387,1,0
288,128,8648,1,0
160,128,8910,1,2
96,224,9171,1,0
224,224,9433,1,0
352,224,9694,1,2
416,320,9956,5,0
416,192,10217,1,0
416,64,10478,1,2
288,64,10740,1,0
288,192,11001,1,0
288,320,11263,1,2
224,224,11524,1,0
160,128,11786,1,0
96,32,12047,1,2
224,32,12309,1,0
288,128,12570,1,0
192,192,12832,1,2
160,96,13093,5,0
256,192,13354,1,0
352,288,13616,1,2
480,288,13877,1,0
416,192,14139,1,0
480,96,14400,1,2
352,96,14662,1,0
256,192,14923,1,0
160,288,15185,1,2
256,352,15446,1,0
384,352,15707,1,0
480,288,15969,1,2
352,288,16230,5,0
256,192,16492,1,0
160,96,16753,1,2
32,96,17015,1,0
96,192,17276,1,0
32,288,17538,1,2
160,288,17799,1,0
256,192,18060,1,0
352,96,18322,1,2
256,32,18583,1,0
128,32,18845,1,0
32,96,19106,1,2
160,96,19368,6,0,B|96:128,1,70
96,256,19891,1,2
192,320,20152,2,0,B|224:256,1,70
320,192,20675,1,2
384,288,20936,2,0,B|448:256,1,70
448,128,21459,1,2
352,32,21721,2,0,B|320:96,1,70
256,192,22244,1,2
256,192,22505,12,0,25120
192,160,25642,6,0,B|128:224|128:256,1,105
130,243,26165,1,0
192,288,26427,2,0,B|160:352,2,70
320,320,27211,1,0
352,192,27473,1,0
384,64,27734,1,0
256,64,27995,2,0,B|192:96,2,70
256,192,28780,1,0
96,64,29564,1,0
416,64,30348,1,0
256,192,31133,1,4
320,224,31917,6,0,B|384:160|384:128,1,105
382,141,32440,1,0
320,96,32701,2,0,B|352:32,2,70
192,64,33486,1,0
160,192,33747,1,0
128,320,34009,1,0
256,320,34270,2,0,B|320:288,2,70
256,192,35054,1,0
416,320,35839,1,0
96,320,36623,1,0
256,192,37408,1,4
224,224,38192,6,0,B|160:160,1,70
160,128,38649,2,0,B|192:128,2,17.5
256,64,38976,2,0,B|192:32,2,70
384,64,39761,1,0
384,192,40022,1,0
384,320,40283,1,0
256,320,40545,2,0,B|192:288,2,70
288,192,41329,2,0,B|352:128|288:64,1,140
224,64,42114,2,0,B|160:128|224:192,1,140
288,192,42898,2,0,B|352:256|288:320,1,140
224,320,43682,2,4,B|160:256|224:192,1,140
288,160,44467,6,0,B|352:224,1,70
352,256,44924,2,0,B|320:256,2,17.5
256,320,45251,2,0,B|320:352,2,70
128,320,46035,1,0
128,192,46297,1,0
128,64,46558,1,0
256,64,46820,2,0,B|320:96,2,70
224,192,47604,2,0,B|160:256|224:320,1,140
288,320,48388,2,0,B|352:256|288:192,1,140
224,192,49173,2,0,B|160:128|224:64,1,140
288,64,49957,2,4,B|352:128|288:192,1,140
224,96,50741,6,0,B|96:160,1,140
128,224,51526,2,0,B|160:256,2,35
192,320,52049,1,0
320,256,52310,2,0,B|288:224,2,35
448,224,52833,1,0
416,96,53094,2,0,B|480:64,2,70
384,192,53879,2,0,B|320:160,2,70
256,256,54663,2,0,B|240:340,2,70
224,128,55447,2,0,B|256:64,2,70
96,192,56232,2,4,B|128:256,2,70
192,256,57016,6,0,B|320:192,1,140
384,160,57800,2,0,B|352:128,2,35
320,64,58323,1,0
192,128,58585,2,0,B|224:160,2,35
64,160,59108,1,0
96,288,59369,2,0,B|32:320,2,70
128,192,60153,2,0,B|192:224,2,70
256,128,60938,2,0,B|272:44,2,70
288,256,61722,2,0,B|256:320,2,70
416,192,62506,2,4,B|384:128,2,70
128,192,63291,6,2,B|96:224,2,35
192,128,63814,1,2
256,192,64075,6,2,B|288:224,2,35
320,128,64598,1,2
384,192,64859,6,2,B|416:160,2,35
320,256,65382,1,2
224,256,65644,6,4,B|160:288,1,70
32,256,66167,1,4
64,160,66428,6,2,B|96:128,2,35
128,224,66951,1,2
192,288,67212,6,2,B|160:320,2,35
256,224,67735,1,2
320,160,67997,6,2,B|352:128,2,35
288,64,68520,1,2
224,128,68781,6,4,B|160:96,1,70
32,128,69304,1,4
64,256,69565,6,2,B|32:224,2,35
128,320,70088,1,2
192,256,70350,6,2,B|224:224,2,35
128,192,70873,1,2
64,128,71134,6,2,B|32:96,2,35
160,96,71657,1,2
224,32,71919,6,4,B|288:64,1,70
416,32,72441,1,4
384,128,72703,6,2,B|352:96,2,35
448,192,73226,1,2
384,256,73487,6,2,B|416:288,2,35
320,320,74010,1,2
256,256,74272,6,2,B|288:224,2,35
160,256,74794,1,2
160,160,75056,6,4,B|224:128,1,70
352,128,75579,1,4
