osu file format v14

[General]
AudioFilename: Boku Dake ga Inai Machi OP - Opening -Re.mp3
AudioLeadIn: 0
PreviewTime: 36184
Countdown: 0
SampleSet: Soft
StackLeniency: 0.7
Mode: 3
LetterboxInBreaks: 0
SpecialStyle: 0
WidescreenStoryboard: 1

[Editor]
DistanceSpacing: 1.4
BeatDivisor: 4
GridSize: 4
TimelineZoom: 1.5

[Metadata]
Title:Re:Re:
TitleUnicode:Re:Re:
Artist:Asian Kung-Fu Generation
ArtistUnicode:Asian Kung-Fu Generation
Creator:resuner
Version:HD
Source:僕だけがいない街
Tags:boku dake ga inai machi opening tv size aikawasora puxtu
BeatmapID:984276
BeatmapSetID:459435

[Difficulty]
HPDrainRate:8
CircleSize:7
OverallDifficulty:8
ApproachRate:5
SliderMultiplier:1.4
SliderTickRate:1

[Events]
//Background and Video events
Video,0,"OP.flv"
0,0,"Boku machi BG.jpg",0,0
//Break Periods
//Storyboard Layer 0 (Background)
//Storyboard Layer 1 (Fail)
//Storyboard Layer 2 (Pass)
//Storyboard Layer 3 (Foreground)
//Storyboard Sound Samples

[TimingPoints]
562,387.096774193548,4,2,0,30,1,0
37723,-100,4,2,0,30,0,1
50110,-100,4,2,0,30,0,0

[HitObjects]
475,192,174,5,8,3:0:0:0:
36,192,174,1,0,0:0:0:0:
402,192,562,128,0,3658:0:0:0:0:
109,192,562,1,0,0:0:0:0:
329,192,562,1,0,0:0:0:0:
182,192,755,1,0,0:0:0:0:
109,192,949,1,8,0:0:0:0:
36,192,949,1,0,0:0:0:0:
475,192,949,1,0,0:0:0:0:
256,192,1142,1,0,0:0:0:0:
329,192,1336,1,0,0:0:0:0:
182,192,1529,1,0,0:0:0:0:
109,192,1723,1,8,0:0:0:0:
36,192,1723,1,0,0:0:0:0:
475,192,1723,1,0,0:0:0:0:
256,192,1916,1,0,0:0:0:0:
182,192,2110,1,0,0:0:0:0:
329,192,2303,1,0,0:0:0:0:
256,192,2497,1,0,0:0:0:0:
109,192,2497,1,0,0:0:0:0:
36,192,2497,1,0,0:0:0:0:
475,192,2691,1,0,0:0:0:0:
182,192,2884,1,0,0:0:0:0:
329,192,3078,1,0,0:0:0:0:
109,192,3271,1,0,0:0:0:0:
36,192,3271,1,0,0:0:0:0:
256,192,3271,1,0,0:0:0:0:
329,192,3465,1,0,0:0:0:0:
109,192,3658,128,0,6755:0:0:0:0:
475,192,3658,1,0,0:0:0:0:
329,192,3852,1,0,0:0:0:0:
402,192,4045,1,0,0:0:0:0:
475,192,4045,1,0,0:0:0:0:
182,192,4045,1,0,0:0:0:0:
329,192,4239,1,0,0:0:0:0:
182,192,4432,1,0,0:0:0:0:
402,192,4626,1,0,0:0:0:0:
475,192,4820,1,0,0:0:0:0:
36,192,4820,1,0,0:0:0:0:
329,192,4820,1,0,0:0:0:0:
402,192,5013,1,0,0:0:0:0:
256,192,5207,1,0,0:0:0:0:
402,192,5400,1,0,0:0:0:0:
329,192,5594,1,0,0:0:0:0:
475,192,5594,1,0,0:0:0:0:
182,192,5594,1,0,0:0:0:0:
402,192,5787,1,0,0:0:0:0:
256,192,5981,1,0,0:0:0:0:
402,192,6174,1,0,0:0:0:0:
329,192,6368,1,0,0:0:0:0:
475,192,6368,1,0,0:0:0:0:
182,192,6368,1,0,0:0:0:0:
256,192,6561,1,0,0:0:0:0:
475,192,6755,128,0,9852:0:0:0:0:
36,192,6755,1,0,0:0:0:0:
182,192,6949,1,0,0:0:0:0:
329,192,7142,1,0,0:0:0:0:
402,192,7142,1,0,0:0:0:0:
109,192,7142,1,0,0:0:0:0:
182,192,7336,1,0,0:0:0:0:
329,192,7529,1,0,0:0:0:0:
182,192,7723,1,0,0:0:0:0:
402,192,7916,1,0,0:0:0:0:
109,192,7916,1,0,0:0:0:0:
36,192,7916,1,0,0:0:0:0:
182,192,8110,1,0,0:0:0:0:
256,192,8303,1,0,0:0:0:0:
329,192,8497,1,0,0:0:0:0:
402,192,8691,1,0,0:0:0:0:
182,192,8691,1,0,0:0:0:0:
109,192,8691,1,0,0:0:0:0:
329,192,8884,1,0,0:0:0:0:
36,192,9078,1,0,0:0:0:0:
182,192,9271,1,0,0:0:0:0:
329,192,9465,1,0,0:0:0:0:
402,192,9465,1,0,0:0:0:0:
109,192,9465,1,0,0:0:0:0:
256,192,9658,1,0,0:0:0:0:
36,192,9852,128,0,11400:0:0:0:0:
109,192,9852,1,0,0:0:0:0:
402,192,10045,1,0,0:0:0:0:
182,192,10045,1,0,0:0:0:0:
475,192,10239,1,0,0:0:0:0:
109,192,10239,1,0,0:0:0:0:
329,192,10336,1,0,0:0:0:0:
182,192,10432,1,0,0:0:0:0:
402,192,10432,1,0,0:0:0:0:
329,192,10626,1,0,0:0:0:0:
109,192,10626,1,0,0:0:0:0:
475,192,10820,1,0,0:0:0:0:
329,192,10916,1,0,0:0:0:0:
182,192,11013,1,0,0:0:0:0:
109,192,11013,1,0,0:0:0:0:
402,192,11207,1,0,0:0:0:0:
256,192,11303,1,0,0:0:0:0:
475,192,11400,1,0,0:0:0:0:
109,192,11400,1,0,0:0:0:0:
402,192,11594,1,0,0:0:0:0:
182,192,11787,1,0,0:0:0:0:
402,192,11981,1,0,0:0:0:0:
256,192,12174,1,0,0:0:0:0:
402,192,12368,1,0,0:0:0:0:
36,192,12561,1,0,0:0:0:0:
475,192,12561,1,0,0:0:0:0:
329,192,12755,1,0,0:0:0:0:
109,192,12949,128,0,14497:0:0:0:0:
402,192,12949,1,0,0:0:0:0:
182,192,12949,1,0,0:0:0:0:
329,192,13142,1,0,0:0:0:0:
36,192,13336,1,0,0:0:0:0:
475,192,13336,1,0,0:0:0:0:
256,192,13336,1,0,0:0:0:0:
329,192,13529,1,0,0:0:0:0:
182,192,13723,1,0,0:0:0:0:
402,192,13723,1,0,0:0:0:0:
329,192,13916,1,0,0:0:0:0:
36,192,14110,1,0,0:0:0:0:
402,192,14110,1,0,0:0:0:0:
182,192,14110,1,0,0:0:0:0:
256,192,14303,1,0,0:0:0:0:
182,192,14497,128,0,16045:0:0:0:0:
329,192,14497,1,0,0:0:0:0:
36,192,14497,1,0,0:0:0:0:
402,192,14691,1,0,0:0:0:0:
109,192,14884,1,0,0:0:0:0:
256,192,14884,1,0,0:0:0:0:
329,192,14884,1,0,0:0:0:0:
402,192,15078,1,0,0:0:0:0:
36,192,15271,1,0,0:0:0:0:
329,192,15271,1,0,0:0:0:0:
402,192,15465,1,0,0:0:0:0:
329,192,15658,1,0,0:0:0:0:
475,192,15658,1,0,0:0:0:0:
109,192,15658,1,0,0:0:0:0:
402,192,15852,1,0,0:0:0:0:
36,192,16045,1,0,0:0:0:0:
329,192,16045,1,0,0:0:0:0:
256,192,16045,1,0,0:0:0:0:
475,192,16045,128,0,17594:0:0:0:0:
109,192,16239,1,0,0:0:0:0:
402,192,16432,1,0,0:0:0:0:
256,192,16432,1,0,0:0:0:0:
36,192,16432,1,0,0:0:0:0:
109,192,16626,1,0,0:0:0:0:
329,192,16820,1,0,0:0:0:0:
36,192,16820,1,0,0:0:0:0:
182,192,16820,1,0,0:0:0:0:
109,192,17013,1,0,0:0:0:0:
402,192,17207,1,0,0:0:0:0:
36,192,17207,1,0,0:0:0:0:
256,192,17207,1,0,0:0:0:0:
182,192,17400,1,0,0:0:0:0:
329,192,17594,128,0,19142:0:0:0:0:
109,192,17594,1,0,0:0:0:0:
402,192,17594,1,0,0:0:0:0:
182,192,17787,1,0,0:0:0:0:
36,192,17981,1,0,0:0:0:0:
256,192,17981,1,0,0:0:0:0:
475,192,17981,1,0,0:0:0:0:
182,192,18174,1,0,0:0:0:0:
36,192,18368,1,0,0:0:0:0:
402,192,18368,1,0,0:0:0:0:
109,192,18561,1,0,0:0:0:0:
36,192,18755,1,0,0:0:0:0:
182,192,18755,1,0,0:0:0:0:
475,192,18755,1,0,0:0:0:0:
109,192,18949,1,0,0:0:0:0:
36,192,19142,128,0,20691:0:0:0:0:
475,192,19142,1,0,0:0:0:0:
182,192,19142,1,0,0:0:0:0:
256,192,19336,1,0,0:0:0:0:
402,192,19529,1,0,0:0:0:0:
329,192,19529,1,0,0:0:0:0:
109,192,19529,1,0,0:0:0:0:
256,192,19723,1,0,0:0:0:0:
182,192,19916,1,0,0:0:0:0:
475,192,19916,1,0,0:0:0:0:
329,192,20110,1,0,0:0:0:0:
109,192,20303,1,0,0:0:0:0:
402,192,20303,1,0,0:0:0:0:
256,192,20303,1,0,0:0:0:0:
329,192,20497,1,0,0:0:0:0:
182,192,20691,128,0,22239:0:0:0:0:
402,192,20691,1,0,0:0:0:0:
109,192,20691,1,0,0:0:0:0:
329,192,20884,1,0,0:0:0:0:
256,192,21078,1,0,0:0:0:0:
475,192,21078,1,0,0:0:0:0:
36,192,21078,1,0,0:0:0:0:
329,192,21271,1,0,0:0:0:0:
475,192,21465,1,0,0:0:0:0:
109,192,21465,1,0,0:0:0:0:
402,192,21658,1,0,0:0:0:0:
329,192,21852,1,0,0:0:0:0:
475,192,21852,1,0,0:0:0:0:
36,192,21852,1,0,0:0:0:0:
256,192,22045,1,0,0:0:0:0:
402,192,22239,128,0,23787:0:0:0:0:
36,192,22239,1,0,0:0:0:0:
109,192,22239,1,0,0:0:0:0:
329,192,22432,1,0,0:0:0:0:
256,192,22626,1,0,0:0:0:0:
36,192,22626,1,0,0:0:0:0:
182,192,22626,1,0,0:0:0:0:
109,192,22820,1,0,0:0:0:0:
329,192,23013,1,0,0:0:0:0:
182,192,23013,1,0,0:0:0:0:
36,192,23207,1,0,0:0:0:0:
475,192,23400,1,0,0:0:0:0:
109,192,23400,1,0,0:0:0:0:
256,192,23400,1,0,0:0:0:0:
329,192,23594,1,0,0:0:0:0:
475,192,23787,1,0,0:0:0:0:
36,192,23787,1,0,0:0:0:0:
182,192,23787,128,0,25336:0:0:0:0:
329,192,23981,1,0,0:0:0:0:
109,192,23981,1,0,0:0:0:0:
475,192,24174,1,0,0:0:0:0:
256,192,24174,1,0,0:0:0:0:
36,192,24174,1,0,0:0:0:0:
109,192,24368,1,0,0:0:0:0:
402,192,24561,1,0,0:0:0:0:
329,192,24561,1,0,0:0:0:0:
109,192,24755,1,0,0:0:0:0:
256,192,24949,1,0,0:0:0:0:
475,192,24949,1,0,0:0:0:0:
36,192,24949,1,0,0:0:0:0:
329,192,25142,1,0,0:0:0:0:
109,192,25142,1,0,0:0:0:0:
475,192,25336,128,0,26884:0:0:0:0:
256,192,25336,1,0,0:0:0:0:
36,192,25336,1,0,0:0:0:0:
109,192,25529,1,0,0:0:0:0:
402,192,25723,1,0,0:0:0:0:
36,192,25723,1,0,0:0:0:0:
182,192,25723,1,0,0:0:0:0:
109,192,25916,1,0,0:0:0:0:
329,192,26110,1,0,0:0:0:0:
182,192,26110,1,0,0:0:0:0:
109,192,26303,1,0,0:0:0:0:
402,192,26497,1,0,0:0:0:0:
36,192,26497,1,0,0:0:0:0:
256,192,26497,1,0,0:0:0:0:
109,192,26691,1,0,0:0:0:0:
182,192,26884,128,0,28432:0:0:0:0:
256,192,26884,1,0,0:0:0:0:
402,192,26884,1,0,0:0:0:0:
329,192,27078,1,0,0:0:0:0:
475,192,27271,1,0,0:0:0:0:
402,192,27271,1,0,0:0:0:0:
36,192,27271,1,0,0:0:0:0:
329,192,27465,1,0,0:0:0:0:
109,192,27658,1,0,0:0:0:0:
256,192,27658,1,0,0:0:0:0:
329,192,27852,1,0,0:0:0:0:
36,192,28045,1,0,0:0:0:0:
402,192,28045,1,0,0:0:0:0:
256,192,28045,1,0,0:0:0:0:
329,192,28239,1,0,0:0:0:0:
402,192,28432,128,0,29981:0:0:0:0:
109,192,28432,1,0,0:0:0:0:
256,192,28432,1,0,0:0:0:0:
36,192,28626,1,0,0:0:0:0:
109,192,28820,1,0,0:0:0:0:
475,192,28820,1,0,0:0:0:0:
329,192,28820,1,0,0:0:0:0:
36,192,29013,1,0,0:0:0:0:
329,192,29207,1,0,0:0:0:0:
109,192,29207,1,0,0:0:0:0:
182,192,29400,1,0,0:0:0:0:
475,192,29594,1,0,0:0:0:0:
256,192,29594,1,0,0:0:0:0:
36,192,29594,1,0,0:0:0:0:
329,192,29787,1,0,0:0:0:0:
109,192,29981,128,0,31529:0:0:0:0:
36,192,29981,1,0,0:0:0:0:
475,192,29981,1,0,0:0:0:0:
329,192,30174,1,0,0:0:0:0:
182,192,30368,1,0,0:0:0:0:
475,192,30368,1,0,0:0:0:0:
256,192,30368,1,0,0:0:0:0:
329,192,30561,1,0,0:0:0:0:
36,192,30755,1,0,0:0:0:0:
402,192,30755,1,0,0:0:0:0:
256,192,30949,1,0,0:0:0:0:
329,192,31142,1,0,0:0:0:0:
475,192,31142,1,0,0:0:0:0:
36,192,31142,1,0,0:0:0:0:
256,192,31336,1,0,0:0:0:0:
329,192,31529,128,0,33078:0:0:0:0:
475,192,31529,1,0,0:0:0:0:
182,192,31529,1,0,0:0:0:0:
109,192,31723,1,0,0:0:0:0:
402,192,31916,1,0,0:0:0:0:
36,192,31916,1,0,0:0:0:0:
182,192,31916,1,0,0:0:0:0:
109,192,32110,1,0,0:0:0:0:
475,192,32303,1,0,0:0:0:0:
182,192,32303,1,0,0:0:0:0:
109,192,32497,1,0,0:0:0:0:
402,192,32691,1,0,0:0:0:0:
36,192,32691,1,0,0:0:0:0:
182,192,32691,1,0,0:0:0:0:
475,192,32884,1,0,0:0:0:0:
109,192,32884,1,0,0:0:0:0:
36,192,33078,128,0,34626:0:0:0:0:
182,192,33078,1,0,0:0:0:0:
402,192,33078,1,0,0:0:0:0:
256,192,33271,1,0,0:0:0:0:
109,192,33465,1,0,0:0:0:0:
475,192,33465,1,0,0:0:0:0:
329,192,33465,1,0,0:0:0:0:
402,192,33658,1,0,0:0:0:0:
182,192,33852,1,0,0:0:0:0:
475,192,33852,1,0,0:0:0:0:
329,192,34045,1,0,0:0:0:0:
109,192,34239,1,0,0:0:0:0:
256,192,34239,1,0,0:0:0:0:
475,192,34239,1,0,0:0:0:0:
329,192,34432,1,0,0:0:0:0:
109,192,34626,1,0,0:0:0:0:
475,192,34626,1,0,0:0:0:0:
109,192,34820,1,0,0:0:0:0:
109,192,35013,1,0,0:0:0:0:
475,192,35013,1,0,0:0:0:0:
329,192,35013,1,0,0:0:0:0:
109,192,35207,1,0,0:0:0:0:
109,192,35400,1,0,0:0:0:0:
329,192,35400,1,0,0:0:0:0:
109,192,35594,1,0,0:0:0:0:
109,192,35787,1,0,0:0:0:0:
329,192,35787,1,0,0:0:0:0:
475,192,35787,1,0,0:0:0:0:
109,192,35981,1,0,0:0:0:0:
256,192,36174,128,0,37723:0:0:0:0:
475,192,36174,1,0,0:0:0:0:
402,192,36174,1,0,0:0:0:0:
109,192,36368,1,0,0:0:0:0:
36,192,36368,1,0,0:0:0:0:
402,192,36368,1,0,0:0:0:0:
402,192,36561,1,0,0:0:0:0:
329,192,36658,1,0,0:0:0:0:
182,192,36755,1,0,0:0:0:0:
109,192,36755,1,0,0:0:0:0:
402,192,36755,1,0,0:0:0:0:
402,192,36949,1,0,0:0:0:0:
475,192,36949,1,0,0:0:0:0:
36,192,36949,1,0,0:0:0:0:
109,192,37142,1,0,0:0:0:0:
402,192,37142,1,0,0:0:0:0:
182,192,37239,1,0,0:0:0:0:
329,192,37336,1,0,0:0:0:0:
475,192,37336,1,0,0:0:0:0:
402,192,37336,1,0,0:0:0:0:
109,192,37529,1,0,0:0:0:0:
402,192,37529,1,0,0:0:0:0:
182,192,37626,1,0,0:0:0:0:
475,192,37723,1,0,0:0:0:0:
36,192,37723,128,0,38497:0:0:0:0:
402,192,37723,1,0,0:0:0:0:
329,192,37916,1,0,0:0:0:0:
402,192,38110,1,0,0:0:0:0:
475,192,38110,1,0,0:0:0:0:
182,192,38110,1,0,0:0:0:0:
256,192,38303,1,0,0:0:0:0:
182,192,38497,128,0,39271:0:0:0:0:
329,192,38497,1,0,0:0:0:0:
475,192,38691,1,0,0:0:0:0:
402,192,38884,1,0,0:0:0:0:
329,192,38884,1,0,0:0:0:0:
109,192,38884,1,0,0:0:0:0:
256,192,39078,1,0,0:0:0:0:
475,192,39271,128,0,40045:0:0:0:0:
402,192,39271,1,0,0:0:0:0:
329,192,39465,1,0,0:0:0:0:
36,192,39658,1,0,0:0:0:0:
182,192,39658,1,0,0:0:0:0:
402,192,39658,1,0,0:0:0:0:
109,192,39852,1,0,0:0:0:0:
329,192,40045,128,0,40820:0:0:0:0:
182,192,40045,1,0,0:0:0:0:
256,192,40239,1,0,0:0:0:0:
475,192,40432,1,0,0:0:0:0:
36,192,40432,1,0,0:0:0:0:
109,192,40432,1,0,0:0:0:0:
182,192,40626,1,0,0:0:0:0:
109,192,40820,128,0,41594:0:0:0:0:
256,192,40820,1,0,0:0:0:0:
402,192,41013,1,0,0:0:0:0:
182,192,41207,1,0,0:0:0:0:
475,192,41207,1,0,0:0:0:0:
329,192,41207,1,0,0:0:0:0:
256,192,41400,1,0,0:0:0:0:
402,192,41594,128,0,42368:0:0:0:0:
329,192,41594,1,0,0:0:0:0:
182,192,41787,1,0,0:0:0:0:
36,192,41981,1,0,0:0:0:0:
109,192,41981,1,0,0:0:0:0:
256,192,41981,1,0,0:0:0:0:
182,192,42174,1,0,0:0:0:0:
329,192,42368,128,0,43142:0:0:0:0:
36,192,42368,1,0,0:0:0:0:
109,192,42561,1,0,0:0:0:0:
402,192,42755,1,0,0:0:0:0:
475,192,42755,1,0,0:0:0:0:
182,192,42755,1,0,0:0:0:0:
109,192,42949,1,0,0:0:0:0:
36,192,43142,128,0,43916:0:0:0:0:
256,192,43142,1,0,0:0:0:0:
402,192,43336,1,0,0:0:0:0:
475,192,43336,1,0,0:0:0:0:
182,192,43529,1,0,0:0:0:0:
402,192,43723,1,0,0:0:0:0:
329,192,43723,1,0,0:0:0:0:
475,192,43916,128,0,44691:0:0:0:0:
109,192,43916,1,0,0:0:0:0:
256,192,43916,1,0,0:0:0:0:
182,192,44110,1,0,0:0:0:0:
329,192,44303,1,0,0:0:0:0:
402,192,44303,1,0,0:0:0:0:
36,192,44303,1,0,0:0:0:0:
256,192,44497,1,0,0:0:0:0:
402,192,44691,128,0,45465:0:0:0:0:
182,192,44691,1,0,0:0:0:0:
109,192,44884,1,0,0:0:0:0:
182,192,45078,1,0,0:0:0:0:
36,192,45078,1,0,0:0:0:0:
329,192,45078,1,0,0:0:0:0:
256,192,45271,1,0,0:0:0:0:
109,192,45465,128,0,46239:0:0:0:0:
329,192,45465,1,0,0:0:0:0:
475,192,45658,1,0,0:0:0:0:
329,192,45852,1,0,0:0:0:0:
182,192,45852,1,0,0:0:0:0:
402,192,45852,1,0,0:0:0:0:
256,192,46045,1,0,0:0:0:0:
182,192,46239,128,0,47013:0:0:0:0:
402,192,46239,1,0,0:0:0:0:
329,192,46432,1,0,0:0:0:0:
402,192,46626,1,0,0:0:0:0:
256,192,46626,1,0,0:0:0:0:
109,192,46626,1,0,0:0:0:0:
475,192,46820,1,0,0:0:0:0:
329,192,47013,128,0,47787:0:0:0:0:
36,192,47013,1,0,0:0:0:0:
256,192,47207,1,0,0:0:0:0:
109,192,47400,1,0,0:0:0:0:
182,192,47400,1,0,0:0:0:0:
402,192,47400,1,0,0:0:0:0:
256,192,47594,1,0,0:0:0:0:
36,192,47787,128,0,48561:0:0:0:0:
109,192,47787,1,0,0:0:0:0:
182,192,47981,1,0,0:0:0:0:
402,192,48174,1,0,0:0:0:0:
475,192,48174,1,0,0:0:0:0:
256,192,48174,1,0,0:0:0:0:
329,192,48368,1,0,0:0:0:0:
475,192,48561,128,0,49336:0:0:0:0:
109,192,48561,1,0,0:0:0:0:
329,192,48755,1,0,0:0:0:0:
402,192,48755,1,0,0:0:0:0:
182,192,48949,1,0,0:0:0:0:
109,192,49045,1,0,0:0:0:0:
329,192,49142,1,0,0:0:0:0:
402,192,49142,1,0,0:0:0:0:
256,192,49336,128,0,50110:0:0:0:0:
182,192,49336,1,0,0:0:0:0:
109,192,49529,1,0,0:0:0:0:
402,192,49626,1,0,0:0:0:0:
182,192,49723,1,0,0:0:0:0:
36,192,49723,1,0,0:0:0:0:
475,192,49916,1,0,0:0:0:0:
402,192,50013,1,0,0:0:0:0:
329,192,50110,1,0,0:0:0:0:
36,192,50110,1,0,0:0:0:0:
36,192,50303,1,0,0:0:0:0:
36,192,50497,1,0,0:0:0:0:
36,192,50691,1,0,0:0:0:0:
36,192,50884,1,0,0:0:0:0:
36,192,51078,1,0,0:0:0:0:
36,192,51271,1,0,0:0:0:0:
36,192,51465,1,0,0:0:0:0:
402,192,51658,1,0,0:0:0:0:
402,192,51852,1,0,0:0:0:0:
402,192,52045,1,0,0:0:0:0:
402,192,52239,1,0,0:0:0:0:
402,192,52432,1,0,0:0:0:0:
402,192,52626,1,0,0:0:0:0:
402,192,52820,1,0,0:0:0:0:
402,192,53013,1,0,0:0:0:0:
182,192,53207,1,0,0:0:0:0:
182,192,53400,1,0,0:0:0:0:
182,192,53594,1,0,0:0:0:0:
182,192,53787,1,0,0:0:0:0:
182,192,53981,1,0,0:0:0:0:
182,192,54174,1,0,0:0:0:0:
182,192,54368,1,0,0:0:0:0:
182,192,54561,1,0,0:0:0:0:
475,192,54755,1,0,0:0:0:0:
475,192,54949,1,0,0:0:0:0:
475,192,55142,1,0,0:0:0:0:
475,192,55336,1,0,0:0:0:0:
475,192,55529,1,0,0:0:0:0:
475,192,55723,1,0,0:0:0:0:
475,192,55916,1,0,0:0:0:0:
475,192,56110,1,0,0:0:0:0:
36,192,56303,1,0,0:0:0:0:
36,192,56497,1,0,0:0:0:0:
36,192,56691,1,0,0:0:0:0:
36,192,56884,1,0,0:0:0:0:
36,192,57078,1,0,0:0:0:0:
36,192,57271,1,0,0:0:0:0:
36,192,57465,1,0,0:0:0:0:
36,192,57658,1,0,0:0:0:0:
329,192,57852,1,0,0:0:0:0:
329,192,58045,1,0,0:0:0:0:
329,192,58239,1,0,0:0:0:0:
329,192,58432,1,0,0:0:0:0:
329,192,58626,1,0,0:0:0:0:
329,192,58820,1,0,0:0:0:0:
329,192,59013,1,0,0:0:0:0:
329,192,59207,1,0,0:0:0:0:
182,192,59400,1,0,0:0:0:0:
182,192,59594,1,0,0:0:0:0:
182,192,59787,1,0,0:0:0:0:
182,192,59981,1,0,0:0:0:0:
182,192,60174,1,0,0:0:0:0:
182,192,60368,1,0,0:0:0:0:
182,192,60561,1,0,0:0:0:0:
182,192,60755,1,0,0:0:0:0:
402,192,60949,1,0,0:0:0:0:
402,192,61142,1,0,0:0:0:0:
402,192,61336,1,0,0:0:0:0:
402,192,61529,1,0,0:0:0:0:
402,192,61723,1,0,0:0:0:0:
402,192,61916,1,0,0:0:0:0:
402,192,62110,1,0,0:0:0:0:
109,192,62110,1,0,0:0:0:0:
402,192,62303,1,0,0:0:0:0:
36,192,62497,128,0,64045:0:0:0:0:
329,192,62497,1,0,0:0:0:0:
182,192,62497,1,0,0:0:0:0:
182,192,62691,1,0,0:0:0:0:
256,192,62884,1,0,0:0:0:0:
182,192,62884,1,0,0:0:0:0:
182,192,63078,1,0,0:0:0:0:
329,192,63271,1,0,0:0:0:0:
182,192,63271,1,0,0:0:0:0:
182,192,63465,1,0,0:0:0:0:
402,192,63658,1,0,0:0:0:0:
182,192,63658,1,0,0:0:0:0:
182,192,63852,1,0,0:0:0:0:
475,192,64045,128,0,65594:0:0:0:0:
109,192,64045,1,0,0:0:0:0:
329,192,64045,1,0,0:0:0:0:
256,192,64239,1,0,0:0:0:0:
109,192,64336,1,0,0:0:0:0:
329,192,64432,1,0,0:0:0:0:
182,192,64626,1,0,0:0:0:0:
402,192,64723,1,0,0:0:0:0:
109,192,64820,1,0,0:0:0:0:
329,192,65013,1,0,0:0:0:0:
36,192,65110,1,0,0:0:0:0:
182,192,65207,1,0,0:0:0:0:
329,192,65400,1,0,0:0:0:0:
109,192,65497,1,0,0:0:0:0:
182,192,65594,128,0,67142:0:0:0:0:
329,192,65594,1,0,0:0:0:0:
402,192,65594,1,0,0:0:0:0:
256,192,65787,1,0,0:0:0:0:
475,192,65884,1,0,0:0:0:0:
109,192,65981,1,0,0:0:0:0:
329,192,65981,1,0,0:0:0:0:
475,192,66174,1,0,0:0:0:0:
402,192,66271,1,0,0:0:0:0:
36,192,66368,1,0,0:0:0:0:
329,192,66368,1,0,0:0:0:0:
402,192,66561,1,0,0:0:0:0:
256,192,66658,1,0,0:0:0:0:
109,192,66755,1,0,0:0:0:0:
475,192,66755,1,0,0:0:0:0:
402,192,66949,1,0,0:0:0:0:
256,192,67045,1,0,0:0:0:0:
329,192,67142,128,0,67916:0:0:0:0:
109,192,67142,1,0,0:0:0:0:
36,192,67142,1,0,0:0:0:0:
256,192,67336,1,0,0:0:0:0:
402,192,67529,1,0,0:0:0:0:
36,192,67529,1,0,0:0:0:0:
109,192,67723,1,0,0:0:0:0:
475,192,67916,1,0,0:0:0:0:
182,192,67916,128,0,68691:0:0:0:0:
256,192,67916,1,0,0:0:0:0:
36,192,68110,1,0,0:0:0:0:
402,192,68303,1,0,0:0:0:0:
109,192,68303,1,0,0:0:0:0:
256,192,68497,1,0,0:0:0:0:
475,192,68691,128,0,70239:0:0:0:0:
36,192,68691,1,0,0:0:0:0:
402,192,68691,1,0,0:0:0:0:
329,192,68884,1,0,0:0:0:0:
402,192,69078,1,0,0:0:0:0:
109,192,69078,1,0,0:0:0:0:
256,192,69271,1,0,0:0:0:0:
329,192,69465,1,0,0:0:0:0:
36,192,69465,1,0,0:0:0:0:
182,192,69658,1,0,0:0:0:0:
256,192,69852,1,0,0:0:0:0:
36,192,69852,1,0,0:0:0:0:
109,192,70045,1,0,0:0:0:0:
36,192,70239,128,0,71787:0:0:0:0:
402,192,70239,1,0,0:0:0:0:
182,192,70239,1,0,0:0:0:0:
329,192,70432,1,0,0:0:0:0:
475,192,70626,1,0,0:0:0:0:
109,192,70626,1,0,0:0:0:0:
329,192,70820,1,0,0:0:0:0:
402,192,71013,1,0,0:0:0:0:
109,192,71013,1,0,0:0:0:0:
256,192,71207,1,0,0:0:0:0:
329,192,71400,1,0,0:0:0:0:
182,192,71400,1,0,0:0:0:0:
256,192,71594,1,0,0:0:0:0:
109,192,71787,128,0,73336:0:0:0:0:
475,192,71787,1,0,0:0:0:0:
182,192,71787,1,0,0:0:0:0:
329,192,71981,1,0,0:0:0:0:
402,192,72174,1,0,0:0:0:0:
256,192,72174,1,0,0:0:0:0:
475,192,72368,1,0,0:0:0:0:
329,192,72561,1,0,0:0:0:0:
182,192,72561,1,0,0:0:0:0:
256,192,72755,1,0,0:0:0:0:
402,192,72949,1,0,0:0:0:0:
182,192,72949,1,0,0:0:0:0:
329,192,73142,1,0,0:0:0:0:
475,192,73336,128,0,74884:0:0:0:0:
36,192,73336,1,0,0:0:0:0:
329,192,73529,1,0,0:0:0:0:
402,192,73529,1,0,0:0:0:0:
109,192,73723,1,0,0:0:0:0:
182,192,73820,1,0,0:0:0:0:
256,192,73916,1,0,0:0:0:0:
329,192,73916,1,0,0:0:0:0:
36,192,74110,1,0,0:0:0:0:
109,192,74110,1,0,0:0:0:0:
402,192,74400,1,0,0:0:0:0:
329,192,74400,1,0,0:0:0:0:
36,192,74497,1,0,0:0:0:0:
329,192,74594,1,0,0:0:0:0:
256,192,74594,1,0,0:0:0:0:
182,192,74691,1,0,0:0:0:0:
109,192,74691,1,0,0:0:0:0:
36,192,74884,128,0,75465:0:0:0:0:
402,192,74884,1,0,0:0:0:0:
256,192,74884,1,0,0:0:0:0:
182,192,75078,1,0,0:0:0:0:
475,192,75271,1,0,0:0:0:0:
402,192,75271,1,0,0:0:0:0:
256,192,75271,1,0,0:0:0:0:
109,192,75465,128,0,75658:0:0:0:0:
329,192,75465,1,0,0:0:0:0:
182,192,75658,1,0,0:0:0:0:
402,192,75658,1,0,0:0:0:0:
256,192,75852,1,0,0:0:0:0:
402,192,76045,128,0,77981:0:0:0:0:
36,192,76045,1,0,0:0:0:0:
109,192,76045,1,0,0:0:0:0:
329,192,76045,1,0,0:0:0:0:
182,192,76239,1,0,0:0:0:0:
329,192,76432,1,0,0:0:0:0:
109,192,76626,1,0,0:0:0:0:
182,192,76820,1,0,0:0:0:0:
36,192,76820,1,0,0:0:0:0:
329,192,76820,1,0,0:0:0:0:
109,192,77013,1,0,0:0:0:0:
475,192,77207,1,0,0:0:0:0:
256,192,77207,1,0,0:0:0:0:
182,192,77400,1,0,0:0:0:0:
329,192,77594,1,0,0:0:0:0:
109,192,77594,1,0,0:0:0:0:
36,192,77594,1,0,0:0:0:0:
182,192,77787,1,0,0:0:0:0:
329,192,77981,128,0,78561:0:0:0:0:
475,192,77981,1,0,0:0:0:0:
109,192,77981,1,0,0:0:0:0:
256,192,78174,1,0,0:0:0:0:
36,192,78368,1,0,0:0:0:0:
182,192,78368,1,0,0:0:0:0:
402,192,78561,128,0,78755:0:0:0:0:
109,192,78561,1,0,0:0:0:0:
182,192,78755,1,0,0:0:0:0:
475,192,78755,1,0,0:0:0:0:
256,192,78949,1,0,0:0:0:0:
36,192,79142,128,0,81078:0:0:0:0:
182,192,79142,1,0,0:0:0:0:
329,192,79142,1,0,0:0:0:0:
109,192,79142,1,0,0:0:0:0:
402,192,79336,1,0,0:0:0:0:
475,192,79529,1,0,0:0:0:0:
256,192,79529,1,0,0:0:0:0:
109,192,79723,1,0,0:0:0:0:
402,192,79916,1,0,0:0:0:0:
182,192,79916,1,0,0:0:0:0:
475,192,79916,1,0,0:0:0:0:
329,192,80110,1,0,0:0:0:0:
475,192,80303,1,0,0:0:0:0:
182,192,80303,1,0,0:0:0:0:
256,192,80497,1,0,0:0:0:0:
402,192,80691,1,0,0:0:0:0:
109,192,80691,1,0,0:0:0:0:
329,192,80691,1,0,0:0:0:0:
475,192,80884,1,0,0:0:0:0:
109,192,81078,128,0,81658:0:0:0:0:
402,192,81078,1,0,0:0:0:0:
182,192,81078,1,0,0:0:0:0:
329,192,81271,1,0,0:0:0:0:
475,192,81465,1,0,0:0:0:0:
402,192,81465,1,0,0:0:0:0:
36,192,81465,1,0,0:0:0:0:
182,192,81658,128,0,81852:0:0:0:0:
329,192,81658,1,0,0:0:0:0:
256,192,81852,1,0,0:0:0:0:
475,192,81852,1,0,0:0:0:0:
329,192,82045,1,0,0:0:0:0:
402,192,82239,128,0,84174:0:0:0:0:
109,192,82239,1,0,0:0:0:0:
36,192,82239,1,0,0:0:0:0:
475,192,82239,1,0,0:0:0:0:
182,192,82432,1,0,0:0:0:0:
329,192,82626,1,0,0:0:0:0:
109,192,82626,1,0,0:0:0:0:
182,192,82820,1,0,0:0:0:0:
256,192,83013,1,0,0:0:0:0:
475,192,83013,1,0,0:0:0:0:
36,192,83013,1,0,0:0:0:0:
329,192,83207,1,0,0:0:0:0:
182,192,83400,1,0,0:0:0:0:
36,192,83400,1,0,0:0:0:0:
256,192,83594,1,0,0:0:0:0:
109,192,83787,1,0,0:0:0:0:
329,192,83787,1,0,0:0:0:0:
36,192,83787,1,0,0:0:0:0:
182,192,83981,1,0,0:0:0:0:
36,192,84174,128,0,84755:0:0:0:0:
256,192,84174,1,0,0:0:0:0:
329,192,84368,1,0,0:0:0:0:
182,192,84561,1,0,0:0:0:0:
256,192,84561,1,0,0:0:0:0:
475,192,84561,1,0,0:0:0:0:
109,192,84755,128,0,84949:0:0:0:0:
402,192,84755,1,0,0:0:0:0:
182,192,84949,1,0,0:0:0:0:
329,192,84949,1,0,0:0:0:0:
256,192,85142,1,0,0:0:0:0:
36,192,85336,1,0,0:0:0:0:
329,192,85336,1,0,0:0:0:0:
182,192,85336,1,0,0:0:0:0:
402,192,85529,1,0,0:0:0:0:
475,192,85529,128,0,85723:0:0:0:0:
402,192,85723,1,0,0:0:0:0:
329,192,85723,128,0,85916:0:0:0:0:
109,192,85916,1,0,0:0:0:0:
36,192,85916,128,0,86110:0:0:0:0:
109,192,86110,1,0,0:0:0:0:
256,192,86110,128,0,86303:0:0:0:0:
329,192,86303,1,0,0:0:0:0:
402,192,86303,128,0,86497:0:0:0:0:
329,192,86497,1,0,0:0:0:0:
182,192,86691,1,0,0:0:0:0:
256,192,86691,128,0,86884:0:0:0:0:
182,192,86884,1,0,0:0:0:0:
109,192,86884,128,0,87078:0:0:0:0:
36,192,87078,1,0,0:0:0:0:
36,192,87271,128,0,89207:0:0:0:0:
