osu file format v5

[General]
AudioFilename: 01. Fujisawa Loser.mp3
AudioLeadIn: 0
PreviewTime: -1
Countdown: 1
SampleSet: Normal
StackLeniency: 0.7
Mode: 0
LetterboxInBreaks: 1
EditorBookmarks: 41163,75895,154173

[Metadata]
Title:Fujisawa Loser
Artist:Asian Kung-Fu Generation
Creator:DawnII
Version:Loser
Source:
Tags:

[Difficulty]
HPDrainRate:7
CircleSize:5
OverallDifficulty:7
SliderMultiplier:1.4
SliderTickRate:1

[Events]
//Background and Video events
0,0,"Fujisawa.jpg"
1,-18870,"Fujisawa Loser.avi"
//Break Periods
2,11960,17360
2,65436,76097
2,104768,115431
//Storyboard Layer 0 (Background)
//Storyboard Layer 1 (Failing)
//Storyboard Layer 2 (Passing)
//Storyboard Layer 3 (Foreground)
//Storyboard Sound Samples
//Background Colour Transformations
3,100,163,162,255

[TimingPoints]
6425,367.534456355283,4,1,0,100,1,0

[HitObjects]
256,64,6424,1,4
256,224,6792,1,0
96,192,7343,6,2,B|128:256,1,70
224,288,7711,2,2,B|320:288,1,70
384,256,8078,2,2,B|416:192,2,70
256,256,8813,5,0
256,96,9181,1,0
256,96,9365,2,4,B|320:64|224:0|192:32,1,140
64,128,10284,6,2,B|64:216,1,70
160,224,10651,2,2,B|224:192,1,70
320,192,11019,2,2,B|320:264,1,70
320,352,11386,2,6,B|424:352,2,70
256,64,18553,5,0
416,96,18921,1,0
448,192,19104,1,0
416,288,19288,1,0
256,320,19656,1,0
256,224,19840,1,0
256,128,20023,2,2,B|256:96|192:64|128:96,1,140
96,192,20575,1,0
128,288,20758,1,0
192,96,21126,6,8,B|224:32,1,70
320,32,21493,2,8,B|352:96,1,70
352,192,21861,2,0,B|288:160,1,70,0|8
192,192,22228,2,2,B|128:224|192:288|256:288,1,140
416,288,22964,5,0
384,192,23147,1,0
416,96,23331,2,0,B|448:64|384:32|320:32,2,140,0|0|4
256,224,24434,5,0
256,64,24801,2,0,B|192:32,1,70
160,128,25169,1,0
160,288,25536,1,0
320,320,25904,1,0
352,224,26088,2,0,B|288:192,1,70
288,96,26455,2,0,B|352:64,1,70
256,224,27006,6,2,B|256:320,2,70
256,96,27741,5,0
256,96,27925,1,0
256,96,28109,2,8,B|256:192,2,70
352,128,28660,1,0
320,224,28844,2,2,B|352:256|320:288|384:352,2,140,2|2|4
256,96,29947,5,4
96,352,30314,5,0
128,192,30682,2,0,B|224:192,1,70
192,288,31049,1,0
352,256,31417,2,0,B|256:256,2,70
320,96,32152,1,0
224,128,32336,1,0
320,160,32519,1,0
256,352,32887,6,8,B|288:288,1,70
384,288,33255,1,8
384,192,33438,2,8,B|320:224,1,70,8|0
224,224,33806,1,8
128,256,33990,2,2,B|64:288|32:224|96:160,2,140,2|2|4
288,224,35092,1,4
256,128,35276,2,0,B|192:64,2,70
352,160,35827,1,4
128,64,36195,6,0,B|64:96,1,70
64,192,36562,2,0,B|96:256,1,70
192,224,36930,2,4,B|215:280|288:192|320:288,2,140
224,128,37849,1,0
320,160,38032,2,0,B|320:256,2,70
480,128,38768,1,2
480,224,38951,1,2
384,192,39135,1,2
352,320,39503,5,4
256,288,39686,1,0
224,192,39870,2,8,B|160:224,1,70
192,320,40238,1,12
384,288,40605,1,12
352,96,40973,1,12
256,256,41524,5,0
288,160,41708,1,0
256,64,41892,1,0
160,96,42075,1,0
128,192,42259,2,2,B|192:160|211:220|59:298,1,210
224,320,43178,1,0
320,288,43362,1,0
320,288,43545,1,0
288,192,43729,2,8,B|256:224|224:192,1,70
224,96,44097,2,8,B|256:128|288:96,2,70
96,64,44648,6,2,B|64:96|58:143|96:192,1,140,2|0
192,160,45199,2,2,B|256:160|243:226|192:256,1,140
96,256,45751,2,2,B|64:256|64:192,1,70,0|0
160,160,46118,2,0,B|192:160|192:96,1,70
96,96,46486,1,0
96,256,46853,2,8,B|192:256,1,70
160,352,47221,2,8,B|256:352,1,70
352,320,47588,5,4
352,160,47956,1,0
256,128,48140,2,0,B|213:98|320:96,1,70
384,96,48507,1,0
480,96,48691,2,0,B|480:64|448:32|416:64,1,70
288,32,49426,5,0
192,64,49610,1,0
192,64,49794,1,0
192,160,49977,2,0,B|128:192,1,70,0|2
128,288,50345,2,2,B|192:256,1,70
288,224,50712,2,2,B|256:192|288:160|352:128|384:192|416:160|416:96,1,210
320,96,51447,1,4
320,96,51631,1,0
224,128,51815,2,8,B|224:32,1,70
256,352,52366,5,4
256,192,52734,2,0,B|256:128,4,35
256,288,53285,5,0
352,256,53469,1,0
256,192,53836,12,0,55674
256,192,56042,5,0
256,32,56409,6,0,B|256:128,1,70
192,160,56777,2,0,B|256:192,1,70
352,192,57144,1,2
448,192,57328,1,2
352,192,57512,1,2
192,224,57879,1,2
192,320,58063,1,2
192,224,58247,1,2
320,96,58614,2,8,B|320:0,2,70
288,192,59166,1,12
256,320,59349,5,2
352,352,59533,1,0
384,256,59717,1,2
480,288,59901,1,0
480,192,60085,2,2,B|416:160,2,70
480,192,60636,1,4
448,64,61003,5,0
352,32,61187,1,0
320,128,61371,1,0
288,352,61922,5,8
192,320,62106,2,2,B|256:288|224:192,1,140
128,192,62657,1,8
96,288,62841,1,8
64,192,63025,2,2,B|96:128|96:128|96:128,1,70,2|10
96,128,63392,5,10
256,64,63760,1,0
288,224,64127,1,0
448,160,64495,1,0
288,128,64862,2,4,B|288:224,2,70,4|12|4
32,64,76991,6,2,B|192:96,1,140,0|8
128,256,77726,2,2,B|288:288,1,140,0|8
256,128,78461,2,2,B|416:160,1,140,0|8
352,320,79196,2,2,B|512:352,1,140,0|8
352,128,79931,6,2,B|416:96,2,70,0|8|8
384,288,80666,2,2,B|320:320,2,70,0|8|8
224,256,81402,2,2,B|160:224,2,70,0|8|8
256,96,82137,2,2,B|352:64,2,70,0|8|8
128,96,82872,5,0
96,192,83055,1,0
128,288,83239,1,8
224,320,83423,1,0
320,320,83607,1,0
416,288,83791,1,0
448,192,83974,1,8
416,96,84158,1,0
320,64,84342,1,0
224,96,84526,1,0
192,192,84709,1,8
224,288,84893,1,0
320,320,85077,2,8,B|352:320|384:288,3,70,0|8|8|8
416,192,85812,6,2,B|288:96,1,140,0|8
203,61,86363,1,0
256,160,86547,2,2,B|352:288,1,140,0|8
385,368,87098,1,0
288,320,87282,2,2,B|160:256,1,140,0|8
128,160,87833,1,0
160,64,88017,2,8,B|192:32|224:64,3,70,0|8|8|8
224,160,88752,5,0
64,160,89120,2,2,B|32:192|64:224,1,70
96,320,89487,2,2,B|128:352|160:320,1,70,2|6
256,192,90039,5,0
256,32,90406,2,2,B|288:0|320:64,2,70
288,128,90957,2,2,B|288:192|352:192,1,70,2|6
448,96,91509,5,0
480,256,91876,2,2,B|480:288|416:288,1,70
416,192,92244,2,2,B|352:192|352:256,2,70,2|2|6
192,64,92979,6,0,B|192:160,1,70,0|0
288,128,93346,2,0,B|288:224,1,70,0|0
192,192,93714,2,0,B|192:288,2,70,0|8|8
288,224,94265,2,8,B|288:320,1,70
192,320,94633,5,4
32,64,95000,5,0
64,224,95368,2,0,B|96:160,1,70,0|0
128,64,95735,2,0,B|192:96,1,70,0|0
288,128,96103,2,8,B|224:256,2,140
448,320,97941,6,0,B|384:320|384:320|384:288|381:265|447:244,1,140,0|8
416,160,98492,1,8
448,64,98676,2,2,B|416:32|352:32|384:64,2,70,0|0|2
256,192,99594,1,4
96,160,100881,6,0,B|32:128,2,70
192,192,101432,2,0,B|160:288,2,70
160,96,101983,1,8
384,64,102351,1,8
352,288,102719,1,8
256,192,103270,5,0
256,192,103454,1,0
256,192,103637,12,0,104556
32,224,116317,5,8
256,224,116685,1,8
256,0,117052,1,8
256,224,117420,1,8
480,224,117787,1,8
64,352,118155,6,2,B|64:192,1,140,0|2
224,320,118890,2,2,B|224:160,1,140,0|2
64,288,119625,2,2,B|64:128,1,140,2|2
224,256,120360,2,2,B|224:96,1,140,2|2
352,96,120911,5,0
384,192,121095,2,0,B|320:224,1,70
352,320,121463,1,0
256,352,121647,2,2,B|160:288|160:288|192:224|256:256,1,210
416,256,122565,5,8
416,160,122749,1,8
416,64,122933,1,8
288,192,123300,2,8,B|192:192,1,70
218,192,123668,1,8
96,192,123852,5,0
128,96,124036,2,0,B|206:62,2,70
32,128,124587,2,2,B|32:224,1,70,2|2
64,288,124954,1,2
160,288,125138,1,2
192,96,125506,6,2,B|128:32,2,70
288,192,126057,1,8
384,288,126241,1,8
384,288,126424,2,8,B|448:256,1,70
448,64,126976,6,0,B|448:32|384:32,1,70
384,128,127343,2,0,B|384:160|320:160,2,70
352,32,127895,1,0
256,64,128078,2,0,B|192:96|256:128,1,70
160,352,128997,5,0
128,256,129181,1,0
160,160,129365,1,0
256,128,129549,1,0
352,160,129732,1,0
256,192,130100,12,0,131019
352,288,131202,6,8,B|320:320|256:320,2,70
352,192,131754,1,4
192,160,132121,2,0,B|128:128,1,70,8|8
128,224,132489,2,0,B|64:192,1,70,8|0
64,96,132856,6,2,B|32:64|32:32|160:64|192:64|224:32,2,210,2|0|2
96,256,134326,5,0
64,352,134510,1,0
160,352,134694,1,0
160,224,134878,5,8
192,96,135062,5,8
288,64,135245,1,8
288,160,135429,1,8
256,192,135797,12,0,137818
96,288,138737,6,0,B|160:256,1,70,2|0
192,352,139104,2,0,B|288:352,1,70,2|0
288,256,139472,2,2,B|352:288,1,70,2|2
320,192,139840,2,2,B|256:160,1,70,2|4
64,192,140391,5,0
64,192,140575,1,0
64,192,140758,1,0
256,64,141310,5,8
256,64,141493,2,2,B|320:64|352:96|320:160,1,140
224,160,142045,1,8
128,128,142228,1,8
128,224,142412,2,2,B|128:320,2,70,2|10|8
288,224,143147,5,0
288,32,143515,1,0
96,64,143882,1,0
64,256,144250,2,2,B|128:288|160:288|216:236,2,140,0|2|2
256,32,145536,5,0
352,64,145720,1,0
320,160,145904,1,0
352,64,146088,1,0
448,96,146271,2,0,B|416:160,1,70
384,256,146639,2,0,B|320:224,1,70
192,256,147006,5,2
160,160,147190,1,2
256,128,147374,1,2
256,224,147558,2,12,B|384:288,1,140
64,64,148477,6,0,B|32:128,1,70
128,160,148844,1,0
128,160,149028,1,0
224,192,149212,2,0,B|256:128,1,70
352,160,149579,1,0
448,192,149763,2,2,B|416:256,1,70
320,224,150130,2,2,B|288:288,1,70
160,288,150498,5,12
160,288,150866,1,12
160,96,151417,6,0,B|160:0,2,70
256,96,151968,2,0,B|256:192,3,70
256,320,152887,5,2
256,320,153071,2,0,B|256:224,1,70,2|4
384,256,153438,5,8
416,160,153622,1,8
384,256,153806,1,8
256,192,154357,12,0,156011
256,64,156379,5,0
96,64,156746,2,2,B|0:64,1,70
32,160,157114,2,2,B|128:160,1,70
256,160,157665,6,0,B|288:128|352:96|384:128|384:192|352:256,1,210,0|2
352,320,158400,1,2
256,288,158584,1,2
288,192,158768,1,2
128,160,159135,6,0,B|32:160,6,70
256,288,160605,6,0,B|256:384,4,70
256,192,161524,2,0,B|256:128,6,35,0|0|0|0|0|0|4
