osu file format v5

[General]
AudioFilename: アフターダーク.mp3
AudioLeadIn: 0
PreviewTime: -1
Countdown: 1
SampleSet: Normal
StackLeniency: 0.7
Mode: 0

[Metadata]
Title:After Dark
Artist:Asian Kung-Fu Generation
Creator:Kai Domeki
Version:Normal
Source:
Tags:

[Difficulty]
HPDrainRate:5
CircleSize:5
OverallDifficulty:5
SliderMultiplier:0.6
SliderTickRate:1

[Events]
//Background and Video events
//Break Periods
2,90382,98935
2,180747,187336
//Storyboard Layer 0 (Background)
//Storyboard Layer 1 (Failing)
//Storyboard Layer 2 (Passing)
//Storyboard Layer 3 (Foreground)
//Storyboard Sound Samples
//Background Colour Transformations
3,100,139,139,139

[TimingPoints]
1080,373.792467678208,4,1,0,100

[Colours]
Combo1 : 105,105,105
Combo2 : 0,0,0
Combo3 : 0,0,128
Combo4 : 120,120,120

[HitObjects]
96,288,29862,1,0
192,288,30470,1,0
288,288,31123,2,2,B|434:288|416:288,1,127.5
416,192,32431,1,0
416,96,33039,1,0
320,64,33646,2,2,B|192:64,1,120
96,64,34861,6,0,B|0:192|96:288,1,240
128,320,36777,2,0,B|288:352|448:320,1,315
448,256,40141,1,0
448,192,40842,1,0
448,192,41169,2,0,B|320:192,1,120
256,192,42477,5,0
256,128,43084,1,0
256,64,43645,2,0,B|160:64|160:160,1,150
160,224,44953,2,2,B|160:320|256:320,1,150
320,320,47103,2,4,B|320:262,2,52.5
384,288,50233,5,0
384,224,51168,1,0
384,160,52710,1,0
384,96,53691,1,4
128,96,55326,5,0
128,160,56167,1,0
128,224,57803,1,0
128,224,58410,2,2,B|128:344,1,112.5
192,288,60372,5,0
256,224,60980,1,0
320,160,61587,1,0
384,96,62195,1,0
256,96,62849,5,0
128,96,63456,1,0
192,160,64064,1,0
256,224,64671,1,0
480,224,65372,6,2,B|256:377|32:224,1,472.5
32,160,70370,1,2
96,128,70977,1,2
160,96,71632,1,2
224,64,72240,1,4
288,64,72894,5,2
352,96,73549,1,2
416,128,74203,1,2
480,160,74810,1,4
480,224,75371,2,2,B|256:352,1,255
192,352,77614,2,0,B|192:244,2,105
64,96,79482,6,0,B|360:96,1,292.5
448,320,81959,2,0,B|128:320,1,315
256,192,84435,12,0,90182
32,128,100135,6,0,B|128:32|224:128,1,217.5
222,126,102097,1,0
288,128,102704,2,0,B|384:32|480:128,1,217.5
478,126,104667,1,0
480,224,105227,6,2,B|320:320,1,180
256,352,107190,1,0
192,320,107751,2,0,B|32:224,1,180
32,64,110601,5,0
96,64,111255,2,0,B|271:64,1,172.5
320,64,112843,1,0
384,64,113404,1,0
448,64,114012,2,0,B|448:192,1,120
448,256,115273,6,0,B|192:256,1,247.5
160,192,117563,2,0,B|416:192,1,247.5
320,128,120646,5,2
192,128,121581,1,6
192,256,123169,1,2
320,256,124104,1,6
320,128,125693,5,2
192,128,126627,1,6
192,256,127842,1,2
320,256,128823,2,4,B|320:148,1,105
32,96,130739,6,0,B|132:96,1,97.5
129,96,131954,2,0,B|230:96,1,97.5
227,96,133168,2,0,B|333:96,1,97.5
324,96,134430,1,4
440,161,135645,6,0,B|56:160,1,375
64,160,138261,2,0,B|-9:256|55:352,1,202.5
53,349,140644,2,0,B|437:349,1,375
428,349,143308,2,0,B|480:256|439:160,1,195
448,32,145737,6,0,B|384:128|384:128|320:32|320:32|256:128|256:128|192:32,1,457.5
128,32,149428,2,0,B|32:32|32:96,1,127.5
32,160,150877,5,2
32,224,151484,1,2
96,224,152092,1,2
96,160,152699,2,2,B|144:160,1,45
256,192,153306,12,2,155222
256,192,155783,6,0,B|192:256|128:192|192:64|320:64|352:192|352:352|124:244,1,495
96,256,160829,6,0,B|410:59,1,360
424,132,163352,2,0,B|159:299,1,307.5
96,288,165875,5,2
96,224,166483,1,2
96,160,167184,1,2
96,96,168071,2,4,B|320:96,1,217.5
256,192,169940,12,4,171856
256,192,172463,12,4,174379
256,192,174940,12,4,176902
256,192,177790,12,4,180547
160,192,188536,1,4
224,192,189004,1,4
288,192,189471,1,4
352,192,189938,1,4
