osu file format v5

[General]
AudioFilename: Haruka Kanata.mp3
AudioLeadIn: 0
PreviewTime: -1
Countdown: 1
SampleSet: Normal

[Metadata]
Title:Haruka Kanata
Artist:Asian Kung Fu Generation
Creator:spirus
Version:Insane

[Difficulty]
HPDrainRate:6
CircleSize:6
OverallDifficulty:6
SliderMultiplier:1.4
SliderTickRate:1

[Events]
//Background and Video events
//Break Periods
2,71717,76015
2,149084,152780
2,179146,181720
2,188929,193313
//Storyboard Layer 0 (Background)
//Storyboard Layer 1 (Failing)
//Storyboard Layer 2 (Passing)
//Storyboard Layer 3 (Foreground)
//Storyboard Sound Samples
//Background Colour Transformations
3,100,163,162,255

[TimingPoints]
1200,342.837552139878,4,1,0,100
173990,245.730433714216,3,1,0,100
176820,246.629398224268,3,1,0,100
182770,256.93730729702,3,1,0,100
188820,254.928619986404,3,1,0,100
195050,256.838320277385,3,1,0,100
201040,261.130695913305,3,1,0,100
238640,264.830508474576,3,1,0,100

[Colours]
Combo1 : 255,128,0
Combo2 : 5,240,5
Combo3 : 5,5,240
Combo4 : 240,5,5

[HitObjects]
256,192,6599,1,0
256,192,6771,1,0
256,128,7671,1,0
256,128,7842,1,0
256,128,9385,1,0
256,128,9556,1,0
256,192,10328,1,0
256,192,10542,1,0
64,96,12127,6,0,B|384:32|416:256,1,437.5
416,224,13327,6,0,B|99:303|64:64,1,437.5
256,192,14699,12,0,16927
224,64,17527,2,0,L|480:64|480:352|32:352|32:64|160:64,1,1400
192,64,23141,6,0,L|32:64|32:352|480:352|480:64|224:64,1,1435
256,160,28412,5,0
256,224,28541,1,0
256,224,29098,5,0
256,160,29226,1,0
256,160,29698,5,0
256,224,29869,1,0
256,288,30212,1,0
256,288,30384,2,0,C|416:192|448:192,1,210
416,192,31155,5,0
416,192,31326,1,0
416,128,31755,1,0
416,128,31926,1,0
416,64,32441,1,0
352,64,32612,2,0,C|128:320|352:256|128:128,1,840
256,192,35098,5,0
256,192,35269,2,0,C|320:256|192:288|128:160|288:96|398:224|384:224,2,752.5
256,192,39340,5,0
256,192,39512,1,0
256,256,39983,1,0
256,256,40154,1,0
256,320,40712,1,0
256,320,40883,2,0,B|96:224|32:128|256:224,1,332.5
256,352,42083,5,0
256,288,42169,2,0,B|352:288,1,87.5
256,224,42854,1,0
256,160,42940,2,0,B|128:160,1,122.5
256,96,43540,1,0
256,32,43626,1,0
320,32,43883,1,0
384,64,44226,1,0
416,128,44568,1,0
448,192,44911,1,0
144,288,46068,2,0,B|208:224,1,87.5
208,224,46368,2,0,B|272:160,1,87.5
272,160,46711,2,0,B|336:96,1,87.5
336,96,47054,2,0,B|400:32,1,87.5
400,32,47525,2,0,B|400:80,26,35
160,256,51554,5,0
160,192,51725,1,0
160,128,51897,1,0
224,128,52154,1,0
288,128,52497,1,0
352,128,52754,2,0,B|352:256,1,122.5
352,256,53182,6,0,B|208:256,3,140
208,256,54296,5,0
208,192,54468,1,0
208,128,54639,1,0
272,128,54982,1,0
336,128,55325,1,0
400,128,55668,6,0,B|400:272,3,140
256,192,57039,5,0
256,128,57296,2,0,B|96:128,1,157.5
128,128,57725,1,0
128,192,58025,2,0,B|128:352,1,157.5
128,327,58453,1,0
192,320,58796,2,0,B|240:320,31,35
256,320,61796,5,0
256,320,62139,1,0
256,256,62482,1,0
256,224,62653,1,0
256,192,62825,1,0
256,128,63167,1,0
192,128,63510,2,0,B|32:128,1,157.5
32,192,64282,5,0
32,256,64582,1,0
32,320,64924,1,0
96,320,65224,1,0
96,320,65396,1,0
96,320,65567,1,0
160,320,65910,1,0
224,320,66253,1,0
288,320,66596,1,0
352,320,66939,2,0,B|480:256|64:32,1,455
32,32,69724,6,0,B|32:352|480:352|480:0,1,735
288,160,77438,5,0
256,160,77609,1,0
256,192,77781,1,0
224,192,77952,1,0
224,224,78295,2,0,B|86:240|164:12|374:6|518:151|399:282|253:364|188:327|172:288|128:256,1,647.5
160,288,80138,5,0
160,256,80309,1,0
192,256,80481,1,0
192,224,80652,1,0
224,224,80909,2,0,B|384:320|517:-20|246:-93|128:64|116:216|320:160,1,630
320,128,83052,5,0
320,160,83223,1,0
320,192,83395,1,0
320,224,83566,1,0
320,256,83738,1,0
320,288,83909,2,0,B|224:288,1,87.5
192,288,84295,5,0
192,256,84466,1,0
192,224,84638,1,0
192,192,84809,1,0
192,160,84980,1,0
192,128,85152,1,0
192,96,85323,1,0
192,64,85623,2,0,B|288:64,3,87.5
288,64,86480,6,0,B|320:64,5,17.5
288,128,87166,6,0,B|320:128,5,17.5
288,192,88452,5,0
256,224,88623,1,0
288,256,88794,1,0
256,288,88966,1,0
288,320,89223,2,0,B|448:416|581:76|310:3|192:160|180:312|384:256,1,630
288,288,91152,5,0
256,256,91323,1,0
288,224,91494,1,0
256,192,91666,1,0
288,160,91837,2,0,B|128:64|-5:404|266:477|384:320|396:168|192:224,1,630
256,192,93894,5,0
256,192,94066,1,0
192,192,94237,1,0
192,192,94408,1,0
128,192,94794,1,0
128,192,94966,1,0
128,128,95308,5,0
160,96,95480,1,0
192,128,95651,1,0
224,96,95823,1,0
256,128,96080,1,0
288,96,96251,1,0
352,96,96594,5,0
352,128,96765,1,0
352,160,96937,1,0
352,192,97108,2,0,B|416:320|37:95|436:0|496:138|547:404|224:288|256:192,1,542.5
256,192,98651,5,0
224,160,98822,1,0
192,128,98994,1,0
160,96,99165,1,0
128,64,99337,1,0
96,32,99508,2,0,B|96:320,1,280
256,192,102594,5,0
256,192,102765,1,0
256,192,103708,5,0
256,192,103879,1,0
256,192,105208,1,0
256,192,105336,2,0,B|160:192,1,87.5
192,192,105851,5,0
192,192,105979,2,0,B|192:288,1,87.5
192,256,106536,5,0
192,256,106708,2,0,B|192:352,1,87.5
192,320,107051,1,0
252,326,107308,2,0,B|380:326,1,122.5
352,320,107908,5,0
352,320,108036,2,0,B|352:192,1,122.5
352,224,108593,5,0
352,224,108722,2,0,B|192:224,1,157.5
256,192,109279,5,0
256,192,109408,2,0,B|128:192,1,122.5
128,192,109793,5,0
160,128,110136,1,0
192,64,110565,2,0,B|224:128,1,70
223,126,110865,2,0,L|320:320,1,210
256,352,111936,6,0,L|256:256,1,87.5
256,288,112236,2,0,L|256:198,1,87.5
256,224,112579,2,0,L|256:140,1,70
256,160,112879,2,0,L|256:82,1,70
256,96,113265,2,0,L|352:88,1,87.5
325,90,113693,2,0,L|352:128,23,35
384,128,116136,5,0
384,128,116307,2,0,L|320:192,1,87.5
334,177,116821,1,0
334,177,116993,2,0,L|256:256,1,105
260,251,117507,1,0
224,256,117721,1,0
192,256,117979,1,0
160,256,118236,1,0
96,192,118836,5,0
96,192,119007,2,0,L|160:128,1,87.5
160,128,119564,1,0
160,128,119736,2,0,L|256:32,1,122.5
234,53,120250,1,0
235,53,120464,1,0
233,54,120764,1,0
233,114,121064,1,0
234,175,121450,1,0
238,231,121793,2,0,L|311:336|185:342|221:244,1,350
238,231,122907,5,0
192,192,123207,1,0
128,128,123507,1,0
64,64,123850,1,0
128,64,124192,1,0
192,64,124621,2,0,B|480:128|409:378|160:224|224:128,1,490
256,96,127321,5,0
256,192,127664,1,0
256,288,128007,1,0
192,288,128392,2,0,B|192:256,16,17.5
192,288,129335,1,0
192,352,129635,2,0,B|416:352,1,210
384,288,131092,6,0,B|384:192,4,87.5
384,288,132163,1,0
384,352,132463,2,0,B|128:352,1,245
256,352,133878,5,0
256,320,134178,1,0
256,288,134520,1,0
256,256,134863,1,0
256,224,135206,1,0
256,192,135549,2,0,B|128:96|415:-8|416:320|15:122|256:0,1,420
256,32,137349,6,0,B|256:160,5,122.5
256,128,139320,5,0
224,160,139492,1,0
256,192,139663,1,0
288,160,140006,2,0,B|448:160,1,157.5
416,160,140692,2,0,B|416:320,1,157.5
256,192,142063,12,0,145920
256,192,146563,12,0,148877
256,64,154234,1,0
256,64,154405,1,0
256,128,154576,1,0
256,128,154748,1,0
256,192,155005,2,0,B|256:240,20,35
256,256,156976,5,0
256,256,157148,1,0
256,192,157319,1,0
256,192,157491,1,0
256,128,157791,2,0,B|256:96,18,17.5
256,64,159848,5,0
224,96,160019,1,0
192,128,160190,1,0
160,160,160362,1,0
128,192,160533,2,0,B|120:192|256:192,1,122.5
232,192,161048,5,0
256,224,161219,1,0
288,192,161390,1,0
320,224,161562,1,0
352,192,161733,1,0
384,160,161905,1,0
416,128,162076,1,0
416,64,162419,5,0
352,64,162719,1,0
288,64,163019,1,0
224,64,163405,5,0
224,64,163490,1,0
224,64,163576,1,0
224,128,163962,5,0
224,128,164047,1,0
224,128,164133,1,0
256,192,165162,5,0
256,224,165333,1,0
256,256,165504,1,0
256,288,165676,1,0
256,320,166019,2,0,B|420:336|400:-47|18:93|159:341|224:320,1,542.5
256,256,167904,5,0
256,224,168076,1,0
256,192,168247,1,0
256,160,168419,1,0
256,128,168804,2,0,B|420:112|400:495|18:355|159:107|224:128,1,542.5
256,160,170690,5,0
256,160,170861,1,0
256,192,171033,1,0
256,192,171204,1,0
256,224,171504,1,0
256,224,171675,1,0
256,224,172147,5,0
256,224,172275,1,0
256,192,172447,1,0
256,192,172618,1,0
256,160,172833,1,0
256,160,173047,1,0
256,288,173475,5,0
256,288,173561,1,0
256,288,173647,1,0
256,288,173732,1,0
256,288,173818,1,0
256,288,173904,1,0
256,288,173990,1,0
320,224,175126,5,0
320,224,175280,1,0
384,160,175771,1,0
320,96,176078,1,0
256,128,176416,1,0
256,128,176570,1,0
256,192,176850,2,0,B|160:128|137:372|466:389|461:-16|168:17|36:200|224:320,2,595
256,192,182770,5,0
256,192,183026,5,0
256,192,183283,5,0
256,192,183540,5,0
256,192,183797,5,0
256,192,184054,5,0
256,192,184343,5,0
256,192,184600,5,0
256,192,184857,5,0
256,192,185114,5,0
256,192,185371,5,0
256,192,185628,5,0
256,192,185885,5,0
256,192,186142,5,0
256,192,186399,5,0
256,192,186656,5,0
256,192,186913,5,0
256,192,187170,5,0
256,192,187426,5,0
256,192,187683,5,0
256,192,187940,5,0
256,192,188197,5,0
256,192,188454,5,0
256,192,188711,5,0
256,192,195050,12,0,200957
256,96,201856,2,0,B|256:256,2,140
256,96,203422,2,0,B|256:256,1,140
256,256,204108,2,0,L|96:372|256:148,1,455
256,96,205511,5,0
256,160,205772,1,0
256,160,206458,1,0
256,256,207209,2,0,L|416:372|256:148,1,455
256,192,208514,12,0,213606
160,128,214357,1,0
160,128,214618,1,0
224,192,215043,1,0
256,224,215826,1,0
256,192,216087,12,0,237435
256,192,238640,1,0
256,192,238904,5,0
256,192,239136,5,0
256,192,239401,5,0
256,192,239666,5,0
256,192,239931,5,0
256,192,240195,5,0
256,192,240427,5,0
256,192,240692,5,0
256,192,240957,5,0
256,192,241222,5,0
256,192,241486,5,0
256,192,241718,5,0
