osu file format v5

[General]
AudioFilename: I Want It All.mp3
AudioLeadIn: 0
PreviewTime: 121151
Countdown: 1
SampleSet: Normal
StackLeniency: 0.7
Mode: 0
LetterboxInBreaks: 1

[Metadata]
Title:I Want it All
Artist:Ashley Tisdale and Lucas Grabeel
Creator:Agent Spin Here
Version:Think Bigger!
Source:High School Musical 3
Tags:

[Difficulty]
HPDrainRate:2
CircleSize:3
OverallDifficulty:2
SliderMultiplier:0.8
SliderTickRate:2

[Events]
//Background and Video events
0,0,"high_school_musical3_poster1.jpg"
//Break Periods
2,41623,46577
//Storyboard Layer 0 (Background)
//Storyboard Layer 1 (Failing)
//Storyboard Layer 2 (Passing)
//Storyboard Layer 3 (Foreground)
//Storyboard Sound Samples
//Background Colour Transformations
3,100,163,162,255

[TimingPoints]
15620,419.58041958042,4,1,0,88,1,0
55200,-100,4,1,0,88,0,1
62543,-100,4,1,0,100,0,0
62612,-100,4,1,0,100,0,1

[HitObjects]
176,160,15619,1,0
288,160,16459,1,0
400,160,17298,2,0,B|400:288,1,120
256,280,18976,5,4
104,112,20654,1,4
328,120,22333,5,2
328,232,23172,1,0
240,160,24011,2,4,B|240:288,1,120
72,256,25899,6,0,B|8:240|24:192,1,80
72,72,27368,1,4
136,128,27997,1,2
280,128,29046,5,8
224,224,29885,1,8
336,224,30724,5,4
224,224,31564,1,8
224,224,31983,1,4
112,224,32613,6,0,B|112:176,3,40
216,144,34081,6,2,B|296:192|344:192|368:176,1,160
320,72,35759,6,0,B|320:120,2,40
264,72,36599,6,0,B|264:120,2,40
208,80,37438,6,0,B|160:80,6,40,0|0|0|0|0|0|0
200,136,39116,6,2,B|216:184|216:184|248:152|248:152|280:216,1,160
320,240,40375,1,8
280,280,40794,2,0,B|152:280,1,120
400,128,47927,5,4
344,128,48347,1,4
288,128,48766,1,4
232,128,49186,5,8
120,184,50025,2,10,B|152:248|264:232,1,160
376,232,51703,1,8
376,120,52543,6,0,B|376:72,5,40
432,96,54011,5,4
464,136,54431,1,4
440,184,54850,1,4
296,176,55899,6,0,B|248:128|184:176,1,120,0|0
192,232,56948,6,0,B|256:280|304:232,1,120,0|8
352,232,57997,1,2
432,152,58836,1,2
440,264,59675,5,0
440,264,59885,1,0
440,320,60305,1,0
384,320,60724,2,4,B|288:320,1,80
312,264,61564,1,4
304,208,61983,6,4,B|256:208,3,40
208,144,63242,6,0,B|176:176|208:240,1,80,0|8
256,224,64081,2,0,B|352:224,1,80,0|8
344,280,64920,2,0,B|408:280|424:240,1,80,0|8
400,120,66179,6,0,B|352:120,3,40,0|2|0|2
304,120,67228,1,0
248,120,67647,2,4,B|200:120,3,40
152,120,68696,6,4,B|152:264,1,120
208,240,69745,2,0,B|256:240,2,40
208,184,70585,2,0,B|264:184,1,40
272,184,71004,2,2,B|320:184|336:120,1,80
336,80,71843,1,2
392,80,72263,6,8,B|392:128,6,40
448,80,73941,2,4,B|448:144,1,40
328,240,75410,5,4
328,240,75620,1,4
328,240,75829,1,4
328,240,76039,1,4
328,152,76668,6,0,B|328:56,1,80
280,32,77508,2,2,B|360:0,1,80
392,40,78347,2,0,B|392:136,1,80
256,192,79186,12,4,80864
512,192,81494,5,6
344,192,81913,5,6
168,192,82333,5,6
0,192,82752,5,6
