osu file format v6

[General]
AudioFilename: Ashley_Tisdale_-_Headstrong.mp3
AudioLeadIn: 0
PreviewTime: -1
Countdown: 1
SampleSet: Soft
StackLeniency: 0.7
Mode: 0
LetterboxInBreaks: 1

[Editor]
DistanceSpacing: 0.800000011920929
BeatDivisor: 4
GridSize: 16

[Metadata]
Title:Headstrong
Artist:Ashley Tisdale
Creator:vivere
Version:Normal
Source:
Tags:

[Difficulty]
HPDrainRate:4
CircleSize:4
OverallDifficulty:3
SliderMultiplier:1.6
SliderTickRate:1

[Events]
//Background and Video events
//Break Periods
2,56436,58835
2,102013,109604
//Storyboard Layer 0 (Background)
//Storyboard Layer 1 (Fail)
//Storyboard Layer 2 (Pass)
//Storyboard Layer 3 (Foreground)
//Storyboard Sound Samples
//Background Colour Transformations
3,100,163,162,255

[TimingPoints]
9506,576.923076923077,4,2,0,80,1,0
37175,-100,4,1,0,80,0,0
37198,-100,4,2,0,80,0,1
46429,-100,4,2,0,80,0,1
56236,-100,4,2,0,80,0,0
111044,-200,4,1,0,80,0,0
138736,-100,4,2,0,80,0,0

[Colours]
Combo1 : 0,116,232
Combo2 : 255,70,255
Combo3 : 255,255,32

[HitObjects]
256,192,19025,1,0
256,192,19313,2,0,B|80:192,1,160
96,112,20179,1,0
176,112,20467,1,8
256,112,20756,1,0
256,224,21332,6,0,B|448:224,1,160
416,304,22198,1,0
336,304,22486,1,0
256,304,22775,1,8
176,304,23063,1,8
96,304,23352,6,0,B|96:224|96:224|208:224,1,160
256,224,24217,1,0
256,144,24506,1,0
176,144,24794,1,0
96,144,25082,2,0,B|96:64|96:64|352:64,1,320,8|0
416,64,26525,5,0
416,144,26813,1,0
304,192,27390,5,8
224,192,27679,1,0
224,192,27967,1,8
144,192,28256,5,0
80,144,28544,1,8
128,80,28832,1,0
208,80,29121,1,8
288,80,29409,2,0,B|384:80,2,80,0|8|0
288,192,30563,6,0,B|384:192|384:192|384:288,2,160
208,192,32005,1,8
128,192,32294,1,2
128,320,32871,6,0,B|224:320,3,80
288,320,34025,1,0
368,320,34313,1,8
368,240,34602,1,0
288,240,34890,6,0,B|192:240,1,80,8|2
240,160,35467,2,0,B|240:64,1,80,2|8
320,144,36044,2,0,B|416:144,1,80,8|2
368,224,36621,2,0,B|368:320,1,80,2|8
288,304,37198,5,0
160,304,37775,5,4
160,176,38352,6,0,B|160:96|160:96|160:0,1,160,0|8
240,48,39217,1,0
320,80,39506,2,0,B|320:256,1,160,8|0
384,288,40371,2,0,B|480:288,2,80,0|8|0
320,240,41236,2,0,B|320:128,1,80
320,160,41813,1,8
208,160,42102,6,2,B|160:160,1,40
160,192,42390,2,0,B|128:224,1,40
144,256,42679,2,2,B|176:288,1,40
208,288,42967,2,0,B|256:272,1,40
272,240,43256,2,2,B|256:192,1,40
449,135,44409,6,2,B|473:93,1,40
446,77,44697,2,0,B|435:33,1,40
400,32,44986,2,2,B|356:42,1,40
339,69,45274,2,0,B|327:118,1,40
347,148,45563,2,2,B|396:159,1,40
256,192,46429,6,0,B|208:128|208:128|144:192,1,160,4|8
144,304,47582,6,0,B|240:304,1,80
304,304,48159,2,0,B|400:304,1,80,8|0
464,304,48736,2,0,B|464:208,1,80,0|8
432,144,49313,2,0,B|432:48,4,80,0|0|0|0|8
288,144,51044,5,0
208,144,51332,5,8
160,80,51621,1,8
96,128,51909,1,0
48,192,52198,1,8
96,256,52486,1,0
160,304,52775,1,8
352,304,53640,5,8
416,256,53929,1,8
464,192,54217,1,0
416,128,54506,1,8
352,80,54794,1,0
272,64,55082,5,8
272,64,55371,2,0,B|208:192|272:320,1,240,0|8
256,208,60275,12,8,64890
400,192,65179,5,0
400,192,65467,1,8
320,192,65756,2,0,B|208:192,4,80,0|0|0|8|0
240,192,67198,5,0
240,192,67486,1,0
160,192,67775,2,0,B|64:192,5,80,8|0|0|0|8|0
64,272,69794,5,0
32,192,70082,1,8
64,112,70371,1,0
144,112,70659,2,0,B|144:288,1,160,0|8
272,272,71813,6,0,B|272:80,1,160,0|8
352,112,72679,1,0
432,112,72967,2,0,B|432:288,1,160,0|8
352,320,73832,1,0
272,272,74121,1,4
224,192,74409,6,0,B|224:96,2,80,0|8|0
144,192,75275,2,0,B|144:288,2,80,0|0|8
64,192,76140,1,0
64,192,76429,2,0,B|64:96,4,80,0|0|8|0|0
64,112,77871,6,0,B|64:32|192:32,1,160
256,32,78736,5,0
336,32,79025,1,0
416,32,79313,1,8
432,112,79602,2,0,B|432:176|352:176,1,80
320,208,80179,1,0
240,240,80467,1,8
160,240,80756,1,0
160,160,81044,6,4,B|256:144|352:160,1,160
320,240,81909,2,4,B|256:256|144:240,1,160
224,192,82775,1,8
224,192,83063,1,8
304,192,83352,5,4
384,192,83640,2,0,B|464:192,1,40
464,192,83929,1,8
464,112,84217,1,0
416,48,84506,1,0
352,96,84794,2,0,B|304:112|272:96,1,80,0|8
144,96,85659,6,0,B|96:112|112:176,1,80
176,208,86236,1,8
112,256,86525,1,0
64,192,86813,1,0
112,256,87102,2,0,B|128:320|240:320|288:272|288:192,1,240
288,128,88256,6,0,B|288:80,2,40,0|0|8
368,128,88832,2,0,B|368:80,2,40
448,128,89409,2,0,B|448:224,1,80,8|0
448,336,90275,6,0,B|352:336,1,80
304,272,90852,2,0,B|304:224,2,40,8|0|0
224,224,91429,2,0,B|128:224,1,80
144,224,91861,1,8
144,224,92006,1,8
144,96,92582,5,4
288,96,93159,6,0,B|352:96|352:176,1,80,8|0
347,139,93736,2,0,B|352:96|416:96,1,80
464,144,94313,1,8
400,208,94602,1,0
464,272,94890,1,4
400,336,95179,1,4
336,272,95467,1,8
272,336,95756,2,0,B|176:336,1,80
144,272,96332,2,0,B|112:192,1,80,0|8
112,112,96909,2,0,B|192:64,1,80
256,48,97486,5,8
352,48,97775,1,8
416,112,98063,1,0
464,192,98352,2,0,B|384:208|288:192,1,160,0|8
128,192,99794,5,8
48,192,100082,2,0,B|128:176|224:192,1,160,8|8
207,189,100804,1,8
207,189,100948,2,0,B|192:144|208:96,1,80,8|8
208,112,101813,1,4
256,192,111044,6,2,B|160:208|96:192,1,160
256,192,112775,1,8
256,192,113352,6,2,B|352:176|448:192,1,160
256,192,115082,1,8
256,192,115659,6,2,B|272:272|256:368,1,160
256,192,117390,1,8
256,192,117967,6,2,B|240:112|256:16,1,160
253,32,119265,1,2
253,32,119409,1,2
336,56,119698,1,8
336,56,119842,1,2
336,56,119986,1,8
416,112,120275,6,8,B|432:192|416:288,1,160,8|0
336,192,122005,1,2
256,112,122582,6,8,B|272:192|256:288,1,160,8|0
176,192,124313,1,2
96,112,124890,6,8,B|112:192|96:288,1,160,8|0
16,192,126621,1,2
128,192,127198,6,0,B|160:160,1,40,0|8
240,192,128063,6,0,B|256:240,1,40,8|0
256,208,128929,12,0,134121
256,192,134409,6,0,B|304:192|304:144|208:144|208:240|320:240,1,160
192,192,136140,6,2,B|176:144,2,40
320,192,137294,2,2,B|336:240,2,40
256,64,138736,5,4
