osu file format v5

[General]
AudioFilename: He Said, She Said.mp3
AudioLeadIn: 0
PreviewTime: -1
Countdown: 1
SampleSet: Normal
StackLeniency: 0.7
Mode: 0
LetterboxInBreaks: 1

[Metadata]
Title:He Said, She Said
Artist:Ashley Tisdale
Creator:Bagno
Version:Normal
Source:
Tags:

[Difficulty]
HPDrainRate:0
CircleSize:4
OverallDifficulty:2
SliderMultiplier:2.6
SliderTickRate:4

[Events]
//Background and Video events
0,0,"ashley_tisdale_4.jpg"
//Break Periods
//Storyboard Layer 0 (Background)
//Storyboard Layer 1 (Failing)
//Storyboard Layer 2 (Passing)
//Storyboard Layer 3 (Foreground)
//Storyboard Sound Samples
//Background Colour Transformations
3,100,163,162,255

[TimingPoints]
4,500,4,1,0,100,1

[HitObjects]
280,286,4504,1,4
165,135,5504,1,4
352,208,6004,1,4
186,264,6504,1,4
317,87,7004,1,4
205,189,8004,1,4
121,92,8504,1,4
324,56,9004,1,4
322,317,10004,1,4
81,324,10504,1,4
81,149,11004,1,4
361,63,12004,1,4
396,211,12504,1,4
145,242,13004,1,4
107,120,14004,1,4
408,51,14504,1,4
375,349,15004,1,4
205,273,16004,1,4
183,78,16504,1,4
384,16,17004,1,4
466,132,17504,1,4
305,302,18004,1,4
226,245,18504,1,4
114,149,19004,1,4
261,94,19504,1,4
400,187,20504,1,4
261,242,21504,1,4
155,142,22004,1,4
149,76,22504,1,4
377,79,23504,1,4
407,219,24004,1,4
282,296,24504,1,4
120,241,25004,1,4
96,88,25504,1,4
296,88,26504,1,4
419,239,27004,1,4
140,300,27504,1,4
120,182,28504,1,4
327,42,29004,1,4
418,164,29504,1,4
416,309,30004,1,4
327,216,30504,1,12
100,67,31004,1,12
136,19,31504,1,12
355,61,32004,1,12
326,236,32504,1,12
274,322,33004,1,12
88,184,33504,1,12
96,62,34004,1,12
428,184,35004,1,12
146,310,35504,1,12
256,192,37504,12,12,44004
133,130,46004,1,12
361,120,46504,1,12
356,271,47004,1,12
204,336,47504,1,12
68,135,48004,1,12
342,99,48504,1,12
210,245,49504,1,12
342,99,50004,1,12
139,263,50504,1,12
442,123,52004,1,14
225,152,52504,1,14
85,80,53004,1,14
360,172,54504,1,14
149,238,55004,1,14
58,58,55504,1,14
288,91,56004,1,14
253,332,58504,1,12
178,267,60504,1,12
397,100,62504,1,12
364,220,63004,1,12
240,320,64004,1,12
150,170,64504,1,12
136,76,65004,1,12
428,180,67004,1,12
249,309,67504,1,12
341,171,68504,1,12
278,66,69004,1,12
406,236,70004,1,14
283,312,70504,1,14
252,137,71004,1,14
157,308,72504,1,6
345,132,73504,1,6
145,111,74504,1,6
286,44,75004,1,6
392,137,75504,1,6
388,286,76004,1,6
192,239,77004,1,4
158,165,77504,1,4
308,128,79004,5,4
328,266,79504,1,4
140,296,80004,1,4
61,133,80504,1,4
289,74,81004,1,4
406,134,82004,1,4
239,321,83004,1,4
123,139,83504,1,4
268,93,84004,1,4
398,282,85004,1,4
142,121,85504,1,4
349,63,86004,1,4
382,148,87004,1,4
212,312,87504,1,4
25,133,88004,1,4
278,68,88504,1,4
391,98,90004,5,4
325,236,90504,1,4
194,304,91004,1,4
120,102,91504,1,4
344,16,92004,1,4
437,80,92504,1,4
360,304,93504,1,4
148,285,94004,1,4
68,148,94504,1,4
393,156,95504,5,4
75,248,96004,1,4
113,120,96504,1,4
373,110,98004,5,4
340,276,98504,1,4
120,99,99504,1,4
283,48,100004,1,4
427,94,100504,1,4
398,296,101004,1,4
61,84,101504,1,4
224,160,102004,1,4
360,103,103004,1,4
376,273,103504,1,4
180,198,104004,1,4
141,187,104504,1,4
285,99,105004,1,4
377,244,106004,1,4
136,126,106504,1,4
439,144,108504,5,4
299,285,109004,1,4
152,214,109504,1,4
192,88,110004,1,4
100,142,111004,1,4
182,145,111504,1,4
404,135,112004,1,4
250,313,112504,1,4
93,99,113004,1,4
392,72,114004,1,4
277,280,114504,1,4
132,287,115004,1,4
449,80,116004,5,4
304,279,116504,1,4
132,194,117004,1,4
287,255,118504,1,4
133,220,119004,1,4
363,192,120504,1,4
127,193,121004,1,4
338,41,122504,1,4
288,252,123004,1,4
50,148,123504,1,4
364,211,125004,1,4
235,298,125504,1,4
308,258,127004,1,4
164,382,127504,1,4
286,300,129004,1,4
158,227,129504,1,4
432,84,131004,5,4
203,247,131504,1,4
338,162,133004,1,4
175,288,133504,1,4
200,184,134004,1,4
366,224,135504,1,4
277,368,136004,1,4
197,226,136504,1,4
294,120,137004,1,4
444,125,137504,1,4
220,292,138504,1,4
310,52,139004,1,4
431,96,139504,1,4
173,307,140504,1,4
105,175,141004,1,4
112,32,141504,1,4
411,101,142504,1,4
256,192,144004,12,4,146004
175,126,146504,1,4
376,298,147504,1,4
185,277,148004,1,4
236,127,148504,1,4
392,100,149004,1,4
188,283,150004,1,4
116,103,150504,1,4
372,48,151004,1,4
336,282,152004,1,4
121,309,152504,1,4
360,160,154004,1,6
265,309,154504,1,6
147,183,155004,1,6
419,324,156004,1,6
188,315,157004,1,6
232,166,157504,1,6
371,183,159504,1,8
180,255,160004,1,8
102,108,160504,1,8
379,84,161004,1,8
448,167,161504,1,8
432,272,162004,1,8
260,283,162504,1,8
260,159,163004,1,8
348,114,163504,1,8
473,55,164004,1,8
414,222,164504,1,8
256,192,166004,12,8,167004
180,180,167504,1,8
415,84,168504,1,8
312,259,169504,1,8
188,264,170004,1,8
147,176,170504,1,8
389,126,171504,1,8
325,263,172004,1,8
179,249,172504,1,8
423,91,173504,1,8
339,248,174004,1,8
339,248,174504,1,8
231,242,175004,1,8
384,98,175504,1,8
167,118,176004,1,8
168,252,176504,1,8
414,219,177004,1,8
344,121,177504,1,8
301,290,178004,1,8
139,129,178504,1,8
261,146,179504,1,12
276,269,180004,1,12
436,119,180504,1,12
243,100,181004,1,12
243,100,182004,5,12
55,124,182504,1,12
334,92,183504,1,12
360,293,184004,1,12
