osu file format v6

[General]
AudioFilename: Ashley Tisdale - Be Good To Me.mp3
AudioLeadIn: 0
PreviewTime: 59732
Countdown: 1
SampleSet: Normal
StackLeniency: 0.7
Mode: 0
LetterboxInBreaks: 1

[Editor]
Bookmarks: 101518
DistanceSpacing: 0.800000011920929
BeatDivisor: 4
GridSize: 8

[Metadata]
Title:Be Good To Me
Artist:Ashley Tisdale
Creator:CrazyBanana
Version:Hard
Source:
Tags:orioncomet eeeee Malar

[Difficulty]
HPDrainRate:7
CircleSize:4
OverallDifficulty:6
SliderMultiplier:2
SliderTickRate:0.5

[Events]
//Background and Video events
0,0,"Ashley-Tisdale-ashley-tisdale-948287_1280_1024.jpg"
//Break Periods
2,45995,48266
2,89771,92347
//Storyboard Layer 0 (Background)
//Storyboard Layer 1 (Fail)
//Storyboard Layer 2 (Pass)
//Storyboard Layer 3 (Foreground)
//Storyboard Sound Samples
//Background Colour Transformations
3,100,163,162,255

[TimingPoints]
1102,612.244897959184,4,1,0,70,1,0
54987,-100,4,1,0,10,0,0
55599,-100,4,1,0,20,0,0
56212,-100,4,1,0,30,0,0
56824,-100,4,1,0,40,0,0
57436,-100,4,1,0,50,0,0
58048,-100,4,1,0,60,0,0
58661,-100,4,1,0,70,0,0
59732,-100,4,1,0,70,0,1
70905,-100,4,1,0,65,0,0
70905,-100,4,1,0,60,0,0
71058,-100,4,1,0,60,0,0
71212,-100,4,1,0,55,0,0
71365,-100,4,1,0,50,0,0
71824,-100,4,1,0,45,0,0
72130,-100,4,1,0,40,0,0
72283,-100,4,1,0,35,0,0
72436,-100,4,1,0,30,0,0
72589,-100,4,1,0,25,0,0
73048,-100,4,1,0,20,0,0
73354,-100,4,1,0,15,0,0
73507,-100,4,1,0,10,0,0
73661,-100,4,1,0,0,0,0
73814,-100,4,1,0,0,0,0
74502,-100,4,1,0,70,0,0
79477,-100,4,1,0,70,0,0
103814,-100,4,1,0,70,0,1
114987,-100,4,1,0,65,0,0
115140,-100,4,1,0,60,0,0
115293,-100,4,1,0,55,0,0
115446,-100,4,1,0,50,0,0
115905,-100,4,1,0,45,0,0
116212,-100,4,1,0,40,0,0
116365,-100,4,1,0,35,0,0
116518,-100,4,1,0,35,0,0
116671,-100,4,1,0,30,0,0
117130,-100,4,1,0,20,0,0
117436,-100,4,1,0,15,0,0
117589,-100,4,1,0,10,0,0
117742,-100,4,1,0,5,0,0
117895,-100,4,1,0,0,0,0
118507,-100,4,1,0,70,0,0
123252,-100,4,1,0,0,0,0
123405,-100,4,2,0,50,0,0
123558,-200,4,2,0,49,0,0
142844,-100,4,2,0,70,0,0
142844,-100,4,1,0,70,0,0
142997,-100,4,1,0,70,0,1
142997,-100,4,1,0,70,0,1
142997,-100,4,1,0,70,0,1
154171,-100,4,1,0,65,0,0
154324,-100,4,1,0,60,0,0
154477,-100,4,1,0,55,0,0
154630,-100,4,1,0,50,0,0
155089,-100,4,1,0,45,0,0
155395,-100,4,1,0,40,0,0
155548,-100,4,1,0,35,0,0
155701,-100,4,1,0,30,0,0
155854,-100,4,1,0,25,0,0
156314,-100,4,1,0,20,0,0
156620,-100,4,1,0,15,0,0
156773,-100,4,1,0,10,0,0
156926,-100,4,1,0,5,0,0
157079,-100,4,1,0,0,0,0
157691,-100,4,1,0,70,0,0
162589,-100,4,1,0,0,0,0
162742,-100,4,1,0,70,0,1
191518,-200,4,1,0,70,0,0
191824,-100,4,1,0,50,0,0
192130,-100,4,1,0,31,0,0
192436,-100,4,1,0,10,0,0
192742,-100,4,1,0,70,0,0

[Colours]
Combo1 : 223,218,21
Combo2 : 232,232,232
Combo3 : 174,87,0

[HitObjects]
352,64,5846,1,0
272,64,6153,1,0
232,64,6306,1,0
72,64,6918,2,8,B|72:176,1,100
232,168,7836,1,0
352,176,8295,5,0
352,256,8601,1,0
312,256,8755,1,0
232,256,9061,2,8,B|232:368,2,100
232,96,10285,1,0
344,56,10744,5,0
368,88,10897,1,0
392,120,11050,1,0
320,160,11357,2,0,B|288:120,1,50,0|8
272,200,11816,2,0,B|312:248,1,50,0|8
224,240,12275,2,0,B|184:192,1,50,0|8
176,280,12734,2,0,B|216:336,1,50,0|8
136,224,13346,5,0
80,168,13653,1,0
144,120,13959,1,0
200,64,14265,1,2
280,64,14571,1,2
192,88,16408,6,0,B|96:72|104:160,2,100,2|8|2
272,88,17326,1,0
272,168,17632,1,0
352,168,17938,1,0
432,168,18244,2,0,B|464:256|320:248|248:240,1,200,8|0
208,240,19163,5,0
208,160,19469,1,0
208,80,19775,1,0
288,80,20081,2,0,B|344:24|480:128|328:192,1,200,0|2
168,168,21306,5,0
248,168,21612,1,0
168,168,21918,1,0
168,88,22224,1,0
248,88,22530,2,8,B|352:88,1,100
352,168,23142,1,0
456,288,23755,5,0
376,288,24061,1,0
296,288,24367,2,8,B|296:176,1,100
224,224,24979,2,8,B|224:96,1,100
224,48,25591,2,0,B|288:56|352:104|368:136|376:184,2,200,8|0|4
104,48,27275,5,0
104,88,27428,1,0
104,128,27581,1,0
104,168,27734,1,0
104,208,27887,1,0
224,208,28346,1,8
304,208,28653,1,8
408,336,29724,5,0
408,296,29877,1,0
408,256,30030,1,0
408,216,30183,1,0
408,176,30336,1,0
288,176,30795,1,8
208,176,31102,1,8
72,256,31714,6,0,B|72:96|240:96|192:296|216:312|208:336|240:336|264:304|424:192|424:144|424:104|392:72|344:48|280:48|232:56|208:88|216:136|256:192|296:224|320:240|344:256|376:264|400:272|424:280|432:280|408:272|408:264,1,800
120,64,35999,5,0
200,64,36306,1,0
160,136,36612,1,0
160,216,36918,2,0,B|280:216,1,100,0|8
256,312,37530,2,0,B|336:312|336:224,1,100,0|8
336,184,38142,6,0,B|336:112|224:128,1,100,8|0
192,120,38755,1,0
192,200,39061,1,0
192,280,39367,1,0
272,296,39673,2,2,B|272:80,1,200
120,56,40897,5,0
120,136,41204,1,0
200,136,41510,1,0
280,136,41816,2,8,B|280:256,1,100
200,232,42428,1,0
120,232,42734,1,0
120,152,43040,1,8
120,72,43346,5,0
200,72,43653,1,0
280,72,43959,1,8
360,72,44265,1,0
280,72,44571,1,0
360,72,44877,2,0,B|464:88|464:216|336:216,1,200
344,144,45795,1,12
112,72,49316,6,0,B|168:72,4,50
112,192,50387,1,2
192,192,50693,1,2
400,312,51765,6,0,B|344:312,4,50
400,192,52836,1,2
320,192,53142,1,2
448,72,54673,5,0
448,152,54979,2,0,B|448:240|336:232,1,150
344,200,55591,2,0,B|296:160|256:184|184:240,1,150
184,232,56204,2,0,B|88:240|88:152|152:112,1,150
144,120,56816,2,0,B|184:56|288:64,1,150
312,64,57428,2,0,B|376:80|400:144|392:184,1,150
360,200,58040,2,0,B|320:152|272:104|232:112,1,150
200,104,58653,2,0,B|136:56|96:104|128:168,1,150
152,192,59265,2,0,B|176:256|304:264,1,150,0|2
392,96,60489,1,8
264,192,61101,6,0,B|320:176|304:128|240:88|216:80|192:96|184:136,2,200
120,256,62938,1,8
184,200,63244,1,8
240,144,63550,1,8
376,64,64163,1,0
384,224,64775,1,0
248,312,65387,6,0,B|112:312|120:184,1,200,0|8
128,32,66612,2,0,B|264:32|256:160,1,200,0|8
256,312,67836,1,0
256,152,68448,1,0
256,312,69061,1,0
256,232,69367,1,4
256,208,69673,12,8,70438
256,192,70591,5,0
336,192,70897,1,0
336,232,71050,1,0
376,232,71204,1,0
376,272,71357,1,0
256,192,71816,5,0
176,192,72122,1,0
176,152,72275,1,0
136,152,72428,1,0
136,112,72581,1,0
256,192,73040,5,0
336,192,73346,1,0
336,152,73499,1,0
376,152,73653,1,0
376,112,73806,1,0
192,40,74571,5,0
192,120,74877,1,0
192,160,75030,1,0
192,280,75489,1,0
192,200,75795,1,0
192,160,75948,1,0
312,160,76408,2,8,B|312:232,2,50
312,80,77020,5,0
232,80,77326,1,0
192,80,77479,1,0
72,80,77938,1,0
72,160,78244,1,0
72,200,78397,1,0
192,200,78857,2,8,B|160:240|192:288|304:312|320:224|296:216,1,200
264,168,79775,5,0
304,96,80081,1,0
224,96,80387,1,0
264,168,80693,1,0
304,96,80999,1,0
384,96,81306,1,0
384,176,81612,1,0
384,256,81918,6,8,B|496:256,2,100
312,224,82836,1,0
264,288,83142,1,0
216,224,83448,1,0
168,288,83755,1,0
216,224,84061,1,0
136,216,84367,2,2,B|48:216|48:104|144:80,1,200
208,80,85285,6,0,B|312:80,1,100
248,136,85897,2,8,B|360:136,1,100
288,192,86510,2,0,B|400:192,1,100
408,272,87122,1,0
328,272,87428,5,0
248,272,87734,1,0
168,272,88040,1,0
208,200,88346,1,0
288,200,88653,1,0
368,200,88959,2,4,B|368:88|176:120,1,200
40,40,93397,5,0
72,72,93550,1,0
104,96,93704,1,0
136,120,93857,1,0
168,144,94010,1,0
256,224,94469,1,4
256,304,94775,1,4
472,344,95846,5,0
440,312,95999,1,0
408,288,96153,1,0
376,264,96306,1,0
344,240,96459,1,0
256,160,96918,1,4
256,80,97224,1,4
256,104,98755,5,0
176,96,99061,2,0,B|40:48|176:200|8:200,3,200,0|8|8|0
336,96,101510,2,0,B|472:48|336:200|504:200,3,200,0|8|8|0
256,192,103806,5,0
416,312,104571,1,0
416,152,105183,1,0
280,72,105795,2,8,B|136:80|288:152|136:192,1,200
280,280,107020,6,2,B|368:240|352:200,3,100
328,128,108244,1,0
168,128,108857,1,0
296,32,109469,2,0,B|296:248,3,200,0|0|0|4
144,168,111918,6,0,B|72:144|112:80,2,100,0|8|0
304,168,113142,1,0
384,168,113448,1,0
256,192,114673,5,0
256,112,114979,1,0
256,72,115132,1,0
256,32,115285,1,0
256,32,115438,1,8
256,192,115897,5,0
190,237,116204,1,0
157,260,116357,1,0
124,283,116510,1,0
124,283,116663,1,8
256,192,117122,5,0
321,237,117428,1,0
354,260,117581,1,0
387,283,117734,1,0
387,283,117887,1,8
432,88,118653,5,0
352,88,118959,2,0,B|272:88,1,50
184,88,119571,1,0
264,88,119877,2,0,B|336:88,1,50
320,208,120489,1,8
320,248,120642,1,8
320,288,120795,1,8
240,288,121101,5,0
160,288,121408,1,0
120,288,121561,1,0
120,168,122020,1,0
120,88,122326,1,0
120,48,122479,1,0
240,56,122938,2,4,B|312:24|368:96,1,100
352,144,123550,5,0
352,264,124469,2,0,B|304:304|216:224,1,150
216,144,125999,1,0
136,144,126612,2,2,B|136:216,1,50
136,72,127836,5,0
216,72,128448,1,0
296,72,129061,1,0
296,112,129367,1,0
376,120,129979,2,2,B|368:176|312:184,2,75,2|10|2
376,80,131204,1,0
336,80,131510,1,0
296,80,131816,1,0
176,80,132734,5,0
256,88,133346,2,2,B|224:144|192:216|224:248,2,150
336,80,135795,1,0
456,88,136714,6,2,B|456:264,1,150
376,256,138244,1,0
376,136,139163,1,0
256,136,140081,1,0
248,216,140693,2,2,B|312:160|384:264|360:152|408:216,2,150
256,208,142989,12,10,146816
248,216,147428,5,0
112,136,148040,1,0
256,72,148653,2,8,B|392:72|384:200,1,200
384,352,149877,2,8,B|248:352|256:224,1,200
256,72,151101,5,0
256,232,151714,1,0
256,72,152326,1,2
256,152,152632,1,2
256,208,152938,12,0,153704
256,192,153857,5,0
272,112,154163,1,0
240,88,154316,1,0
272,64,154469,1,0
240,48,154622,1,8
256,192,155081,5,0
336,192,155387,1,0
336,232,155540,1,0
376,232,155693,1,0
376,272,155846,1,8
256,192,156306,5,0
176,192,156612,1,0
176,232,156765,1,0
136,232,156918,1,0
136,272,157071,1,8
320,344,157836,5,0
320,264,158142,1,0
320,224,158295,1,0
320,104,158755,1,0
320,184,159061,1,0
320,224,159214,1,0
200,224,159673,2,8,B|200:152,2,50
200,304,160285,5,0
280,304,160591,1,0
320,304,160744,1,0
440,304,161204,1,0
440,224,161510,1,0
440,184,161663,1,0
440,104,162122,2,2,B|224:104,1,200
80,88,163346,6,0,B|24:208|176:272,1,200,0|4
432,88,164571,2,0,B|488:208|336:272,1,200,0|4
256,144,165795,1,0
256,64,166101,1,0
256,144,166408,1,0
256,304,167020,1,0
256,144,167632,1,0
96,136,168244,6,8,B|88:296|240:192,2,200
256,192,170081,1,0
408,192,170693,1,0
256,192,171306,1,0
256,24,171918,1,8
256,104,172224,1,8
432,80,173448,5,2
352,80,173755,1,0
312,80,173908,1,0
272,80,174061,1,0
232,80,174214,1,8
144,256,174979,6,0,B|280:256,3,100
256,208,176204,12,8,177122
48,40,177428,5,0
112,88,177734,1,0
144,112,177887,1,0
248,176,178346,1,0
320,216,178653,1,0
352,240,178806,1,0
464,192,179265,5,0
424,192,179418,1,0
384,192,179571,1,0
304,192,179877,5,0
224,192,180183,1,0
184,192,180336,1,0
184,72,180795,1,0
264,72,181101,1,0
264,112,181255,1,0
256,232,181714,1,0
416,248,182326,6,0,B|456:192,1,50,8|0
376,168,182785,2,0,B|416:112,1,50,8|0
328,96,183244,2,0,B|368:40,1,50,8|0
312,120,183704,2,0,B|272:176,1,50,8|0
280,240,184163,5,0
240,240,184316,1,0
200,240,184469,1,0
120,240,184775,1,0
120,160,185081,2,0,B|120:104,1,50
240,104,185693,1,0
240,184,185999,1,0
96,248,187224,6,0,B|56:192,1,50,8|0
136,168,187683,2,0,B|96:112,1,50,8|0
184,96,188142,2,0,B|144:40,1,50,8|0
200,120,188601,2,0,B|240:176,1,50,8|0
232,240,189061,5,0
272,240,189214,1,0
312,240,189367,1,0
392,240,189673,1,0
392,160,189979,2,10,B|392:104,1,50
272,104,190591,1,0
272,184,190897,1,0
232,184,191050,1,0
152,272,191510,2,0,B|56:192|160:144|160:144|176:136,1,150,0|4
