osu file format v13

[General]
AudioFilename: Ashley Eriksson - Island Song.mp3
AudioLeadIn: 750
PreviewTime: 2144
Countdown: 0
SampleSet: Soft
StackLeniency: 0.7
Mode: 0
LetterboxInBreaks: 0
WidescreenStoryboard: 0

[Editor]
DistanceSpacing: 1
BeatDivisor: 4
GridSize: 4
TimelineZoom: 1

[Metadata]
Title:Island Song
TitleUnicode:Island Song
Artist:Ashley Eriksson
ArtistUnicode:Ashley Eriksson
Creator:sheela901
Version:Normal
Source:Adventure Time
Tags:finn the human jake the dog ending fiona cake princess bubblegum marceline cartoon network
BeatmapID:258819
BeatmapSetID:94223

[Difficulty]
HPDrainRate:4
CircleSize:3.5
OverallDifficulty:4
ApproachRate:4
SliderMultiplier:1.4
SliderTickRate:2

[Events]
//Background and Video events
0,0,"adventure-time.jpg",0,0
//Break Periods
2,33344,35824
2,67344,69824
//Storyboard Layer 0 (Background)
//Storyboard Layer 1 (Fail)
//Storyboard Layer 2 (Pass)
//Storyboard Layer 3 (Foreground)
//Storyboard Sound Samples

[TimingPoints]
1144,500,4,2,1,40,1,0
50644,-100,4,2,3,40,0,0
50769,-100,4,2,1,40,0,0
53144,-100,4,2,1,40,0,1
67144,-100,4,2,1,30,0,0
71144,-100,4,2,1,40,0,0
76644,-100,4,2,3,40,0,0
76769,-100,4,2,1,40,0,0
80644,-100,4,2,3,40,0,0
80769,-100,4,2,1,40,0,0
83144,515.021459227468,4,2,1,40,1,0
83916,-100,4,2,3,40,0,0
84045,-100,4,2,1,40,0,0
85204,500,4,2,1,40,1,0
85704,-100,4,2,3,40,0,0
85829,-100,4,2,1,40,0,0
87204,-100,4,2,1,40,0,1
92704,-100,4,2,3,40,0,1
92829,-100,4,2,1,40,0,1
100704,-100,4,2,3,40,0,1
100829,-100,4,2,1,40,0,1
105204,-100,4,2,1,30,0,0

[Colours]
Combo1 : 100,255,0
Combo2 : 210,242,0
Combo3 : 0,130,255

[HitObjects]
335,244,2144,6,0,L|346:317,2,70,8|8|8,0:0|0:0|0:0,0:0:0:0:
319,175,2894,1,8,0:0:0:0:
269,125,3144,6,0,B|199:116|199:116|112:119,1,140,2|8,0:0|0:0,0:0:0:0:
82,250,4144,2,0,B|152:259|152:259|239:256,1,140,0|8,0:0|0:0,0:0:0:0:
326,164,5144,2,0,P|372:188|399:276,1,140,2|8,0:0|0:0,0:0:0:0:
347,313,5894,2,0,B|276:306|276:306|191:317,1,140,0|0,0:0|0:0,0:0:0:0:
140,332,6644,1,8,0:0:0:0:
73,208,7144,6,0,P|63:154|105:84,1,140,2|8,0:0|0:0,0:0:0:0:
245,83,8144,2,0,P|284:138|277:207,1,140,0|8,0:0|0:0,0:0:0:0:
238,265,8894,1,0,0:0:0:0:
172,290,9144,2,0,L|19:302,1,140,2|8,0:0|0:0,0:0:0:0:
10,234,9894,2,0,B|17:189|17:189|8:129|8:129|20:69,1,140,0|0,0:0|0:0,0:0:0:0:
45,32,10644,1,8,0:0:0:0:
184,44,11144,6,0,P|276:39|331:43,1,140,2|8,0:0|0:0,0:0:0:0:
389,66,11894,2,0,B|406:135|406:135|404:232,1,140,0|0,0:0|0:0,0:0:0:0:
396,273,12644,1,8,0:0:0:0:
269,333,13144,2,0,B|219:358|172:315|125:338,1,140,2|8,0:0|0:0,0:0:0:0:
62,345,13894,2,0,P|32:298|48:209,1,140,0|0,0:0|0:0,0:0:0:0:
89,165,14644,1,8,0:0:0:0:
227,144,15144,6,0,L|377:132,2,140,2|8|0,0:0|0:0|0:0,0:0:0:0:
158,155,16394,2,0,L|83:166,1,70,0|8,0:0|0:0,0:0:0:0:
139,295,17144,2,0,P|232:314|279:288,2,140,2|8|0,0:0|0:0|0:0,0:0:0:0:
102,234,18394,2,0,L|88:156,2,70,8|8|8,0:0|0:0|0:0,0:0:0:0:
139,295,19144,6,0,P|205:262|213:199,1,140,2|8,0:0|0:0,0:0:0:0:
200,62,20144,2,0,P|266:57|325:126,1,140,0|8,0:0|0:0,0:0:0:0:
364,235,21144,2,0,L|392:304,2,70,2|0|8,0:0|0:0|0:0,0:0:0:0:
294,229,21894,2,0,P|224:216|140:240,1,140,0|0,0:0|0:0,0:0:0:0:
111,282,22644,1,8,0:0:0:0:
29,168,23144,6,0,B|35:97|35:97|79:36,1,140,2|8,0:0|0:0,0:0:0:0:
214,58,24144,2,0,B|269:98|269:98|340:104,1,140,0|8,0:0|0:0,0:0:0:0:
480,110,25144,2,0,L|494:271,1,140,2|8,0:0|0:0,0:0:0:0:
478,318,25894,2,0,P|420:348|340:319,1,140,0|0,0:0|0:0,0:0:0:0:
303,278,26644,1,8,0:0:0:0:
219,165,27144,6,0,P|114:158|64:163,1,140,2|8,0:0|0:0,0:0:0:0:
46,222,27894,2,0,P|92:316|121:357,1,140,0|0,0:0|0:0,0:0:0:0:
177,369,28644,1,8,0:0:0:0:
307,318,29144,2,0,P|385:303|454:326,1,140,2|8,0:0|0:0,0:0:0:0:
469,383,29894,2,0,L|498:235,1,140,0|0,0:0|0:0,0:0:0:0:
494,175,30644,2,0,L|482:102,1,70,8|0,0:0|0:0,0:0:0:0:
455,41,31144,6,0,B|373:33|373:33|305:42,1,140,2|8,0:0|0:0,0:0:0:0:
297,108,31894,2,0,B|239:115|239:115|157:107,1,140,0|0,0:0|0:0,0:0:0:0:
94,77,32644,1,8,0:0:0:0:
21,178,33144,1,6,0:0:0:0:
355,127,37144,6,0,L|450:122,2,70,2|0|8,0:0|0:0|0:0,0:0:0:0:
292,157,37894,2,0,P|214:177|141:156,1,140,8|0,0:0|0:0,0:0:0:0:
104,120,38644,1,8,0:0:0:0:
216,35,39144,2,0,P|285:22|374:33,1,140,2|8,0:0|0:0,0:0:0:0:
412,66,39894,2,0,L|400:213,1,140,8|0,0:0|0:0,0:0:0:0:
392,275,40644,1,8,0:0:0:0:
261,326,41144,6,0,L|170:339,2,70,2|0|8,0:0|0:0|0:0,0:0:0:0:
327,301,41894,2,0,P|339:255|290:153,1,140,8|0,0:0|0:0,0:0:0:0:
252,129,42644,1,8,0:0:0:0:
113,149,43144,2,0,L|117:77,2,70,2|0|8,0:0|0:0|0:0,0:0:0:0:
131,216,43894,2,0,P|191:254|262:230,1,140,8|0,0:0|0:0,0:0:0:0:
306,191,44644,1,8,0:0:0:0:
343,328,45144,6,0,L|416:333,2,70,2|0|8,0:0|0:0|0:0,0:0:0:0:
297,274,45894,2,0,P|290:197|285:111,1,140,8|0,0:0|0:0,0:0:0:0:
286,64,46644,1,8,0:0:0:0:
151,26,47144,1,2,0:0:0:0:
83,42,47394,1,0,0:0:0:0:
51,104,47644,1,8,0:0:0:0:
60,173,47894,2,0,B|78:255|78:255|81:314,1,140,8|0,0:0|0:0,0:0:0:0:
54,376,48644,1,8,0:0:0:0:
193,364,49144,6,0,P|261:361|326:311,1,140,2|8,0:0|0:0,0:0:0:0:
330,251,49894,2,0,L|321:100,2,140,8|0|0,0:0|0:0|0:0,0:0:0:0:
359,314,51144,2,0,P|408:308|465:231,1,140,2|8,0:0|0:0,0:0:0:0:
450,101,52144,2,8,L|385:32,1,70,8|8,0:0|0:0,0:0:0:0:
333,63,52644,2,0,L|246:55,1,70,8|8,0:0|0:0,0:0:0:0:
205,96,53144,6,0,P|171:191|185:244,1,140,6|8,0:0|0:0,0:0:0:0:
294,304,54144,2,0,P|328:209|314:156,1,140,0|8,0:0|0:0,0:0:0:0:
244,55,55144,2,0,L|100:60,1,140,2|8,0:0|0:0,0:0:0:0:
40,88,55894,2,0,P|32:154|57:225,1,140,0|0,0:0|0:0,0:0:0:0:
106,270,56644,1,8,0:0:0:0:
234,214,57144,6,0,B|304:207|304:207|384:211,1,140,2|8,0:0|0:0,0:0:0:0:
440,231,57894,1,0,0:0:0:0:
509,222,58144,2,0,P|510:154|476:76,1,140,0|8,0:0|0:0,0:0:0:0:
433,39,58894,1,0,0:0:0:0:
363,38,59144,2,0,L|286:41,2,70,2|0|8,0:0|0:0|0:0,0:0:0:0:
433,40,59894,2,0,P|448:86|416:172,1,140,0|0,0:0|0:0,0:0:0:0:
353,196,60644,1,8,0:0:0:0:
238,115,61144,6,0,B|188:133|188:133|146:119|80:138,1,140,2|8,0:0|0:0,0:0:0:0:
46,175,61894,2,0,P|30:236|59:327,1,140,0|0,0:0|0:0,0:0:0:0:
103,351,62644,1,8,0:0:0:0:
234,302,63144,2,0,B|271:304|300:284|300:284|331:299|331:299|382:293,1,140,2|8,0:0|0:0,0:0:0:0:
415,244,63894,2,0,L|432:100,1,140,0|0,0:0|0:0,0:0:0:0:
391,47,64644,1,8,0:0:0:0:
251,45,65144,6,0,P|212:89|212:171,1,140,2|8,0:0|0:0,0:0:0:0:
259,217,65894,2,0,P|261:285|218:339,1,140,0|0,0:0|0:0,0:0:0:0:
152,362,66644,1,8,0:0:0:0:
49,267,67144,1,6,0:0:0:0:
217,54,71144,6,0,P|263:51|365:54,1,140,2|8,0:0|0:0,0:0:0:0:
424,70,71894,2,0,B|423:117|423:117|446:215,1,140,8|0,0:0|0:0,0:0:0:0:
462,275,72644,1,8,0:0:0:0:
330,322,73144,2,0,L|260:324,2,70,2|0|8,0:0|0:0|0:0,0:0:0:0:
396,300,73894,2,0,P|405:248|354:146,1,140,8|0,0:0|0:0,0:0:0:0:
315,130,74644,1,8,0:0:0:0:
175,146,75144,6,0,B|152:178|152:178|153:239|153:239|132:275,1,140,2|8,0:0|0:0,0:0:0:0:
64,289,75894,2,0,P|20:250|15:170,2,140,8|0|0,0:0|0:0|0:0,0:0:0:0:
133,280,77144,2,0,P|222:274|292:291,1,140,2|8,0:0|0:0,0:0:0:0:
336,308,77894,2,0,B|404:317|404:317|465:274,1,140,8|0,0:0|0:0,0:0:0:0:
501,217,78644,1,8,0:0:0:0:
372,161,79144,6,0,P|357:86|359:68,2,70,2|0|8,0:0|0:0|0:0,0:0:0:0:
430,199,79894,2,0,B|458:248|399:289|450:351,2,140,8|0|0,0:0|0:0|0:0,0:0:0:0:
372,161,81144,2,0,L|380:75,2,70,2|0|8,0:0|0:0|0:0,0:0:0:0:
338,222,81894,2,0,P|278:257|184:243,1,140,8|0,0:0|0:0,0:0:0:0:
146,222,82644,1,8,0:0:0:0:
48,130,83144,6,0,B|76:104|76:104|128:107|128:107|150:79|193:75,2,140,0|8|0,0:0|0:0|0:0,0:0:0:0:
30,265,84689,1,8,0:0:0:0:
156,334,85204,2,0,B|221:313|221:313|290:320|290:320|316:247|399:228,1,280,0|8,0:0|0:0,0:0:0:0:
462,234,86454,2,0,L|501:304,2,70,8|8|8,0:0|0:0|0:0,0:0:0:0:
422,176,87204,6,0,P|326:127|288:133,1,140,6|8,0:0|0:0,0:0:0:0:
180,206,88204,2,0,L|140:349,1,140,0|8,0:0|0:0,0:0:0:0:
29,257,89204,2,0,L|69:114,1,140,2|8,0:0|0:0,0:0:0:0:
119,76,89954,2,0,P|180:87|268:75,1,140,0|0,0:0|0:0,0:0:0:0:
312,35,90704,1,8,0:0:0:0:
435,101,91204,6,0,P|443:170|432:244,1,140,2|8,0:0|0:0,0:0:0:0:
386,291,91954,2,0,B|293:298|292:298|292:298|241:286,2,140,0|0|0,0:0|0:0|0:0,0:0:0:0:
429,236,93204,2,0,P|438:186|386:109,1,140,2|8,0:0|0:0,0:0:0:0:
323,110,93954,2,0,B|274:110|274:110|229:120|229:120|183:120,1,140,0|0,0:0|0:0,0:0:0:0:
114,122,94704,1,8,0:0:0:0:
56,249,95204,6,0,P|62:315|137:363,2,140,2|8|0,0:0|0:0|0:0,0:0:0:0:
88,186,96454,1,0,0:0:0:0:
157,174,96704,1,8,0:0:0:0:
255,272,97204,2,0,L|412:280,1,140,2|8,0:0|0:0,0:0:0:0:
465,281,97954,2,0,P|500:231|481:131,1,140,0|0,0:0|0:0,0:0:0:0:
459,95,98704,1,8,0:0:0:0:
319,101,99204,6,0,L|219:105,2,70,2|0|8,0:0|0:0|0:0,0:0:0:0:
389,98,99954,2,0,P|396:173|374:253,2,140,0|0|0,0:0|0:0|0:0,0:0:0:0:
341,46,101204,2,0,L|269:38,1,70,2|0,0:0|0:0,0:0:0:0:
211,75,101704,1,8,0:0:0:0:
231,142,101954,2,0,P|212:231|179:278,1,140,2|0,0:0|0:0,0:0:0:0:
121,300,102704,1,8,0:0:0:0:
62,173,103204,6,0,P|60:101|67:81,2,70,2|0|8,0:0|0:0|0:0,0:0:0:0:
128,195,103954,2,0,P|219:204|291:199,1,140,2|0,0:0|0:0,0:0:0:0:
333,179,104704,1,8,0:0:0:0:
256,192,105204,12,4,107204,0:0:0:0:
