osu file format v13

[General]
AudioFilename: Ashley Eriksson - Island Song.mp3
AudioLeadIn: 750
PreviewTime: 2144
Countdown: 0
SampleSet: Soft
StackLeniency: 0.7
Mode: 0
LetterboxInBreaks: 0
WidescreenStoryboard: 0

[Editor]
DistanceSpacing: 1
BeatDivisor: 4
GridSize: 4
TimelineZoom: 1

[Metadata]
Title:Island Song
TitleUnicode:Island Song
Artist:Ashley Eriksson
ArtistUnicode:Ashley Eriksson
Creator:sheela901
Version:Hard
Source:Adventure Time
Tags:finn the human jake the dog ending fiona cake princess bubblegum marceline cartoon network
BeatmapID:449202
BeatmapSetID:94223

[Difficulty]
HPDrainRate:6
CircleSize:4
OverallDifficulty:6
ApproachRate:7
SliderMultiplier:1.8
SliderTickRate:2

[Events]
//Background and Video events
0,0,"adventure-time.jpg",0,0
//Break Periods
2,33343,36244
2,67344,70244
//Storyboard Layer 0 (Background)
//Storyboard Layer 1 (Fail)
//Storyboard Layer 2 (Pass)
//Storyboard Layer 3 (Foreground)
//Storyboard Sound Samples

[TimingPoints]
1144,500,4,2,1,40,1,0
16644,-100,4,2,3,40,0,0
16769,-100,4,2,1,40,0,0
50644,-100,4,2,3,40,0,0
50769,-100,4,2,1,40,0,0
52144,-100,4,2,1,40,0,0
53144,-100,4,2,1,40,0,1
67144,-100,4,2,1,40,0,0
83144,515.021459227468,4,2,1,40,1,0
85204,500,4,2,1,40,1,0
86204,-100,4,2,1,40,0,0
87204,-100,4,2,1,40,0,1
96704,-100,4,2,3,40,0,1
96829,-100,4,2,1,40,0,1
105204,-100,4,2,1,30,0,0

[Colours]
Combo1 : 100,255,0
Combo2 : 210,242,0
Combo3 : 0,130,255

[HitObjects]
106,327,2144,6,0,L|138:280,3,45,8|8|8|8,0:0|0:0|0:0|0:0,0:0:0:0:
126,249,2644,2,0,L|158:202,3,45,8|8|8|8,0:0|0:0|0:0|0:0,0:0:0:0:
158,171,3144,6,0,P|172:66|255:32,1,180,2|8,0:0|0:0,0:0:0:0:
244,128,3894,1,0,0:0:0:0:
323,73,4144,2,0,P|291:210|245:224,1,180,0|8,0:0|0:0,0:0:0:0:
186,254,4894,1,2,0:0:0:0:
101,283,5144,2,0,P|168:342|259:308,1,180,2|8,0:0|0:0,0:0:0:0:
273,232,5894,1,0,0:0:0:0:
356,199,6144,2,0,L|380:106,1,90,0|0,0:0|0:0,0:0:0:0:
403,25,6644,1,8,0:0:0:0:
224,46,7144,6,0,B|167:51|167:51|137:74|137:74|92:69|56:107,1,180,2|8,0:0|0:0,0:0:0:0:
50,282,8144,2,0,B|107:277|107:277|137:254|137:254|182:259|218:221,1,180,0|8,0:0|0:0,0:0:0:0:
337,94,9144,2,0,P|419:84|437:86,1,90,2|0,0:0|0:0,0:0:0:0:
400,171,9644,2,0,P|318:181|300:179,1,90,8|0,0:0|0:0,0:0:0:0:
232,136,10144,1,0,0:0:0:0:
143,151,10394,1,0,0:0:0:0:
95,227,10644,2,0,L|81:322,1,90,8|0,0:0|0:0,0:0:0:0:
155,364,11144,6,0,P|200:359|237:335,2,90,2|0|8,0:0|0:0|0:0,0:0:0:0:
171,276,11894,1,0,0:0:0:0:
255,246,12144,2,0,P|301:269|326:311,1,90,0|0,0:0|0:0,0:0:0:0:
372,374,12644,1,8,0:0:0:0:
460,359,12894,1,0,0:0:0:0:
477,270,13144,2,0,L|493:166,1,90,2|0,0:0|0:0,0:0:0:0:
391,129,13644,2,0,L|407:233,1,90,8|0,0:0|0:0,0:0:0:0:
224,202,14394,1,0,0:0:0:0:
262,120,14644,2,0,L|278:16,1,90,8|0,0:0|0:0,0:0:0:0:
153,57,15144,6,0,P|105:55|61:60,1,90,2|0,0:0|0:0,0:0:0:0:
25,141,15644,1,8,0:0:0:0:
113,156,15894,2,0,P|111:204|116:248,1,90,0|0,0:0|0:0,0:0:0:0:
204,258,16394,2,0,P|291:248|365:296,1,180,0|0,0:0|0:0,0:0:0:0:
424,364,17144,2,0,P|454:303|449:270,1,90,2|0,0:0|0:0,0:0:0:0:
402,207,17644,2,0,P|405:162|430:125,1,90,8|0,0:0|0:0,0:0:0:0:
480,51,18144,1,0,0:0:0:0:
370,29,18394,5,8,0:0:0:0:
329,27,18519,1,8,0:0:0:0:
289,27,18644,1,8,0:0:0:0:
248,28,18769,1,8,0:0:0:0:
208,30,18894,1,8,0:0:0:0:
163,30,19019,1,8,0:0:0:0:
125,54,19144,6,0,L|28:106,1,90,2|0,0:0|0:0,0:0:0:0:
28,202,19644,2,0,L|125:150,1,90,8|0,0:0|0:0,0:0:0:0:
192,129,20144,1,0,0:0:0:0:
278,155,20394,1,0,0:0:0:0:
367,149,20644,2,0,P|415:219|419:254,1,90,8|0,0:0|0:0,0:0:0:0:
362,295,21144,2,0,L|267:315,1,90,2|0,0:0|0:0,0:0:0:0:
186,334,21644,1,8,0:0:0:0:
92,346,21894,2,0,P|110:277|212:242,1,180,0|0,0:0|0:0,0:0:0:0:
293,224,22644,2,0,P|350:189|366:152,1,90,8|0,0:0|0:0,0:0:0:0:
277,130,23144,6,0,L|191:86,2,90,2|0|8,0:0|0:0|0:0,0:0:0:0:
360,170,23894,1,0,0:0:0:0:
402,252,24144,2,0,L|410:364,2,90,0|0|8,0:0|0:0|0:0,0:0:0:0:
360,170,24894,1,0,0:0:0:0:
293,224,25144,2,0,P|211:236|187:236,1,90,2|0,0:0|0:0,0:0:0:0:
116,215,25644,1,8,0:0:0:0:
119,327,25894,2,0,P|201:315|326:352,1,180,0|0,0:0|0:0,0:0:0:0:
381,360,26644,2,0,L|492:357,1,90,8|0,0:0|0:0,0:0:0:0:
498,241,27144,6,0,P|494:170|468:117,1,90,2|0,0:0|0:0,0:0:0:0:
409,108,27644,1,8,0:0:0:0:
321,81,27894,2,0,P|325:143|424:200,1,180,0|0,0:0|0:0,0:0:0:0:
409,109,28644,1,8,0:0:0:0:
389,21,28894,1,0,0:0:0:0:
274,12,29144,2,0,P|225:60|233:182,1,180,2|8,0:0|0:0,0:0:0:0:
289,229,29894,1,2,0:0:0:0:
153,336,30394,1,0,0:0:0:0:
74,293,30644,1,8,0:0:0:0:
40,209,30894,1,0,0:0:0:0:
44,119,31144,6,0,P|68:67|130:41,2,90,2|0|8,0:0|0:0|0:0,0:0:0:0:
149,142,31894,2,0,P|227:140|286:34,1,180,0|0,0:0|0:0,0:0:0:0:
183,38,32644,1,8,0:0:0:0:
286,64,32894,2,0,P|342:64|384:54,1,90,0|6,0:0|0:0,0:0:0:0:
329,319,37144,6,0,P|281:280|248:271,1,90,2|0,0:0|0:0,0:0:0:0:
164,268,37644,1,8,0:0:0:0:
104,335,37894,2,0,P|76:288|141:179,1,180,8|0,0:0|0:0,0:0:0:0:
216,196,38644,1,8,0:0:0:0:
383,129,39144,2,0,P|433:69|434:37,2,90,2|0|8,0:0|0:0|0:0,0:0:0:0:
344,47,39894,2,0,P|273:40|168:106,1,180,8|0,0:0|0:0,0:0:0:0:
151,175,40644,1,8,0:0:0:0:
240,331,41144,6,0,P|300:319|351:318,1,90,2|0,0:0|0:0,0:0:0:0:
398,246,41644,2,0,P|354:236|309:232,1,90,8|8,0:0|0:0,0:0:0:0:
240,155,42144,2,0,P|283:145|328:141,1,90,0|0,0:0|0:0,0:0:0:0:
423,157,42644,1,8,0:0:0:0:
488,221,42894,1,0,0:0:0:0:
398,246,43144,2,0,P|337:194|350:98,1,180,2|8,0:0|0:0,0:0:0:0:
416,44,43894,1,8,0:0:0:0:
236,27,44394,1,0,0:0:0:0:
158,73,44644,2,0,P|135:129|130:164,1,90,8|0,0:0|0:0,0:0:0:0:
174,243,45144,6,0,P|230:240|282:251,1,90,2|0,0:0|0:0,0:0:0:0:
344,285,45644,1,8,0:0:0:0:
357,195,45894,2,0,P|399:213|413:340,1,180,8|0,0:0|0:0,0:0:0:0:
336,372,46644,1,8,0:0:0:0:
265,314,46894,1,0,0:0:0:0:
267,222,47144,2,0,P|274:154|313:111,1,90,2|0,0:0|0:0,0:0:0:0:
358,91,47644,1,8,0:0:0:0:
451,82,47894,2,0,P|428:165|339:189,1,180,8|0,0:0|0:0,0:0:0:0:
260,164,48644,1,8,0:0:0:0:
177,203,48894,1,0,0:0:0:0:
118,271,49144,6,0,P|105:316|96:363,1,90,2|0,0:0|0:0,0:0:0:0:
198,297,49644,2,0,P|211:252|220:205,1,90,8|8,0:0|0:0,0:0:0:0:
212,119,50144,1,0,0:0:0:0:
231,31,50394,2,0,P|138:66|127:146,1,180,0|0,0:0|0:0,0:0:0:0:
146,223,51144,1,2,0:0:0:0:
198,297,51394,1,0,0:0:0:0:
284,273,51644,2,0,L|397:256,1,90,8|0,0:0|0:0,0:0:0:0:
461,241,52144,6,0,P|485:177|487:168,3,45,8|8|8|8,0:0|0:0|0:0|0:0,0:0:0:0:
461,161,52644,2,0,P|464:107|464:95,3,45,8|8|8|8,0:0|0:0|0:0|0:0,0:0:0:0:
455,71,53144,6,0,P|376:58|267:74,1,180,6|8,0:0|0:0,0:0:0:0:
206,126,53894,1,0,0:0:0:0:
192,215,54144,2,0,P|189:259|195:304,1,90,0|0,0:0|0:0,0:0:0:0:
272,350,54644,1,8,0:0:0:0:
304,156,55144,2,0,P|282:80|263:45,1,90,2|0,0:0|0:0,0:0:0:0:
190,46,55644,1,8,0:0:0:0:
105,76,55894,2,0,B|140:149|225:129|225:129|209:173|216:195,1,180,0|0,0:0|0:0,0:0:0:0:
198,252,56644,2,0,P|177:305|169:347,1,90,8|0,0:0|0:0,0:0:0:0:
270,306,57144,6,0,P|286:238|215:164,1,180,2|8,0:0|0:0,0:0:0:0:
132,197,57894,1,0,0:0:0:0:
199,253,58144,2,0,P|117:280|49:226,1,180,0|8,0:0|0:0,0:0:0:0:
66,138,58894,1,0,0:0:0:0:
120,66,59144,2,0,P|179:56|210:44,1,90,2|0,0:0|0:0,0:0:0:0:
290,10,59644,1,8,0:0:0:0:
378,28,59894,2,0,B|367:66|383:89|383:89|437:119|437:119|460:152|447:199,1,180,0|0,0:0|0:0,0:0:0:0:
440,260,60644,1,8,0:0:0:0:
368,314,60894,1,0,0:0:0:0:
281,290,61144,6,0,P|219:295|155:315,2,90,2|0|8,0:0|0:0|0:0,0:0:0:0:
368,314,61894,2,0,P|364:255|259:202,1,180,0|0,0:0|0:0,0:0:0:0:
181,227,62644,1,8,0:0:0:0:
151,49,63144,2,0,L|247:38,1,90,2|0,0:0|0:0,0:0:0:0:
330,27,63644,1,8,0:0:0:0:
407,73,63894,2,0,B|366:138|285:109|285:109|232:154,1,180,0|0,0:0|0:0,0:0:0:0:
217,217,64644,1,8,0:0:0:0:
108,360,65144,6,0,P|94:307|80:269,1,90,2|0,0:0|0:0,0:0:0:0:
157,224,65644,2,0,P|157:169|153:128,1,90,8|0,0:0|0:0,0:0:0:0:
240,108,66144,2,0,P|254:55|261:16,1,90,0|0,0:0|0:0,0:0:0:0:
337,109,66644,2,0,P|304:228|289:317,1,180,8|6,0:0|0:0,0:0:0:0:
208,304,71144,5,2,0:0:0:0:
292,344,71394,1,0,0:0:0:0:
367,291,71644,1,8,0:0:0:0:
460,301,71894,2,0,P|474:236|373:169,1,180,8|0,0:0|0:0,0:0:0:0:
307,150,72644,2,0,L|200:151,1,90,8|0,0:0|0:0,0:0:0:0:
143,203,73144,2,0,P|132:256|152:305,2,90,2|0|8,0:0|0:0|0:0,0:0:0:0:
190,121,73894,2,0,P|178:77|42:53,1,180,8|0,0:0|0:0,0:0:0:0:
97,127,74644,1,8,0:0:0:0:
143,204,74894,1,0,0:0:0:0:
218,247,75144,6,0,P|226:311|201:355,1,90,2|0,0:0|0:0,0:0:0:0:
126,334,75644,1,8,0:0:0:0:
130,243,75894,2,0,P|161:180|277:180,1,180,8|0,0:0|0:0,0:0:0:0:
324,234,76644,2,0,P|365:287|389:308,1,90,8|0,0:0|0:0,0:0:0:0:
470,285,77144,2,0,P|478:218|476:186,1,90,2|0,0:0|0:0,0:0:0:0:
391,170,77644,1,8,0:0:0:0:
308,147,77894,2,0,P|344:98|459:118,1,180,8|0,0:0|0:0,0:0:0:0:
477,196,78644,1,8,0:0:0:0:
311,266,79144,6,0,P|227:277|217:279,1,90,2|0,0:0|0:0,0:0:0:0:
144,323,79644,1,8,0:0:0:0:
142,233,79894,2,0,P|201:185|170:67,1,180,8|0,0:0|0:0,0:0:0:0:
120,142,80644,2,0,P|73:180|57:223,1,90,8|0,0:0|0:0,0:0:0:0:
59,296,81144,2,0,P|81:334|118:359,2,90,2|0|8,0:0|0:0|0:0,0:0:0:0:
61,206,81894,1,8,0:0:0:0:
202,94,82394,1,0,0:0:0:0:
292,94,82644,1,8,0:0:0:0:
399,239,83144,6,0,L|386:344,1,90,2|0,0:0|0:0,0:0:0:0:
296,286,83659,2,0,L|309:391,1,90,8|8,0:0|0:0,0:0:0:0:
202,317,84174,2,0,L|214:228,1,90,0|0,0:0|0:0,0:0:0:0:
127,376,84689,2,0,L|116:287,1,90,8|0,0:0|0:0,0:0:0:0:
134,182,85204,2,0,P|173:149|296:195,1,180,2|8,0:0|0:0,0:0:0:0:
359,344,86204,6,0,L|408:348,3,45,8|8|8|8,0:0|0:0|0:0|0:0,3:0:0:0:
437,334,86704,2,0,L|481:312,3,45,8|8|8|8,0:0|0:0|0:0|0:0,0:0:0:0:
501,280,87204,6,0,P|490:200|467:175,1,90,6|0,0:0|0:0,0:0:0:0:
402,160,87704,2,0,P|306:159|239:72,1,180,8|0,0:0|0:0,0:0:0:0:
271,10,88454,1,0,0:0:0:0:
351,63,88704,1,8,0:0:0:0:
364,242,89204,2,0,L|390:342,2,90,2|0|8,0:0|0:0|0:0,0:0:0:0:
309,161,89954,2,0,P|242:173|167:280,1,180,0|0,0:0|0:0,0:0:0:0:
167,344,90704,2,0,P|232:326|263:329,1,90,8|0,0:0|0:0,0:0:0:0:
343,341,91204,5,2,0:0:0:0:
432,352,91454,1,0,0:0:0:0:
510,320,91704,2,0,P|502:260|478:218,1,90,8|0,0:0|0:0,0:0:0:0:
395,250,92204,2,0,P|403:197|509:139,1,180,0|8,0:0|0:0,0:0:0:0:
503,48,92954,1,0,0:0:0:0:
413,51,93204,2,0,L|321:55,1,90,2|2,0:0|0:0,0:0:0:0:
233,58,93704,1,8,0:0:0:0:
153,19,93954,2,0,P|157:105|233:148,1,180,0|0,0:0|0:0,0:0:0:0:
323,147,94704,1,8,0:0:0:0:
412,155,94954,1,0,0:0:0:0:
478,215,95204,6,0,L|468:306,1,90,2|0,0:0|0:0,0:0:0:0:
380,344,95704,2,0,L|390:253,1,90,8|0,0:0|0:0,0:0:0:0:
314,202,96204,1,0,0:0:0:0:
279,289,96454,2,0,P|232:248|246:138,1,180,0|0,0:0|0:0,0:0:0:0:
331,115,97204,2,0,P|290:58|234:50,1,90,2|0,0:0|0:0,0:0:0:0:
186,70,97704,1,8,0:0:0:0:
113,123,97954,2,0,B|64:169|109:258|42:283,1,180,0|0,0:0|0:0,0:0:0:0:
5,362,98704,1,8,0:0:0:0:
94,353,98954,1,0,0:0:0:0:
183,356,99204,6,0,P|243:351|291:353,1,90,2|0,0:0|0:0,0:0:0:0:
269,261,99704,2,0,P|224:261|179:256,1,90,8|0,0:0|0:0,0:0:0:0:
233,166,100204,2,0,P|277:165|322:170,2,90,0|0|8,0:0|0:0|0:0,0:0:0:0:
141,177,100954,1,0,0:0:0:0:
93,253,101204,2,0,P|52:193|103:94,1,180,2|8,0:0|0:0,0:0:0:0:
179,88,101954,2,0,P|230:82|268:67,1,90,2|0,0:0|0:0,0:0:0:0:
338,15,102454,1,2,0:0:0:0:
427,9,102704,1,8,0:0:0:0:
498,174,103204,6,0,L|501:269,1,90,2|2,0:0|0:0,0:0:0:0:
463,345,103704,1,8,0:0:0:0:
409,272,103954,2,0,P|310:269|299:272,1,90,2|0,0:0|0:0,0:0:0:0:
233,291,104454,1,0,0:0:0:0:
153,332,104704,2,0,P|147:271|181:225,1,90,8|0,0:0|0:0,0:0:0:0:
218,158,105204,6,0,P|231:84|233:57,1,90,2|2,0:0|0:0,0:0:0:0:
146,2,105704,1,8,0:0:0:0:
57,82,105954,2,0,P|131:95|158:97,1,90,2|0,0:0|0:0,0:0:0:0:
232,69,106454,1,2,0:0:0:0:
308,22,106704,2,0,P|321:91|287:137,1,90,8|2,0:0|0:0,0:0:0:0:
277,133,107079,2,0,L|241:164,1,45,0|6,0:0|0:0,0:0:0:0:
256,192,107329,12,0,108704,0:0:0:0:
