osu file format v14

[General]
AudioFilename: audio.mp3
AudioLeadIn: 0
PreviewTime: 26078
Countdown: 0
SampleSet: Soft
StackLeniency: 0.7
Mode: 0
LetterboxInBreaks: 0
WidescreenStoryboard: 0

[Editor]
DistanceSpacing: 2
BeatDivisor: 4
GridSize: 4
TimelineZoom: 1

[Metadata]
Title:Change My Life
TitleUnicode:Change My Life
Artist:Ashes Remain
ArtistUnicode:Ashes Remain
Creator:Aihuro
Version:Hard
Source:
Tags:full version christian god faith grace What I've Become refaller
BeatmapID:1001825
BeatmapSetID:468377

[Difficulty]
HPDrainRate:6.5
CircleSize:4
OverallDifficulty:7
ApproachRate:8
SliderMultiplier:1.4
SliderTickRate:1

[Events]
//Background and Video events
0,0,"Anime-Stars-anime-stars.jpg",0,0
//Break Periods
2,127311,136017
//Storyboard Layer 0 (Background)
//Storyboard Layer 1 (Fail)
//Storyboard Layer 2 (Pass)
//Storyboard Layer 3 (Foreground)
//Storyboard Sound Samples

[TimingPoints]
215,689.655172413793,4,2,1,65,1,0
5733,-66.6666666666667,4,2,1,65,0,0
27801,-58.8235294117647,4,2,1,80,0,1
55387,-66.6666666666667,4,2,1,65,0,0
77456,-58.8235294117647,4,2,1,80,0,1
105042,-58.8235294117647,4,2,1,65,0,0
124009,-58.8235294117647,4,2,1,65,0,0
127111,-58.8235294117647,4,2,1,5,0,0
136767,-66.6666666666667,4,2,1,65,0,0
138146,-58.8235294117647,4,2,1,80,0,1
165732,-133.333333333333,4,2,1,80,0,0
166766,-133.333333333333,4,2,1,10,0,0
167111,-133.333333333333,4,2,1,30,0,0
168146,-133.333333333333,4,2,1,5,0,0
168490,-133.333333333333,4,2,1,30,0,0

[Colours]
Combo1 : 128,128,192
Combo2 : 181,106,255
Combo3 : 113,208,255
Combo4 : 64,128,128

[HitObjects]
376,184,5733,6,0,P|368:136|312:100,1,105.000004005432
248,136,6250,1,0,0:0:0:0:
212,60,6421,2,0,L|100:40,1,105.000004005432,8|0,0:0|0:0,0:0:0:0:
32,72,6939,2,0,L|0:28,2,52.5000020027161,8|0|0,0:0|0:0|0:0,0:0:0:0:
88,136,7457,1,0,0:0:0:0:
28,196,7629,1,0,0:0:0:0:
96,244,7801,2,0,P|116:300|184:344,1,105.000004005432,8|0,0:0|0:0,0:0:0:0:
220,372,8319,1,0,0:0:0:0:
292,328,8491,6,0,B|320:284|320:284|328:256,1,52.5000020027161
356,208,8836,1,0,0:0:0:0:
276,180,9009,1,0,0:0:0:0:
300,100,9180,2,0,L|240:52,1,52.5000020027161,8|0,0:0|0:0,0:0:0:0:
192,16,9525,1,0,0:0:0:0:
136,80,9697,2,0,P|156:148|220:188,1,105.000004005432,8|0,0:0|0:0,0:0:0:0:
240,225,10215,2,0,P|220:242|196:252,2,52.5000020027161,0|0|8,0:0|0:0|0:0,0:0:0:0:
284,152,10733,1,0,0:0:0:0:
360,188,10905,2,0,L|364:248,1,52.5000020027161
448,252,11250,6,0,P|448:304|404:340,1,105.000004005432
328,324,11767,1,0,0:0:0:0:
244,340,11939,2,0,L|128:340,1,105.000004005432,8|0,0:0|0:0,0:0:0:0:
68,296,12456,2,0,P|76:240|136:208,1,105.000004005432,8|0,0:0|0:0,0:0:0:0:
188,244,12974,1,0,0:0:0:0:
184,164,13146,1,0,0:0:0:0:
108,128,13319,2,0,L|52:88,2,52.5000020027161,8|0|0,0:0|0:0|0:0,0:0:0:0:
184,164,13836,1,0,0:0:0:0:
224,88,14009,6,0,P|192:80|144:96,1,52.5000020027161
184,164,14353,2,0,P|216:172|264:156,1,52.5000020027161
304,120,14698,2,0,L|436:108,1,105.000004005432,8|0,0:0|0:0,0:0:0:0:
424,192,15214,2,0,B|416:244|416:244|428:300,1,105.000004005432,8|0,0:0|0:0,0:0:0:0:
500,336,15732,1,0,0:0:0:0:
426,295,15905,1,0,0:0:0:0:
352,340,16078,2,0,L|252:376,1,105.000004005432,8|0,0:0|0:0,0:0:0:0:
172,360,16595,1,0,0:0:0:0:
208,284,16766,6,0,L|308:248,1,105.000004005432,2|0,0:0|0:0,0:0:0:0:
304,164,17284,1,0,0:0:0:0:
220,172,17456,2,0,P|168:180|125:209,1,105.000004005432,8|0,0:0|0:0,0:0:0:0:
128,292,17974,2,0,P|76:324|4:324,1,105.000004005432,8|0,0:0|0:0,0:0:0:0:
4,248,18491,2,0,L|32:192,1,52.5000020027161
68,128,18836,2,0,P|68:60|100:12,1,105.000004005432,8|0,0:0|0:0,0:0:0:0:
168,16,19353,1,0,0:0:0:0:
179,99,19526,6,0,L|243:115,1,52.5000020027161
308,144,19871,2,0,P|308:188|296:212,1,52.5000020027161
224,200,20214,1,10,0:0:0:0:
229,111,20387,1,0,0:0:0:0:
272,36,20560,1,0,0:0:0:0:
348,68,20732,2,0,L|496:44,1,105.000004005432,8|0,0:0|0:0,0:0:0:0:
472,132,21250,2,0,B|488:156|488:156|532:188,2,52.5000020027161,0|0|8,0:0|0:0|0:0,0:0:0:0:
316,196,21940,1,0,0:0:0:0:
284,272,22112,1,0,0:0:0:0:
200,272,22284,6,0,P|148:188|148:164,1,105.000004005432,2|0,0:0|0:0,0:0:0:0:
168,104,22802,1,0,0:0:0:0:
84,120,22974,2,0,P|56:120|16:92,1,52.5000020027161,8|0,0:0|0:0,0:0:0:0:
76,36,23319,1,0,0:0:0:0:
160,28,23491,2,0,P|192:32|228:56,1,52.5000020027161,8|0,0:0|0:0,0:0:0:0:
264,108,23836,2,0,L|280:188,2,52.5000020027161
340,72,24353,2,0,B|388:84|388:84|408:104|408:168,1,105.000004005432,8|0,0:0|0:0,0:0:0:0:
368,212,24871,1,0,0:0:0:0:
440,260,25043,5,2,0:0:0:0:
380,320,25215,2,0,L|436:372,2,52.5000020027161
304,280,25733,2,0,P|236:272|180:288,1,105.000004005432,8|0,0:0|0:0,0:0:0:0:
48,348,26422,5,8,0:0:0:0:
8,184,26767,1,0,0:0:0:0:
144,84,27112,1,0,0:0:0:0:
304,136,27457,1,0,0:0:0:0:
284,324,27802,6,0,L|436:308,1,119.000002269745,4|0,0:0|0:0,0:0:0:0:
464,236,28319,1,0,0:0:0:0:
368,232,28491,2,0,B|312:212|312:212|248:212,1,119.000002269745,10|0,0:0|0:0,0:0:0:0:
164,248,29008,1,0,0:0:0:0:
108,172,29180,2,0,L|124:104,1,59.5000011348725
192,48,29525,1,0,0:0:0:0:
288,48,29698,1,0,0:0:0:0:
336,132,29870,2,0,P|400:136|452:108,1,119.000002269745,10|0,0:0|0:0,0:0:0:0:
432,300,30560,6,0,L|308:268,1,119.000002269745
228,256,31078,1,0,0:0:0:0:
136,268,31250,2,0,L|20:296,1,119.000002269745,10|0,0:0|0:0,0:0:0:0:
8,200,31767,1,0,0:0:0:0:
96,168,31940,2,0,L|176:148,1,59.5000011348725
232,100,32284,1,0,0:0:0:0:
304,164,32457,1,0,0:0:0:0:
388,120,32628,2,0,P|392:88|372:28,1,59.5000011348725,10|0,0:0|0:0,0:0:0:0:
468,144,32974,2,0,P|464:176|484:236,1,59.5000011348725
416,312,33319,6,0,P|364:332|284:300,1,119.000002269745,4|0,0:0|0:0,0:0:0:0:
212,288,33836,1,0,0:0:0:0:
152,212,34009,2,0,P|204:192|284:224,1,119.000002269745,10|0,0:0|0:0,0:0:0:0:
360,192,34526,1,0,0:0:0:0:
300,120,34698,2,0,B|280:96|280:96|280:8,1,119.000002269745
184,8,35215,1,0,0:0:0:0:
136,92,35388,2,0,L|80:112,1,59.5000011348725,10|0,0:0|0:0,0:0:0:0:
76,212,35733,2,0,L|132:192,1,59.5000011348725
196,264,36078,6,0,P|204:324|276:372,1,119.000002269745
288,280,36595,1,0,0:0:0:0:
364,340,36766,2,0,L|420:304,1,59.5000011348725,10|0,0:0|0:0,0:0:0:0:
376,220,37111,2,0,P|404:164|356:88,1,119.000002269745
300,72,37629,1,0,0:0:0:0:
232,140,37802,2,0,L|168:148,1,59.5000011348725
132,232,38146,2,0,P|180:256|196:288,1,59.5000011348725,10|0,0:0|0:0,0:0:0:0:
216,372,38490,1,8,0:0:0:0:
288,280,38663,1,8,0:0:0:0:
404,312,38836,6,0,L|367:189,1,119.000002269745,4|0,0:0|0:0,0:0:0:0:
308,124,39353,1,0,0:0:0:0:
220,156,39526,2,0,B|192:156|192:156|128:140,1,59.5000011348725,10|0,0:0|0:0,0:0:0:0:
88,88,39871,1,0,0:0:0:0:
20,152,40043,1,0,0:0:0:0:
87,219,40215,2,0,P|119:275|103:355,1,119.000002269745
20,340,40733,1,0,0:0:0:0:
116,328,40905,2,0,B|168:328|168:328|260:348,1,119.000002269745,10|0,0:0|0:0,0:0:0:0:
324,372,41422,1,0,0:0:0:0:
424,312,41594,6,0,P|436:248|404:168,1,119.000002269745,4|0,0:0|0:0,0:0:0:0:
352,132,42112,1,0,0:0:0:0:
296,208,42284,2,0,L|220:180,1,59.5000011348725,10|0,0:0|0:0,0:0:0:0:
216,96,42629,2,0,L|296:128,1,59.5000011348725
340,52,42974,2,0,B|392:56|392:56|456:28,1,119.000002269745
268,32,43663,2,0,P|240:16|172:32,1,59.5000011348725,10|0,0:0|0:0,0:0:0:0:
124,64,44009,1,0,0:0:0:0:
156,160,44181,1,0,0:0:0:0:
92,260,44353,6,0,P|128:324|184:348,1,119.000002269745,4|0,0:0|0:0,0:0:0:0:
236,280,44871,1,0,0:0:0:0:
324,312,45042,2,0,L|332:248,1,59.5000011348725,10|0,0:0|0:0,0:0:0:0:
348,160,45388,2,0,P|320:144|268:144,1,59.5000011348725
208,100,45733,2,0,P|156:72|140:0,1,119.000002269745
44,28,46249,1,0,0:0:0:0:
56,124,46421,2,0,L|-16:156,1,59.5000011348725,10|0,0:0|0:0,0:0:0:0:
68,216,46767,2,0,P|92:264|44:324,1,119.000002269745
144,364,47284,5,0,0:0:0:0:
228,316,47457,1,0,0:0:0:0:
308,364,47629,1,0,0:0:0:0:
384,308,47801,2,0,L|396:224,1,59.5000011348725,10|0,0:0|0:0,0:0:0:0:
348,164,48146,2,0,P|324:148|260:140,1,59.5000011348725
188,188,48491,2,0,P|212:204|276:208,1,59.5000011348725,0|8,0:0|0:0,0:0:0:0:
220,96,48836,1,8,0:0:0:0:
104,124,49009,1,0,0:0:0:0:
104,244,49181,2,0,B|52:228|52:228|0:184,1,119.000002269745,8|0,0:0|0:0,0:0:0:0:
8,92,49698,1,0,0:0:0:0:
117,36,49870,6,0,L|241:108,1,119.000002269745,4|0,0:0|0:0,0:0:0:0:
312,64,50388,1,0,0:0:0:0:
408,68,50559,2,0,P|456:104|480:164,1,119.000002269745,10|0,0:0|0:0,0:0:0:0:
420,232,51078,1,0,0:0:0:0:
380,320,51250,2,0,P|336:276|332:248,1,59.5000011348725
288,196,51594,2,0,P|284:256|208:268,1,119.000002269745,0|10,0:0|0:0,0:0:0:0:
140,272,52112,1,0,0:0:0:0:
192,192,52284,2,0,L|184:120,1,59.5000011348725
140,272,52628,6,0,P|180:336|260:344,1,119.000002269745
312,332,53146,1,0,0:0:0:0:
404,356,53319,2,0,L|440:292,1,59.5000011348725,10|0,0:0|0:0,0:0:0:0:
388,220,53663,2,0,P|428:160|440:100,1,119.000002269745
372,64,54180,1,8,0:0:0:0:
372,64,54266,1,8,0:0:0:0:
372,64,54352,1,8,0:0:0:0:
288,84,54525,1,0,0:0:0:0:
268,164,54698,2,0,P|200:168|160:140,1,119.000002269745,10|0,0:0|0:0,0:0:0:0:
72,100,55215,1,0,0:0:0:0:
56,212,55388,6,0,B|40:240|40:240|40:316,1,105.000004005432,4|0,0:0|0:0,0:0:0:0:
112,360,55905,1,0,0:0:0:0:
184,316,56078,2,0,L|240:300,1,52.5000020027161,8|0,0:0|0:0,0:0:0:0:
316,280,56422,1,0,0:0:0:0:
404,352,56595,2,0,P|400:312|368:280,1,52.5000020027161,8|0,0:0|0:0,0:0:0:0:
316,280,56940,1,0,0:0:0:0:
348,204,57112,1,0,0:0:0:0:
276,164,57283,2,0,L|236:124,1,52.5000020027161
168,80,57629,1,0,0:0:0:0:
112,144,57802,1,0,0:0:0:0:
184,188,57974,1,0,0:0:0:0:
120,240,58146,6,0,P|144:260|200:268,2,52.5000020027161
184,188,58664,1,0,0:0:0:0:
260,224,58836,2,0,P|300:256|320:344,1,105.000004005432,8|0,0:0|0:0,0:0:0:0:
380,364,59353,1,8,0:0:0:0:
424,292,59526,2,0,L|452:236,1,52.5000020027161
420,164,59871,2,0,L|400:104,1,52.5000020027161
332,72,60215,2,0,B|280:72|280:72|220:104,1,105.000004005432,8|0,0:0|0:0,0:0:0:0:
232,180,60733,1,0,0:0:0:0:
152,156,60905,6,0,L|48:100,1,105.000004005432
32,184,61422,1,0,0:0:0:0:
92,244,61594,2,0,P|140:272|176:280,1,52.5000020027161,10|0,0:0|0:0,0:0:0:0:
220,296,61940,1,0,0:0:0:0:
287,347,62112,2,0,P|299:323|299:279,1,52.5000020027161,8|0,0:0|0:0,0:0:0:0:
268,220,62456,1,0,0:0:0:0:
220,296,62628,1,0,0:0:0:0:
303,298,62802,1,0,0:0:0:0:
348,228,62974,6,0,P|324:160|260:144,1,105.000004005432,8|0,0:0|0:0,0:0:0:0:
216,132,63491,2,0,L|140:156,1,52.5000020027161
84,128,63836,1,0,0:0:0:0:
12,88,64009,2,0,P|4:152|16:176,1,52.5000020027161
20,220,64352,1,8,0:0:0:0:
120,252,64526,2,0,P|109:214|60:188,1,52.5000020027161
20,220,64870,2,0,P|21:271|53:311,1,105.000004005432,8|0,0:0|0:0,0:0:0:0:
136,336,65387,1,0,0:0:0:0:
200,280,65560,1,0,0:0:0:0:
284,292,65733,2,0,B|304:276|304:276|368:264,1,52.5000020027161,8|0,0:0|0:0,0:0:0:0:
412,284,66077,2,0,L|440:212,1,52.5000020027161
400,160,66421,5,2,0:0:0:0:
444,88,66594,1,0,0:0:0:0:
364,68,66766,2,0,L|276:44,1,52.5000020027161
232,80,67112,2,0,P|244:152|204:208,1,105.000004005432,8|0,0:0|0:0,0:0:0:0:
176,244,67629,2,0,L|136:288,2,52.5000020027161
260,260,68146,1,0,0:0:0:0:
232,179,68318,1,0,0:0:0:0:
316,192,68491,2,0,B|364:172|364:172|444:172,1,105.000004005432,8|0,0:0|0:0,0:0:0:0:
496,140,69009,1,0,0:0:0:0:
428,92,69181,6,0,L|296:92,1,105.000004005432
236,92,69698,1,0,0:0:0:0:
156,116,69871,2,0,P|152:80|164:44,1,52.5000020027161,8|0,0:0|0:0,0:0:0:0:
236,92,70215,1,0,0:0:0:0:
256,172,70388,2,0,P|260:208|248:244,1,52.5000020027161,8|0,0:0|0:0,0:0:0:0:
212,296,70733,1,0,0:0:0:0:
144,248,70905,1,0,0:0:0:0:
108,324,71078,1,0,0:0:0:0:
180,368,71250,2,0,P|264:356|288:320,1,105.000004005432,8|0,0:0|0:0,0:0:0:0:
320,272,71767,1,0,0:0:0:0:
400,304,71940,6,0,L|424:240,1,52.5000020027161,2|0,0:0|0:0,0:0:0:0:
376,152,72284,2,0,L|352:216,1,52.5000020027161
272,208,72629,2,0,P|196:208|156:176,1,105.000004005432,8|0,0:0|0:0,0:0:0:0:
136,116,73146,1,8,0:0:0:0:
92,188,73319,2,0,B|60:252|60:252|56:312,1,105.000004005432
112,348,73836,1,0,0:0:0:0:
188,312,74009,2,0,L|248:276,1,52.5000020027161,8|0,0:0|0:0,0:0:0:0:
312,312,74353,1,0,0:0:0:0:
292,228,74526,1,0,0:0:0:0:
372,252,74698,6,0,P|428:248|464:268,2,52.5000020027161,2|0|0,0:0|0:0|0:0,0:0:0:0:
312,312,75215,1,0,0:0:0:0:
292,228,75388,2,0,P|268:156|296:92,1,105.000004005432,8|0,0:0|0:0,0:0:0:0:
420,48,76078,1,0,0:0:0:0:
392,128,76250,1,0,0:0:0:0:
468,168,76422,2,0,L|420:224,1,52.5000020027161
468,284,76767,2,0,L|420:340,1,52.5000020027161
356,360,77112,2,0,P|296:360|284:356,1,52.5000020027161
264,252,77457,6,0,P|221:212|163:205,1,119.000002269745,4|0,0:0|0:0,0:0:0:0:
112,284,77974,1,0,0:0:0:0:
24,244,78146,2,0,B|12:216|12:216|12:88,1,119.000002269745,10|0,0:0|0:0,0:0:0:0:
88,68,78664,1,0,0:0:0:0:
168,116,78836,2,0,L|224:144,1,59.5000011348725
308,100,79181,2,0,L|252:72,1,59.5000011348725
332,20,79526,2,0,B|372:44|372:44|408:72|380:140,1,119.000002269745,10|0,0:0|0:0,0:0:0:0:
392,204,80043,1,0,0:0:0:0:
428,292,80215,6,0,P|344:288|312:252,1,119.000002269745
260,192,80733,1,0,0:0:0:0:
196,264,80905,2,0,P|148:292|68:264,1,119.000002269745,10|0,0:0|0:0,0:0:0:0:
36,200,81422,1,0,0:0:0:0:
132,204,81595,2,0,L|136:140,1,59.5000011348725
216,92,81940,2,0,P|284:96|300:92,1,59.5000011348725
352,40,82284,2,0,P|372:100|340:168,1,119.000002269745,10|0,0:0|0:0,0:0:0:0:
312,236,82802,1,0,0:0:0:0:
216,176,82974,6,0,B|160:196|160:196|108:192|108:192|44:216,1,178.500003404617,4|0,0:0|0:0,0:0:0:0:
44,312,83664,2,0,P|112:340|200:320,1,119.000002269745,10|0,0:0|0:0,0:0:0:0:
244,300,84181,1,0,0:0:0:0:
328,340,84353,2,0,P|387:340|440:365,1,119.000002269745
500,288,84871,1,0,0:0:0:0:
424,232,85043,2,0,B|396:204|396:204|396:96,1,119.000002269745,10|0,0:0|0:0,0:0:0:0:
348,44,85560,1,0,0:0:0:0:
292,124,85733,5,0,0:0:0:0:
240,44,85905,1,0,0:0:0:0:
188,124,86078,2,0,L|148:184,1,59.5000011348725
76,228,86422,2,0,P|140:228|196:304,1,119.000002269745,10|0,0:0|0:0,0:0:0:0:
104,320,86940,1,0,0:0:0:0:
188,364,87112,2,0,B|248:376|248:376|336:352,1,119.000002269745
380,304,87629,1,0,0:0:0:0:
308,244,87802,2,0,L|296:180,1,59.5000011348725,10|0,0:0|0:0,0:0:0:0:
360,84,88146,1,8,0:0:0:0:
254,43,88319,1,8,0:0:0:0:
200,148,88491,6,0,P|128:172|48:100,1,178.500003404617,4|0,0:0|0:0,0:0:0:0:
140,80,89181,2,0,P|212:56|288:104,1,119.000002269745,10|0,0:0|0:0,0:0:0:0:
348,76,89698,1,0,0:0:0:0:
428,24,89871,2,0,L|464:104,1,59.5000011348725
468,172,90215,2,0,L|436:228,1,59.5000011348725
348,256,90560,2,0,P|288:272|304:352,1,119.000002269745,10|0,0:0|0:0,0:0:0:0:
360,376,91078,1,0,0:0:0:0:
279,322,91250,6,0,L|135:322,1,119.000002269745
76,272,91767,1,0,0:0:0:0:
112,184,91940,2,0,P|44:184|24:204,1,59.5000011348725,10|0,0:0|0:0,0:0:0:0:
176,232,92284,2,0,P|244:232|264:212,1,59.5000011348725
312,184,92629,2,0,B|320:140|320:140|308:112|308:112|320:40,1,119.000002269745
404,32,93146,1,0,0:0:0:0:
452,116,93318,2,0,P|448:192|436:212,1,59.5000011348725,10|0,0:0|0:0,0:0:0:0:
380,236,93664,1,0,0:0:0:0:
456,292,93836,1,0,0:0:0:0:
344,336,94009,6,0,B|288:328|288:328|144:352,1,178.500003404617,4|0,0:0|0:0,0:0:0:0:
164,252,94698,2,0,P|172:184|152:136,1,119.000002269745,10|0,0:0|0:0,0:0:0:0:
68,96,95215,1,0,0:0:0:0:
156,56,95388,2,0,L|316:32,1,119.000002269745
368,44,95905,1,0,0:0:0:0:
324,128,96078,2,0,B|324:160|324:160|336:224,1,59.5000011348725,10|0,0:0|0:0,0:0:0:0:
412,236,96422,2,0,B|412:268|412:268|400:332,1,59.5000011348725
320,336,96767,6,0,P|264:348|176:320,1,119.000002269745
124,280,97284,1,0,0:0:0:0:
196,220,97457,2,0,B|220:188|220:188|220:56,1,119.000002269745,10|0,0:0|0:0,0:0:0:0:
288,40,97974,1,0,0:0:0:0:
356,104,98146,2,0,L|348:188,1,59.5000011348725
448,144,98490,2,0,L|456:8,1,119.000002269745,0|10,0:0|0:0,0:0:0:0:
336,12,99009,1,8,0:0:0:0:
248,88,99181,1,8,0:0:0:0:
156,12,99353,1,8,0:0:0:0:
168,132,99526,6,0,P|160:200|52:236,1,178.500003404617,4|0,0:0|0:0,0:0:0:0:
80,148,100215,2,0,L|44:20,1,119.000002269745,10|0,0:0|0:0,0:0:0:0:
140,12,100733,1,0,0:0:0:0:
224,56,100905,2,0,B|292:64|292:64|368:44,1,119.000002269745
440,40,101422,1,0,0:0:0:0:
428,136,101595,2,0,P|428:220|356:260,1,119.000002269745,10|0,0:0|0:0,0:0:0:0:
256,192,102284,12,0,104698,0:0:0:0:
160,288,105043,6,0,L|96:308,1,59.5000011348725,4|0,0:0|0:0,0:0:0:0:
140,208,105388,2,0,L|204:188,1,59.5000011348725
268,124,105733,2,0,P|292:176|284:212,1,59.5000011348725,10|0,0:0|0:0,0:0:0:0:
184,112,106078,2,0,P|160:60|168:24,1,59.5000011348725
252,40,106422,2,0,B|312:28|312:28|384:40,1,119.000002269745
448,92,106940,1,0,0:0:0:0:
404,176,107111,6,0,L|376:312,1,119.000002269745,10|0,0:0|0:0,0:0:0:0:
296,336,107629,1,0,0:0:0:0:
204,308,107802,2,0,L|132:268,1,59.5000011348725
140,184,108146,2,0,L|180:112,1,59.5000011348725
236,64,108491,6,0,P|178:75|124:52,1,119.000002269745,10|0,0:0|0:0,0:0:0:0:
36,20,109009,1,0,0:0:0:0:
12,112,109181,2,0,B|28:144|28:144|28:276,1,119.000002269745
24,324,109697,1,0,0:0:0:0:
112,288,109870,2,0,L|192:324,1,59.5000011348725,10|0,0:0|0:0,0:0:0:0:
280,348,110214,1,8,0:0:0:0:
360,256,110387,1,8,0:0:0:0:
244,232,110560,6,0,P|228:156|252:88,1,119.000002269745,4|0,0:0|0:0,0:0:0:0:
324,80,111078,1,0,0:0:0:0:
392,148,111250,2,0,L|468:184,1,59.5000011348725,10|0,0:0|0:0,0:0:0:0:
464,80,111595,2,0,L|388:44,1,59.5000011348725
328,80,111940,2,0,P|284:44|184:52,1,119.000002269745
136,76,112457,1,0,0:0:0:0:
180,160,112629,2,0,B|192:196|192:196|192:304,1,119.000002269745,10|0,0:0|0:0,0:0:0:0:
248,356,113146,1,0,0:0:0:0:
320,292,113319,6,0,P|372:244|480:272,1,178.500003404617
480,168,114009,2,0,P|416:136|396:48,1,119.000002269745,10|0,0:0|0:0,0:0:0:0:
460,28,114526,1,0,0:0:0:0:
395,95,114698,2,0,B|339:111|339:111|228:111,1,119.000002269745
204,48,115215,1,0,0:0:0:0:
136,116,115388,1,10,0:0:0:0:
64,52,115560,1,0,0:0:0:0:
28,140,115733,2,0,L|20:228,1,59.5000011348725,8|8,0:0|0:0,0:0:0:0:
80,304,116078,6,0,P|148:328|220:312,1,119.000002269745,4|0,0:0|0:0,0:0:0:0:
252,248,116595,1,0,0:0:0:0:
328,304,116767,2,0,B|376:272|376:272|456:272,2,119.000002269745,10|0|0,0:0|0:0|0:0,0:0:0:0:
292,116,117802,2,0,L|216:116,1,59.5000011348725
152,64,118146,2,0,P|136:140|184:196,1,119.000002269745,10|0,0:0|0:0,0:0:0:0:
236,224,118664,1,0,0:0:0:0:
172,292,118836,6,0,L|308:320,1,119.000002269745
380,296,119353,1,0,0:0:0:0:
436,220,119526,2,0,P|412:204|368:204,1,59.5000011348725,10|0,0:0|0:0,0:0:0:0:
296,160,119871,2,0,P|316:96|292:36,1,119.000002269745
220,100,120388,1,0,0:0:0:0:
140,48,120560,2,0,L|88:80,1,59.5000011348725
56,168,120905,5,8,0:0:0:0:
148,152,121078,1,8,0:0:0:0:
120,240,121250,1,8,0:0:0:0:
212,224,121422,1,8,0:0:0:0:
148,324,121594,5,4,0:0:0:0:
256,192,121766,12,0,127111,0:0:0:0:
240,216,136767,6,0,L|352:200,1,105.000004005432
436,248,137284,1,0,0:0:0:0:
488,156,137457,1,8,0:0:0:0:
416,80,137629,1,8,0:0:0:0:
312,96,137802,2,0,P|272:100|224:88,1,52.5000020027161,8|8,0:0|0:0,0:0:0:0:
148,60,138146,6,0,P|136:124|188:184,1,119.000002269745,4|0,0:0|0:0,0:0:0:0:
244,216,138664,1,0,0:0:0:0:
192,296,138836,2,0,L|20:284,1,119.000002269745,10|0,0:0|0:0,0:0:0:0:
12,216,139353,1,0,0:0:0:0:
92,164,139526,2,0,B|108:136|108:136|112:68,1,59.5000011348725
196,64,139871,2,0,L|264:44,1,59.5000011348725
344,72,140215,2,0,P|336:168|384:216,1,119.000002269745,10|0,0:0|0:0,0:0:0:0:
424,128,140733,1,0,0:0:0:0:
428,224,140905,6,0,P|376:272|288:252,1,119.000002269745
244,232,141422,1,0,0:0:0:0:
164,284,141595,2,0,P|220:324|244:324,1,59.5000011348725,10|0,0:0|0:0,0:0:0:0:
244,232,141940,2,0,P|229:206|206:187,1,59.5000011348725
120,148,142284,2,0,L|264:60,1,119.000002269745
296,24,142802,1,0,0:0:0:0:
364,92,142974,2,0,L|465:154,1,119.000002269745,10|0,0:0|0:0,0:0:0:0:
468,248,143491,1,0,0:0:0:0:
352,228,143664,6,0,P|300:256|336:352,1,178.500003404617,4|0,0:0|0:0,0:0:0:0:
428,368,144352,2,0,L|232:368,1,178.500003404617,10|0,0:0|0:0,0:0:0:0:
160,336,145043,2,0,P|132:248|152:212,1,119.000002269745
216,168,145560,1,0,0:0:0:0:
296,228,145733,2,0,L|368:224,1,59.5000011348725,10|0,0:0|0:0,0:0:0:0:
424,156,146078,2,0,P|416:88|400:68,1,59.5000011348725
332,60,146422,6,0,B|272:68|272:68|168:52,1,119.000002269745
124,32,146940,1,0,0:0:0:0:
76,112,147112,2,0,L|56:176,1,59.5000011348725,10|0,0:0|0:0,0:0:0:0:
44,264,147457,1,0,0:0:0:0:
232,232,147802,2,0,B|272:188|272:188|352:152,1,119.000002269745
400,104,148319,1,0,0:0:0:0:
436,192,148490,2,0,L|460:292,1,59.5000011348725,10|0,0:0|0:0,0:0:0:0:
404,360,148836,1,8,0:0:0:0:
324,272,149009,1,8,0:0:0:0:
248,364,149181,6,0,P|164:356|116:268,1,178.500003404617,4|0,0:0|0:0,0:0:0:0:
32,236,149871,2,0,P|124:240|192:148,1,178.500003404617,10|0,0:0|0:0,0:0:0:0:
232,100,150560,2,0,L|364:48,1,119.000002269745
440,48,151078,1,0,0:0:0:0:
440,144,151250,2,0,B|452:184|452:184|452:300,1,119.000002269745,10|0,0:0|0:0,0:0:0:0:
424,352,151767,1,0,0:0:0:0:
344,300,151940,6,0,L|288:272,1,59.5000011348725
292,180,152284,2,0,L|345:153,1,59.5000011348725
292,72,152629,2,0,L|148:152,1,119.000002269745,10|0,0:0|0:0,0:0:0:0:
92,124,153146,1,0,0:0:0:0:
92,124,153232,1,0,0:0:0:0:
92,124,153318,1,0,0:0:0:0:
140,208,153491,1,0,0:0:0:0:
96,292,153664,1,0,0:0:0:0:
176,340,153836,1,0,0:0:0:0:
244,276,154008,2,0,L|284:320,2,59.5000011348725,2|0|0,0:0|0:0|0:0,0:0:0:0:
332,236,154526,1,0,0:0:0:0:
440,284,154698,6,0,B|460:224|460:224|460:88,1,178.500003404617,4|0,0:0|0:0,0:0:0:0:
376,60,155388,2,0,P|308:88|168:40,1,178.500003404617
116,96,156078,2,0,B|88:156|88:156|104:208|104:208|72:292,2,178.500003404617,10|8|0,0:0|0:0|0:0,0:0:0:0:
180,164,157284,1,0,0:0:0:0:
272,136,157457,6,0,P|276:200|196:256,1,119.000002269745
168,300,157974,1,0,0:0:0:0:
244,356,158146,2,0,L|372:348,1,119.000002269745
440,288,158664,1,0,0:0:0:0:
388,208,158836,2,0,L|356:128,1,59.5000011348725,10|0,0:0|0:0,0:0:0:0:
380,60,159180,2,0,P|316:72|292:108,1,59.5000011348725,0|8,0:0|0:0,0:0:0:0:
264,144,159526,2,0,B|212:160|212:160|104:148,1,119.000002269745
76,88,160043,1,0,0:0:0:0:
52,204,160215,6,0,P|64:272|-4:368,1,178.500003404617,4|0,0:0|0:0,0:0:0:0:
100,380,160905,2,0,L|276:340,1,178.500003404617
360,380,161595,2,0,P|340:272|248:252,2,178.500003404617,10|8|0,0:0|0:0|0:0,0:0:0:0:
274,340,162802,1,0,0:0:0:0:
200,280,162974,6,0,P|168:292|143:293,1,59.5000011348725
156,200,163319,2,0,L|188:128,1,59.5000011348725
224,60,163664,2,0,P|296:48|344:84,1,119.000002269745
384,152,164181,1,0,0:0:0:0:
272,184,164353,6,0,B|212:200|212:200|152:188,1,119.000002269745,10|0,0:0|0:0,0:0:0:0:
120,100,164871,1,8,0:0:0:0:
48,160,165043,2,0,L|52:236,1,59.5000011348725
72,312,165388,2,0,P|136:312|176:296,1,59.5000011348725
252,296,165732,6,0,P|324:264|396:316,1,157.500006008148,4|0,0:0|0:0,0:0:0:0:
292,156,167111,2,0,P|220:188|148:136,1,157.500006008148,2|0,0:0|0:0,0:0:0:0:
80,56,168490,1,2,0:0:0:0:
