osu file format v5

[General]
AudioFilename: Ashens - Silly Monkey.mp3
AudioLeadIn: 0
PreviewTime: 53170
Countdown: 0
SampleSet: Normal
StackLeniency: 1
Mode: 0
LetterboxInBreaks: 1
EditorBookmarks: 53310,60971,68627,76265,83930,91348,99010

[Metadata]
Title:Silly Monkey
Artist:Ashens
Creator:Gens
Version:Skateboard
Source:Ashens.com
Tags:

[Difficulty]
HPDrainRate:6
CircleSize:5
OverallDifficulty:7
SliderMultiplier:1.9
SliderTickRate:4

[Events]
//Background and Video events
1,130,"sillymonkey.avi"
0,0,"sillybg.PNG"
//Break Periods
//Storyboard Layer 0 (Background)
//Storyboard Layer 1 (Failing)
//Storyboard Layer 2 (Passing)
//Storyboard Layer 3 (Foreground)
//Storyboard Sound Samples
//Background Colour Transformations
3,100,89,255,85

[TimingPoints]
53697,480,4,1,0,65,1,0
87956,-100,4,1,0,40,0,0
88197,-100,4,1,0,65,0,0
91797,-100,4,1,0,40,0,0
92037,-100,4,1,0,65,0,0
95637,-100,4,1,0,40,0,0
95877,-100,4,1,0,65,0,0
99177,-100,4,1,0,40,0,0
99717,-100,4,1,0,65,0,0

[Colours]
Combo1 : 45,255,15
Combo2 : 0,18,242
Combo3 : 250,255,28
Combo4 : 255,13,13

[HitObjects]
216,232,53697,2,0,L|256:200|304:240,1,95,8|0
336,176,54177,2,0,L|256:112|224:136,1,95
261,116,54537,2,0,L|173:188,2,95,8|0|0
261,116,55137,1,2
152,48,55617,2,0,L|112:80|152:112,1,95,8|0
144,168,56097,2,0,L|184:200|144:232,1,95
149,227,56457,1,8
256,192,56817,1,4
256,192,57057,1,2
256,320,57537,6,0,L|352:280,1,95,8|0
408,240,58017,2,0,L|312:200,1,95
320,203,58377,1,8
320,136,58617,1,0
320,72,58857,1,0
320,72,58977,2,0,L|224:32,1,95,2|0
200,96,59457,1,8
256,128,59697,1,4
256,128,59817,1,0
256,128,59937,2,0,B|232:184|264:208|256:248,2,142.5,2|4|0
256,64,60897,1,4
88,136,61377,5,8
128,192,61617,1,0
176,240,61857,2,0,B|272:240,1,95,0|0
271,240,62217,2,0,B|344:168,2,95,8|0|0
271,240,62817,1,2
288,360,63297,1,8
224,360,63537,1,0
160,360,63777,2,0,B|160:296|232:296,1,95
216,296,64137,2,0,B|336:296,2,95,8|0|0
216,296,64737,1,2
104,296,65217,6,0,L|56:296|56:248,1,95,8|0
56,184,65697,2,0,L|56:136|104:136,1,95
103,136,66057,2,0,L|208:136,1,95,8|0
264,136,66537,1,0
264,136,66657,1,2
392,136,67137,2,0,L|392:184|328:184,1,95,4|8
345,184,67497,1,0
345,184,67617,2,0,B|304:224|256:192,1,95,2|0
258,193,67977,2,0,B|217:233|169:201,2,95,4|0|0
258,193,68577,1,4
232,48,69057,6,0,B|296:48,4,47.5,2|0|0|0|0
232,112,69777,1,8
296,112,70017,2,0,B|296:184,3,47.5,2|0|0|4
416,112,70857,1,0
416,112,70977,2,0,B|344:184,1,95,2|0
348,179,71337,2,0,B|416:248,1,95,12|0
414,246,71697,1,0
288,248,72177,1,2
288,248,72417,1,4
256,336,72897,6,0,B|320:336,6,47.5,2|0|0|0|0|0|0
256,336,73737,1,8
256,336,73857,2,0,B|184:336,3,47.5,2|0|0|4
88,320,74817,2,0,B|120:272|64:272|96:224,1,95,2|0
91,230,75177,2,0,B|123:182|67:182|99:134,1,95,12|0
94,140,75537,1,0
208,144,76017,1,2
208,144,76257,1,4
328,192,76737,5,8
328,128,76977,1,0
328,192,77217,2,0,B|392:192|392:112,1,95,2|0
390,134,77577,2,0,B|390:64|320:64,2,95,8|0|0
390,134,78177,1,2
256,136,78657,2,0,B|256:72|192:72,1,95,8|0
192,136,79137,2,0,B|192:200|128:200,1,95,2|0
136,199,79497,1,8
256,192,79857,1,2
256,192,80097,1,4
216,288,80577,6,0,L|256:320|304:280,3,95,8|0|2|0
289,291,81417,2,0,L|321:251|281:203,2,95,8|0|0
289,291,82017,1,2
416,296,82497,1,4
416,232,82737,2,2,L|416:176,1,47.5,2|8
416,184,82977,2,2,L|376:144|408:112|376:80,2,142.5
416,184,83937,1,4
288,184,84417,5,0
288,184,84537,1,8
304,88,84777,2,0,B|256:64|208:88,1,95,0|8
152,144,85257,2,0,B|196:166|244:142,2,95,0|0|8
152,143,85857,2,0,B|131:187|155:235,1,95,0|8
154,234,86217,1,6
154,234,86337,2,0,B|232:234|232:152,1,95,0|8
227,186,86697,2,0,B|264:136|312:184,1,95,0|8
368,184,87177,1,4
448,152,87537,1,2
448,152,87777,1,4
448,88,88017,5,0
448,88,88137,1,0
448,88,88257,2,0,L|400:80,1,47.5,0|8
336,80,88617,2,0,L|288:88|240:80,1,95,0|8
176,88,89097,2,0,L|128:80|72:88,2,95,0|0|8
176,88,89697,2,0,L|176:192,1,95,0|8
176,183,90057,2,0,L|176:232,1,47.5,2|4
240,232,90417,2,0,L|240:184,1,47.5,0|8
304,184,90777,2,2,L|352:176|400:184,1,95,2|4
448,296,91857,5,0
448,296,91977,1,0
448,296,92097,1,0
448,296,92217,2,0,B|416:320|384:312|384:312|352:288,2,95,0|8|0
448,232,92937,2,0,B|416:208|384:216|384:216|352:240,2,95,8|0|0
448,232,93537,2,0,B|488:192|472:184|472:184|440:128,1,95,8|0
453,151,93897,1,6
453,151,94017,2,0,B|493:111|477:103|477:103|445:47,1,95,10|2
458,70,94377,2,0,B|416:32|404:40|404:40|368:64,1,95,10|4
312,64,94857,1,4
64,88,95697,5,0
64,88,95817,1,0
64,88,95937,1,0
64,88,96057,2,0,B|64:192,2,95,0|8|0
128,88,96777,2,0,B|128:184,2,95,8|0|0
128,88,97377,2,0,B|240:88,1,95,8|0
223,88,97737,1,6
223,88,97857,2,0,B|223:187,1,95,10|2
223,183,98217,2,0,B|223:280,1,95,2|4
224,344,98697,1,4
256,192,99297,5,0
256,192,99417,1,0
256,192,99537,1,0
256,192,99657,1,0
256,192,99777,2,0,B|256:136,3,47.5,6|0|0|0
256,144,100257,2,0,B|256:88,3,47.5,6|0|0|0
256,96,100737,2,0,B|256:48,3,47.5,8|0|0|2
296,0,101337,1,0
368,48,101697,6,0,B|368:104,3,47.5,4|0|0|0
368,96,102177,2,0,B|368:152,3,47.5,4|0|0|0
368,144,102657,2,0,B|368:192,3,47.5,8|0|0|2
328,240,103257,1,0
256,192,103617,6,0,B|256:240,3,47.5,6|0|0|0
256,239,104097,2,0,B|216:280,1,47.5,8|0
222,272,104337,2,0,B|176:320,1,47.5,8|0
189,306,104577,6,0,B|190:250,3,47.5,6|0|0|0
189,306,105057,2,0,B|144:264,1,47.5,8|8
154,273,105297,1,4
256,192,105537,12,4,106857
