osu file format v5

[General]
AudioFilename: Ashens - Silly Monkey.mp3
AudioLeadIn: 0
PreviewTime: 53164
Countdown: 0
SampleSet: Normal
StackLeniency: 1
Mode: 0
LetterboxInBreaks: 1
EditorBookmarks: 53310,60971,68627,76265,83930,91348,99010

[Metadata]
Title:Silly Monkey
Artist:Ashens
Creator:Gens
Version:Sausage
Source:Ashens.com
Tags:

[Difficulty]
HPDrainRate:6
CircleSize:4
OverallDifficulty:6
SliderMultiplier:1.7
SliderTickRate:4

[Events]
//Background and Video events
1,130,"sillymonkey.avi"
0,0,"sillybg.PNG"
//Break Periods
//Storyboard Layer 0 (Background)
//Storyboard Layer 1 (Failing)
//Storyboard Layer 2 (Passing)
//Storyboard Layer 3 (Foreground)
//Storyboard Sound Samples
//Background Colour Transformations
3,100,133,255,130

[TimingPoints]
53697,479.999999999999,4,1,0,65,1,0

[Colours]
Combo1 : 45,255,15
Combo2 : 0,18,242
Combo3 : 250,255,28
Combo4 : 255,13,13

[HitObjects]
472,192,53697,6,0,B|384:200,1,85,8|0
288,192,54177,2,0,B|176:184,1,85
203,185,54537,2,0,B|112:96|16:200,1,212.5,12|8
160,328,55617,1,4
160,328,55857,1,0
256,328,56097,2,8,B|336:328|336:240,1,127.5
256,136,57057,1,4
120,128,57537,6,0,B|136:88|168:56,1,85,8|0
256,8,58017,1,2
256,8,58257,1,0
256,8,58377,2,0,B|368:64|336:216,1,212.5,12|8
336,312,59457,2,0,B|336:376|264:376,1,85,6|0
289,373,59817,1,0
289,373,59937,2,0,B|208:376|208:296,1,127.5,12|8
256,56,60897,1,4
256,240,61377,6,0,B|328:168,1,85,8|0
256,240,61857,2,0,B|184:176,1,85
192,183,62217,2,0,B|256:72|322:189,1,170,12|0
316,179,62817,1,8
480,192,63297,1,4
480,192,63537,1,0
480,192,63777,2,0,B|384:192,1,85,8|0
395,192,64137,1,8
256,304,64737,1,4
112,304,65217,6,0,B|56:304|56:240,1,85,8|0
56,165,65697,2,0,B|56:69,1,85,4|0
56,80,66057,2,0,B|168:21|272:85,1,212.5,12|8
256,192,67137,12,4,68577
480,95,69057,5,2
480,192,69297,1,0
480,288,69537,1,0
376,288,69777,1,8
376,192,70017,2,2,B|230:192,1,127.5,2|4
256,48,70977,2,0,B|304:64|336:96,1,85,0|8
329,89,71337,2,2,B|272:112|256:160,1,85
264,141,71697,1,4
120,16,72417,1,4
32,95,72897,5,2
32,192,73137,1,0
32,288,73377,1,0
136,288,73617,1,8
136,192,73857,2,2,B|282:192,1,127.5,2|4
256,368,74817,1,6
328,280,75177,1,0
392,192,75537,1,12
256,48,76257,1,4
256,48,76737,6,0,B|160:48,1,85,8|0
256,48,77217,2,0,B|344:48,1,85
341,48,77577,2,0,B|344:152|160:152,1,212.5,12|8
256,264,78657,1,2
256,264,78897,1,4
160,264,79137,2,8,B|80:264|80:168,1,127.5
280,192,80097,1,4
416,192,80577,6,0,B|416:248|480:248,1,85,8|0
416,192,81057,2,0,B|416:136|352:136,1,85,0|0
364,136,81417,2,8,B|296:72|248:232|144:104,1,212.5,12|8
256,192,82497,12,0,83937
304,80,84417,5,0
304,80,84537,1,8
208,80,84777,2,0,B|168:48|120:88,1,85,4|8
208,80,85257,2,0,B|208:184,2,85,0|0|8
208,80,85857,2,0,B|248:48|296:88,1,85,0|8
384,80,86337,2,2,B|376:168|280:168,1,127.5,6|2
256,296,87177,1,4
144,200,87777,1,8
32,296,88257,5,0
32,296,88377,1,8
32,200,88617,2,0,B|64:168|0:160|40:112,1,85,0|8
120,128,89097,2,0,B|80:136|136:184|112:216,2,85,4|0|8
120,128,89697,1,0
216,128,89937,2,2,B|216:80,2,42.5,2|2|4
216,224,90417,1,8
216,224,90537,1,8
216,320,90777,2,2,B|320:320,1,85,2|4
472,192,92097,5,0
472,192,92217,1,8
472,96,92457,2,0,B|376:96,1,85,4|8
384,192,92937,2,0,B|384:304,2,85,0|0|8
384,192,93537,2,0,B|256:192,1,85,0|8
299,192,93897,1,0
299,192,94017,2,2,B|176:96|144:296|0:168,1,297.5,2|4
112,64,95937,5,0
112,64,96057,1,8
208,64,96297,2,0,B|304:64,1,85,0|8
392,64,96777,2,0,B|435:16|483:80,2,85,0|0|8
392,64,97377,2,0,B|352:104|432:112|376:168,1,85,0|8
394,141,97737,1,4
394,141,97857,2,2,B|176:112|184:280,1,297.5,2|4
136,80,99777,5,4
376,80,100257,1,0
256,296,100737,2,8,B|256:136,2,127.5
184,296,101697,5,4
376,304,102177,1,0
256,88,102657,2,8,B|256:248,2,127.5
328,120,103617,5,4
184,192,104097,1,8
328,264,104577,5,6
256,299,104817,1,0
184,328,105057,1,8
184,328,105177,1,8
184,328,105297,1,8
256,192,105537,12,4,106857
