osu file format v5

[General]
AudioFilename: Ashens - Silly Monkey.mp3
AudioLeadIn: 0
PreviewTime: 53170
Countdown: 0
SampleSet: Normal
StackLeniency: 1
Mode: 0
LetterboxInBreaks: 1
EditorBookmarks: 53310,60971,68627,76265,83930,91348,99010

[Metadata]
Title:Silly Monkey
Artist:Ashens
Creator:Gens
Version:Brain Damage
Source:Ashens.com
Tags:

[Difficulty]
HPDrainRate:6
CircleSize:5
OverallDifficulty:8
SliderMultiplier:2.2
SliderTickRate:4

[Events]
//Background and Video events
1,130,"sillymonkey.avi"
0,0,"sillybg.PNG"
//Break Periods
//Storyboard Layer 0 (Background)
//Storyboard Layer 1 (Failing)
//Storyboard Layer 2 (Passing)
//Storyboard Layer 3 (Foreground)
//Storyboard Sound Samples
//Background Colour Transformations
3,100,89,255,85

[TimingPoints]
53697,480,4,1,0,65,1,0
87270,-100,4,1,0,20,0,0
87956,-100,4,1,0,40,0,0
88197,-100,4,1,0,65,0,0
91110,-100,4,1,0,20,0,0
91557,-100,4,1,0,40,0,0
92037,-100,4,1,0,65,0,0
94317,-50,4,1,0,65,0,0
94784,-100,4,1,0,65,0,0
94950,-100,4,1,0,20,0,0
95397,-100,4,1,0,40,0,0
95877,-100,4,1,0,65,0,0

[Colours]
Combo1 : 45,255,15
Combo2 : 0,18,242
Combo3 : 250,255,28
Combo4 : 255,13,13

[HitObjects]
0,0,53697,6,0,B|88:88,1,110,8|0
184,152,54177,1,0
328,152,54417,1,0
328,152,54537,1,8
256,32,54777,2,0,B|256:168,1,110
256,208,55137,1,2
256,352,55377,1,0
360,240,55617,1,8
360,240,55857,2,0,B|256:280|240:288,2,110,0|0|0
432,240,56457,2,0,B|496:184|400:120,1,110,8|0
288,144,56937,1,0
288,144,57057,1,2
288,144,57297,1,4
512,0,57537,6,0,B|416:72,1,110,8|0
312,152,58017,1,0
216,264,58257,1,0
216,264,58377,2,0,B|104:264,2,110,8|4|0
216,192,58977,1,2
104,104,59217,1,0
256,40,59457,2,2,L|232:56|280:88|224:136,1,110,4|2
256,168,59817,1,8
256,240,59937,2,2,L|256:296|336:296,1,110,4|2
376,296,60297,2,8,B|448:248|360:208,1,110,4|0
376,104,60777,1,8
376,104,60897,1,8
376,104,61137,1,4
512,376,61377,6,0,B|408:272,1,110,8|0
344,216,61857,2,0,L|344:168|312:184|312:152,1,110
312,96,62217,1,8
208,96,62457,2,0,B|136:96|136:168,1,110
136,232,62817,2,0,B|136:304|56:304,1,110,2|0
256,304,63297,2,0,B|184:336|208:368|304:368,1,110,8|0
256,364,63777,2,0,B|328:332|304:300|208:300,1,110
256,240,64137,2,0,B|256:120,2,110,8|0|0
256,240,64737,2,0,B|280:168|344:144,1,110,2|4
0,376,65217,6,0,B|88:288,1,110,8|0
168,208,65697,2,0,B|256:120,1,110
245,130,66057,1,8
323,52,66297,2,0,B|245:130,1,110
245,130,66657,2,8,B|245:14,1,110,2|8
448,80,67137,2,2,L|432:104|464:120|424:160,1,110,4|2
368,152,67497,1,0
368,152,67617,2,2,B|376:216|304:248,1,110,4|2
256,240,67977,2,8,B|256:120,2,110,4|8|8
256,240,68577,2,0,B|232:168|168:144,1,110,4|0
32,32,69057,5,2
32,96,69177,1,0
32,160,69297,1,4
32,224,69417,1,0
32,288,69537,2,0,B|32:360,1,55
96,352,69777,2,8,B|200:352,1,55,8|0
216,352,70017,2,0,B|272:352,2,55,2|0|0
216,352,70377,1,4
256,32,70857,1,0
256,32,70977,2,2,B|160:128,1,110,2|0
256,120,71337,2,8,B|336:200,1,110
256,208,71697,1,4
256,344,72177,1,2
256,344,72297,1,0
256,344,72417,1,4
368,232,72657,1,8
480,32,72897,5,2
432,72,73017,1,0
480,112,73137,1,4
432,152,73257,1,0
480,192,73377,2,0,B|424:248,1,55
488,272,73617,2,0,B|416:344,1,55,8|0
384,312,73857,2,0,B|328:312,2,55,2|0|0
384,312,74217,1,4
32,312,74697,1,0
32,312,74817,2,2,B|152:312,1,110,2|0
144,248,75177,2,8,B|120:192|168:184|136:112,1,110
144,72,75537,1,4
336,40,76017,1,2
296,88,76137,1,0
256,136,76257,2,0,B|256:272,1,110,4|0
256,376,76737,6,0,B|192:376|192:296,1,110,8|0
192,176,77217,2,0,B|191:100|119:103,1,110
128,168,77577,2,0,B|128:304,2,110,8|0|0
128,168,78177,2,0,B|0:168,1,110,2|0
18,168,78657,2,0,B|16:80|120:80,1,110,8|0
200,88,79137,2,0,B|336:88,1,110
376,88,79497,2,0,B|408:128|336:168|408:216,2,110,8|0|0
310,88,80097,2,2,B|200:88,1,110,2|4
256,328,80577,6,0,B|200:328|200:256|272:272,1,110,8|0
254,269,81057,2,0,B|310:269|310:197|238:213,1,110
256,152,81417,1,8
256,24,81657,2,0,B|200:-8|112:40,1,110
256,24,82017,2,0,B|312:-8|400:40,1,110,2|4
432,144,82497,2,2,B|432:248|312:248,2,165,4|2|2
432,144,83337,2,2,B|280:144,1,110,4|2
192,144,83817,1,8
192,144,83937,1,8
192,144,84177,1,4
64,216,84417,5,0
64,216,84537,1,8
192,216,84777,2,0,B|192:336,1,110,0|8
256,216,85257,2,0,B|256:96,2,110,0|0|8
256,216,85857,2,0,B|256:352,1,110
320,328,86217,1,6
320,264,86337,2,2,B|384:216|304:160,1,110,0|2
321,173,86697,2,8,B|385:125|305:69,1,110,2|2
256,0,87177,2,0,B|256:32,10,27.5,4|0|0|0|0|0|0|0|0|0|0
128,0,88017,5,0
128,64,88137,1,0
128,128,88257,1,4
128,128,88377,1,8
256,128,88617,2,0,L|304:168|256:168,1,110,0|8
256,128,89097,2,0,L|208:96|152:136,2,110,0|0|8
256,64,89697,2,0,L|384:64,1,110,0|8
424,96,90057,1,6
368,128,90177,2,2,L|368:256,1,110,0|2
368,304,90537,1,2
256,304,90777,1,2
256,192,91017,2,0,L|256:144,10,27.5,4|0|0|0|0|0|0|0|0|0|0
192,192,91737,5,0
128,192,91857,1,0
128,128,91977,1,0
192,128,92097,1,4
160,72,92217,2,0,L|296:72,1,110,8|0
440,72,92697,2,0,L|320:72,1,110,8|4
160,72,93177,2,0,L|296:72,1,110,0|8
270,72,93537,2,0,L|296:96|256:112|280:144,1,110,0|8
280,200,93897,1,6
320,256,94017,2,2,B|264:288|208:240|208:200,1,110,0|2
184,192,94377,2,8,L|168:184|152:200|160:184|144:200|152:184|136:200|144:184|128:200|136:184|120:200|128:184|112:200|120:184,1,220
256,120,94857,2,0,L|256:80,5,27.5,4|0|0|0|0|0
440,80,95457,5,0
440,144,95577,1,0
440,208,95697,1,0
440,272,95817,1,0
400,327,95937,2,0,L|336:263,1,55,4|8
400,56,96297,2,0,L|312:144,1,110,0|8
320,240,96777,2,0,L|232:152,2,110,0|0|8
320,176,97377,2,0,L|240:256,1,110,0|8
176,256,97737,1,6
120,216,97857,2,2,B|120:144|216:144,1,110,0|2
254,146,98217,1,2
256,192,98457,12,4,99297
480,32,99777,5,6
440,80,99897,1,0
400,128,100017,1,0
360,176,100137,1,0
320,128,100257,1,6
280,176,100377,1,0
240,224,100497,1,0
200,272,100617,1,0
160,224,100737,2,8,L|96:160,2,55
160,224,101097,1,2
256,96,101337,1,4
32,32,101697,5,4
72,80,101817,1,0
112,128,101937,1,0
152,176,102057,1,0
192,128,102177,1,4
232,176,102297,1,0
272,224,102417,1,0
312,272,102537,1,0
352,223,102657,2,8,L|416:159,2,55
352,224,103017,1,0
256,96,103257,1,4
160,344,103617,5,6
208,296,103737,1,0
256,248,103857,1,0
304,200,103977,1,0
328,272,104097,1,4
280,224,104217,1,0
232,176,104337,1,0
184,128,104457,1,0
160,200,104577,5,6
208,152,104697,1,8
256,104,104817,1,8
304,56,104937,1,8
272,0,105057,2,0,B|224:0,4,27.5,4|0|0|0|0
256,192,105537,12,4,106857
