osu file format v12

[General]
AudioFilename: Sorrows.mp3
AudioLeadIn: 0
PreviewTime: 106969
Countdown: 0
SampleSet: Normal
StackLeniency: 0.7
Mode: 0
LetterboxInBreaks: 1
WidescreenStoryboard: 0

[Editor]
Bookmarks: 55077,138104,174428
DistanceSpacing: 0.7
BeatDivisor: 4
GridSize: 4

[Metadata]
Title:Sorrows
TitleUnicode:Sorrows
Artist:Asako Yoshihiro
ArtistUnicode:Asako Yoshihiro
Creator:Apricot
Version:Another
Source:
Tags:
BeatmapID:329823
BeatmapSetID:130857

[Difficulty]
HPDrainRate:5
CircleSize:4
OverallDifficulty:8
ApproachRate:9
SliderMultiplier:1.7
SliderTickRate:1

[Events]
//Background and Video events
0,0,"bg.jpg",0,0
//Break Periods
2,76034,90801
//Storyboard Layer 0 (Background)
//Storyboard Layer 1 (Fail)
//Storyboard Layer 2 (Pass)
//Storyboard Layer 3 (Foreground)
//Storyboard Sound Samples
//Background Colour Transformations
3,100,163,162,255

[TimingPoints]
591,324.324324324324,4,1,0,100,1,0
6104,-133.333333333333,4,2,1,20,0,0
7726,-200,4,2,1,20,0,0
8293,-200,4,2,1,5,0,0
8374,-133.333333333333,4,2,1,15,0,0
16158,-133.333333333333,4,2,1,20,0,0
17293,-200,4,2,1,20,0,0
20455,-133.333333333333,4,2,1,20,0,0
25239,-133.333333333333,4,2,1,5,0,0
25726,-200,4,2,1,20,0,0
27023,-133.333333333333,4,2,1,20,0,0
27347,-166.666666666667,4,2,1,20,0,0
27915,-166.666666666667,4,2,1,5,0,0
27996,-166.666666666667,4,2,1,20,0,0
28807,-133.333333333333,4,2,1,20,0,0
35131,-111.111111111111,4,2,1,20,0,0
36185,-142.857142857143,4,2,1,20,0,0
42023,-117.647058823529,4,2,1,20,0,0
44699,-166.666666666667,4,2,1,20,0,0
46482,-200,4,2,1,20,0,0
47293,-166.666666666667,4,2,1,20,0,0
48104,-153.846153846154,4,2,1,20,0,0
55077,-100,4,2,0,60,0,0
75834,-133.333333333333,4,2,1,20,0,0
86212,-200,4,2,1,20,0,0
91401,-133.333333333333,4,2,1,20,0,0
106969,-100,4,2,0,60,0,1
127645,-200,4,2,0,60,0,1
127726,-200,4,2,0,60,0,0
128455,-133.333333333333,4,2,0,60,0,0
159023,-125,4,2,0,60,0,0
174428,-100,4,2,0,60,0,1
195185,-200,4,2,0,60,0,0
195834,-133.333333333333,4,2,0,60,0,0

[Colours]
Combo1 : 255,253,170
Combo2 : 255,170,255
Combo3 : 170,255,255
Combo4 : 185,255,170

[HitObjects]
276,116,6104,1,0,0:0:0:0:
356,104,6428,1,0,0:0:0:0:
436,88,6753,2,0,L|504:76,2,63.7500024318696
436,88,7401,1,0,0:0:0:0:
324,180,7726,6,0,P|324:248|380:308,1,148.75
375,305,8374,6,0,P|316:276|244:284,1,127.500004863739,0|0,0:0|0:0,0:0:0:0:
124,324,9023,1,0,0:0:0:0:
164,228,9347,2,0,P|168:160|136:104,1,127.500004863739
76,60,9834,1,0,0:0:0:0:
192,160,9996,2,0,P|252:180|324:168,1,127.500004863739
420,124,10563,1,0,0:0:0:0:
420,124,10969,6,0,B|440:176|420:228|420:228|440:244,1,127.500004863739
504,288,11618,1,0,0:0:0:0:
408,320,11942,2,0,B|380:332|344:320|344:320|312:308|284:316,1,127.500004863739
204,340,12428,1,0,0:0:0:0:
380,232,12590,6,0,P|384:196|376:164,1,63.7500024318696
308,128,12915,1,0,0:0:0:0:
308,128,13077,2,0,L|244:136,1,63.7500024318696
144,144,13401,1,0,0:0:0:0:
204,80,13563,6,0,P|232:136|212:200,1,127.500004863739
124,264,14212,1,0,0:0:0:0:
200,312,14536,2,0,P|260:324|328:292,1,127.500004863739
380,232,15185,1,0,0:0:0:0:
320,76,15509,2,0,L|256:84,1,63.7500024318696
232,164,15834,2,0,L|168:172,1,63.7500024318696
124,264,16158,5,0,0:0:0:0:
268,348,16482,1,0,0:0:0:0:
104,248,17131,5,0,0:0:0:0:
52,160,17455,2,0,P|88:104|96:24,1,148.75
80,40,18104,2,0,P|112:72|156:80,1,85
232,64,18753,5,0,0:0:0:0:
404,252,19726,1,0,0:0:0:0:
256,332,20374,5,0,0:0:0:0:
356,344,20536,1,0,0:0:0:0:
304,240,20699,2,0,P|268:228|228:232,2,63.7500024318696
304,240,21347,2,0,P|336:184|332:112,1,127.500004863739
292,44,21996,1,0,0:0:0:0:
216,92,22320,2,0,B|164:132|76:164|0:120|96:32|140:104,1,255.000009727478
144,312,23293,5,0,0:0:0:0:
176,164,23455,1,0,0:0:0:0:
176,164,23618,2,0,L|160:236,1,63.7500024318696
144,312,23942,2,0,P|200:340|280:332,1,127.500004863739
348,308,24590,1,0,0:0:0:0:
348,308,24915,2,0,P|412:300|488:328,1,127.500004863739
460,336,25888,6,0,P|420:278|416:192,1,148.75
424,204,26536,2,0,L|340:184,1,85
256,328,27185,1,0,0:0:0:0:
436,188,27509,6,0,L|300:156,1,127.499996109009
340,184,27996,2,0,L|228:160,1,101.999996887207
132,256,28482,1,0,0:0:0:0:
132,256,29131,6,0,P|132:192|96:132,1,127.500004863739
32,84,29780,1,0,0:0:0:0:
108,36,30104,2,0,B|168:36|168:36|176:44|176:44|236:44,1,127.500004863739
312,84,30753,2,0,P|352:168|312:264,2,191.250007295609
240,172,32050,1,0,0:0:0:0:
312,84,32374,1,0,0:0:0:0:
240,172,32699,2,0,P|176:196|112:184,1,127.500004863739
40,120,33347,1,0,0:0:0:0:
40,120,33834,1,0,0:0:0:0:
204,68,34320,5,0,0:0:0:0:
352,192,34645,2,0,P|408:184|484:176,1,127.500004863739
432,296,35293,6,0,B|368:340|284:308|284:308|276:264|240:240|240:240|224:196|240:160,1,305.999990661621
276,84,36104,1,0,0:0:0:0:
408,172,36266,2,0,L|344:196,1,59.4999981842042
276,84,36590,2,0,L|360:52,1,89.2499972763062
384,72,36915,2,0,L|256:120,1,118.999996368408
104,176,37563,1,0,0:0:0:0:
144,264,37888,2,0,B|204:232|200:160|200:160|244:196|312:180,1,237.999992736817
384,72,38861,1,0,0:0:0:0:
384,72,39509,6,0,P|356:128|356:184,1,118.999996368408
392,284,40158,1,0,0:0:0:0:
288,312,40482,2,0,L|224:328,1,59.4999981842042
176,260,40807,2,0,L|112:276,2,59.4999981842042
256,100,41455,1,0,0:0:0:0:
180,132,41780,6,0,P|196:160|224:180,1,59.4999981842042
300,176,42104,2,0,B|348:144|340:80|340:80|344:96|368:104,1,144.500002756119
444,80,42753,1,0,0:0:0:0:
420,180,43077,2,0,P|408:208|376:244,1,72.2500013780594
304,284,43401,2,0,P|268:296|216:292,1,72.2500013780594
148,276,43726,1,0,0:0:0:0:
148,276,44050,2,0,L|132:196,1,72.2500013780594
316,120,44374,2,0,L|332:200,1,72.2500013780594
252,296,44699,6,0,L|208:88,1,203.999993774414
384,40,45672,1,0,0:0:0:0:
384,40,46645,6,0,P|432:88|520:100,1,148.75
492,64,47293,2,0,P|456:124|468:236,1,178.499994552612
372,312,48347,2,0,P|276:288|184:316,1,193.374991147995
112,360,49239,1,0,0:0:0:0:
112,360,49563,1,0,0:0:0:0:
256,192,49888,5,0,0:0:0:0:
256,192,49969,12,0,54428,0:0:0:0:
124,308,54753,5,0,0:0:0:0:
399,206,55077,6,0,L|320:228,1,82.8749962062838,0|0,0:0|0:0,0:0:0:0:
124,308,55401,2,0,L|212:284,1,82.8749962062838
288,308,55726,1,0,0:0:0:0:
200,164,55888,1,0,0:0:0:0:
332,56,56050,1,0,0:3:0:0:
292,136,56212,1,0,0:0:0:0:
68,140,56536,6,0,B|116:128|116:128|144:100,1,85
200,164,56861,1,0,0:0:0:0:
128,212,57023,1,0,0:0:0:0:
176,316,57185,1,0,0:0:0:0:
184,292,57266,1,0,0:0:0:0:
192,268,57347,1,0,0:0:0:0:
92,328,57509,1,0,0:0:0:0:
512,168,57672,6,0,L|480:268,1,85,0|0,0:0|0:0,0:0:0:0:
284,300,57996,2,0,L|309:219,1,85
352,352,58320,1,0,0:0:0:0:
264,112,58482,1,0,0:0:0:0:
288,104,58563,1,0,0:0:0:0:
312,96,58644,1,0,0:0:0:0:
192,64,58807,1,0,0:0:0:0:
192,64,59131,5,0,0:0:0:0:
8,172,59293,1,0,0:0:0:0:
48,96,59455,1,0,0:0:0:0:
104,312,59618,1,0,0:0:0:0:
216,184,59780,1,0,0:0:0:0:
188,192,59861,1,0,0:0:0:0:
160,200,59942,1,0,0:0:0:0:
280,284,60104,1,0,0:0:0:0:
472,68,60266,6,0,P|432:96|388:96,1,85
324,56,60590,1,0,0:0:0:0:
432,288,60753,1,0,0:0:0:0:
296,184,60915,1,0,0:0:0:0:
188,262,61077,1,0,0:0:0:0:
214,255,61158,1,0,0:0:0:0:
240,248,61239,1,0,0:0:0:0:
104,112,61401,1,0,0:0:0:0:
104,112,61726,5,0,0:0:0:0:
176,68,61888,2,0,B|208:124|152:184|152:184|200:172,1,170
268,140,62374,1,0,0:0:0:0:
456,236,62536,2,0,L|368:208,1,85
484,28,62861,5,0,0:0:0:0:
484,28,63023,2,0,B|420:28|420:28|408:40|408:40|308:40,1,170
432,164,63509,1,0,0:0:0:0:
144,92,63672,1,0,0:0:0:0:
160,112,63753,1,0,0:0:0:0:
176,132,63834,1,0,0:0:0:0:
244,56,63996,1,0,0:0:0:0:
32,316,64158,5,0,0:0:0:0:
52,312,64239,1,0,0:0:0:0:
72,308,64320,1,0,0:0:0:0:
92,304,64401,1,0,0:0:0:0:
124,276,64482,1,0,0:0:0:0:
144,272,64563,1,0,0:0:0:0:
164,268,64644,1,0,0:0:0:0:
184,264,64725,1,0,0:0:0:0:
220,240,64807,1,0,0:0:0:0:
240,236,64888,1,0,0:0:0:0:
260,232,64969,1,0,0:0:0:0:
280,228,65050,1,0,0:0:0:0:
312,200,65131,1,0,0:0:0:0:
332,196,65212,1,0,0:0:0:0:
352,192,65293,1,0,0:0:0:0:
372,188,65374,1,0,0:0:0:0:
392,168,65455,5,0,0:0:0:0:
484,24,65618,1,0,0:0:0:0:
416,76,65780,2,0,L|320:96,1,85
272,36,66104,1,0,0:0:0:0:
452,88,66266,2,0,L|276:124,1,170
128,60,66915,5,0,0:0:0:0:
80,128,67077,2,0,L|112:224,1,85
302,276,67401,1,0,0:0:0:0:
332,108,67563,1,0,0:0:0:0:
332,108,67645,1,0,0:0:0:0:
332,108,67726,1,0,0:0:0:0:
168,152,67888,1,0,0:0:0:0:
228,320,68050,6,0,P|216:276|228:236,1,85
412,68,68374,2,0,B|432:156|368:192|368:192|320:192,1,170
332,108,68861,1,0,0:0:0:0:
248,108,69023,1,0,0:0:0:0:
164,108,69185,1,0,0:0:0:0:
164,108,69509,5,0,0:0:0:0:
108,172,69672,2,0,P|80:132|80:96,1,85
24,348,69996,1,0,0:0:0:0:
140,304,70158,1,0,0:0:0:0:
116,300,70239,1,0,0:0:0:0:
92,296,70320,1,0,0:0:0:0:
216,268,70482,1,0,0:0:0:0:
368,348,70645,5,0,0:0:0:0:
312,284,70807,2,0,P|288:200|336:136,1,170
404,88,71293,1,0,0:0:0:0:
244,24,71455,1,0,0:0:0:0:
324,56,71618,1,0,0:0:0:0:
164,120,71780,1,0,0:0:0:0:
164,120,72104,5,0,0:0:0:0:
164,120,72266,2,0,P|176:185|140:239,1,127.5
116,264,72590,2,0,L|208:248,1,85
351,181,72915,2,0,L|268:196,1,85
412,284,73239,5,0,0:0:0:0:
456,32,73401,1,0,0:0:0:0:
224,140,73563,1,0,0:0:0:0:
224,140,73888,1,0,0:0:0:0:
224,140,74212,1,0,0:0:0:0:
224,140,74374,1,0,0:0:0:0:
72,64,74536,5,0,0:0:0:0:
96,100,74618,1,0,0:0:0:0:
100,144,74699,1,0,0:0:0:0:
84,184,74780,1,0,0:0:0:0:
60,216,74861,1,0,0:0:0:0:
56,260,74942,1,0,0:0:0:0:
88,288,75023,1,0,0:0:0:0:
128,300,75104,1,0,0:0:0:0:
168,284,75185,1,0,0:0:0:0:
204,264,75266,1,0,0:0:0:0:
244,256,75347,1,0,0:0:0:0:
284,264,75428,1,0,0:0:0:0:
324,276,75509,1,0,0:0:0:0:
364,292,75590,1,0,0:0:0:0:
404,304,75672,1,0,0:0:0:0:
444,292,75753,1,0,0:0:0:0:
472,260,75834,1,0,0:0:0:0:
392,92,91401,6,0,P|336:120|272:108,1,127.500004863739
208,36,91888,1,0,0:0:0:0:
208,36,92050,1,0,0:0:0:0:
84,184,92374,1,0,0:0:0:0:
176,164,92699,2,0,P|172:224|116:268,1,127.500004863739
336,220,93347,2,0,P|340:160|396:116,1,127.500004863739
256,256,93996,2,0,L|256:156,1,95.6250036478044
256,112,94320,1,0,0:0:0:0:
332,52,94482,1,0,0:0:0:0:
144,84,94807,1,0,0:0:0:0:
156,276,95131,1,0,0:0:0:0:
156,276,95293,2,0,P|120:324|48:320,1,127.500004863739
184,184,95942,1,0,0:0:0:0:
420,348,96590,1,0,0:0:0:0:
496,96,97239,6,0,P|440:128|380:116,1,127.500004863739
320,68,97726,2,0,L|244:100,1,63.7500024318696
60,24,98536,1,0,0:0:0:0:
152,144,98861,1,0,0:0:0:0:
72,276,99185,1,0,0:0:0:0:
140,240,100158,1,0,0:0:0:0:
216,256,101131,1,0,0:0:0:0:
216,256,101780,5,0,0:0:0:0:
452,64,102428,2,0,L|320:96,1,127.500004863739
80,80,104374,1,0,0:0:0:0:
80,80,104699,1,0,0:0:0:0:
136,132,104861,2,0,P|172:148|204:140,1,63.7500024318696
80,80,105347,1,0,0:0:0:0:
68,336,105672,5,0,0:0:0:0:
68,336,105834,1,0,0:0:0:0:
68,336,105996,1,0,0:0:0:0:
156,196,106320,2,0,L|224:176,1,63.7500024318696
284,220,106645,2,0,L|352:200,1,63.7500024318696
240,56,106969,6,0,P|160:92|80:80,1,170
108,264,107455,1,0,0:0:0:0:
108,264,107536,1,0,0:0:0:0:
108,264,107618,2,0,P|128:224|160:192,1,85
332,316,107942,1,0,0:0:0:0:
351,61,108104,2,0,P|404:125|400:208,1,170
220,139,108590,2,0,P|232:98|239:57,1,85
316,192,108915,2,0,P|368:200|408:208,1,85
332,316,109239,1,0,0:0:0:0:
300,312,109320,1,0,0:0:0:0:
268,308,109401,1,0,0:0:0:0:
236,304,109482,1,0,0:0:0:0:
204,300,109563,6,0,B|148:300|116:336|116:336|88:308|104:264,1,170
136,124,110050,1,0,0:0:0:0:
136,124,110131,1,0,0:0:0:0:
136,124,110212,2,0,L|220:140,1,85
304,200,110536,1,0,0:0:0:0:
368,120,110699,2,0,P|376:80|388:36,1,85
316,192,111023,5,0,0:0:0:0:
316,192,111185,1,0,0:0:0:0:
444,172,111347,2,0,P|464:80|488:0,1,170
304,52,111834,1,0,0:0:0:0:
272,60,111915,1,0,0:0:0:0:
240,64,111996,1,0,0:0:0:0:
208,64,112077,1,0,0:0:0:0:
176,56,112158,6,0,B|120:36|68:64|68:64|76:100|56:128,1,170
116,220,112645,1,0,0:0:0:0:
116,220,112726,1,0,0:0:0:0:
116,220,112807,2,0,P|136:184|156:132,1,85
180,312,113131,1,0,0:0:0:0:
445,252,113293,2,0,P|363:236|284:264,1,170
445,252,113780,6,0,P|456:200|468:168,1,85
352,68,114104,2,0,L|356:156,1,85
284,264,114428,2,0,P|268:220|244:184,1,85
247,188,114672,1,0,0:0:0:0:
247,188,114753,1,0,0:0:0:0:
184,108,114915,1,0,0:0:0:0:
68,220,115077,6,0,P|108:204|152:192,1,85
352,68,115401,2,0,P|312:84|268:96,1,85
196,272,115726,1,0,0:0:0:0:
288,348,115888,2,0,P|328:336|368:300,1,85
236,188,116212,2,0,P|212:220|196:276,1,85
304,352,116536,2,0,P|344:352|396:332,1,85
224,180,116861,5,0,0:0:0:0:
304,352,117023,1,0,0:0:0:0:
212,172,117185,5,0,0:0:0:0:
212,172,117266,1,0,0:0:0:0:
212,172,117347,2,0,P|208:112|204:84,1,85
116,136,117672,1,0,0:0:0:0:
116,136,117834,1,0,0:0:0:0:
308,208,117996,2,0,P|396:196|492:188,1,170
272,304,118482,6,0,P|208:252|216:164,1,170
292,108,118969,2,0,L|280:24,1,85
116,136,119293,2,0,P|64:148|24:148,1,85
228,232,119618,1,0,0:0:0:0:
228,232,119699,1,0,0:0:0:0:
228,232,119780,1,0,0:0:0:0:
228,232,119861,1,0,0:0:0:0:
228,232,119942,6,0,P|304:252|388:208,1,170
396,112,120428,1,0,0:0:0:0:
396,112,120509,1,0,0:0:0:0:
396,112,120590,1,0,0:0:0:0:
288,56,120753,2,0,P|288:72|296:152,1,85
144,240,121077,2,0,P|172:236|232:232,1,85
360,336,121401,2,0,P|332:340|272:344,1,85
100,320,121726,2,0,B|36:268|72:192|72:192|56:168,1,170
4,92,122212,5,0,0:0:0:0:
32,68,122293,1,0,0:0:0:0:
68,56,122374,1,0,0:0:0:0:
108,56,122455,1,0,0:0:0:0:
144,68,122536,2,0,B|192:92|248:68|248:68|240:100|256:128,1,170
224,208,123023,1,0,0:0:0:0:
224,208,123104,1,0,0:0:0:0:
224,208,123185,2,0,P|180:212|136:208,2,85
284,292,123672,6,0,P|364:260|452:280,1,170
460,376,124158,2,0,P|412:368|376:340,1,85
432,176,124482,2,0,P|480:184|516:212,1,85
444,276,124807,1,0,0:0:0:0:
412,264,124888,1,0,0:0:0:0:
380,256,124969,1,0,0:0:0:0:
348,244,125050,1,0,0:0:0:0:
316,236,125131,1,0,0:0:0:0:
220,208,125293,1,0,0:0:0:0:
352,144,125455,6,0,P|388:160|444:180,1,85
240,312,125780,2,0,P|204:296|148:276,1,85
161,280,126023,1,0,0:0:0:0:
161,280,126104,1,0,0:0:0:0:
92,344,126266,5,0,0:0:0:0:
220,208,126428,1,0,0:0:0:0:
80,232,126590,1,0,0:0:0:0:
240,312,126753,1,0,0:0:0:0:
300,240,126915,2,0,P|304:184|264:128,1,127.5
180,136,127239,2,0,P|192:176|228:212,1,85
80,128,127563,1,0,0:0:0:0:
380,208,127726,6,0,B|440:196|476:244|476:244|496:232|476:184,1,170
376,56,128699,2,0,P|348:36|312:28,1,63.7500024318696
220,144,129185,2,0,P|190:156|159:159,1,63.7500024318696
48,52,129672,1,0,0:0:0:0:
48,52,129996,1,0,0:0:0:0:
440,324,130320,2,0,L|380:344,1,63.7500024318696
480,228,130969,1,0,0:0:0:0:
267,223,131293,2,0,L|328:204,1,63.7500024318696
407,71,131780,2,0,L|346:90,1,63.7500024318696
208,24,132266,1,0,0:0:0:0:
208,24,132590,1,0,0:0:0:0:
92,128,132915,5,0,0:0:0:0:
92,128,133077,1,0,0:0:0:0:
220,320,133563,1,0,0:0:0:0:
360,256,133888,1,0,0:0:0:0:
360,256,134050,1,0,0:0:0:0:
248,152,134374,1,0,0:0:0:0:
324,20,134699,1,0,0:0:0:0:
324,20,134861,1,0,0:0:0:0:
324,20,135185,1,0,0:0:0:0:
452,104,135509,5,0,0:0:0:0:
452,104,135672,1,0,0:0:0:0:
60,104,136482,1,0,0:0:0:0:
60,104,136645,1,0,0:0:0:0:
60,104,136969,1,0,0:0:0:0:
256,288,137455,1,0,0:0:0:0:
256,324,137780,1,0,0:0:0:0:
332,124,138104,6,0,P|340:188|388:228,1,127.500004863739
340,288,138590,1,0,0:0:0:0:
224,132,138753,1,0,0:0:0:0:
232,208,138915,2,0,B|188:212|160:176|160:176|112:192,1,127.500004863739
117,190,139563,5,0,0:0:0:0:
76,276,139726,2,0,L|15:295,1,63.7500024318696
144,308,140050,2,0,L|204:288,1,63.7500024318696
224,304,140293,1,0,0:0:0:0:
244,316,140374,2,0,L|304:296,1,63.7500024318696
336,148,140699,1,0,0:0:0:0:
336,224,140861,2,0,P|276:196|260:136,1,127.500004863739
228,72,141347,2,0,L|167:91,1,63.7500024318696
364,60,141672,2,0,L|304:80,1,63.7500024318696
452,256,142158,5,0,0:0:0:0:
416,188,142320,2,0,P|400:160|404:128,1,63.7500024318696
336,224,142645,1,0,0:0:0:0:
200,276,142807,1,0,0:0:0:0:
276,272,142969,1,0,0:0:0:0:
136,236,143131,1,0,0:0:0:0:
200,276,143293,2,0,P|212:224|184:176,1,95.6250036478044
180,152,143618,2,0,L|244:168,1,63.7500024318696
432,40,143942,1,0,0:0:0:0:
368,80,144104,1,0,0:0:0:0:
292,76,144266,1,0,0:0:0:0:
412,228,144428,1,0,0:0:0:0:
412,228,144753,5,0,0:0:0:0:
344,264,144915,2,0,B|328:248|328:248|296:272|260:264,1,95.6250036478044
228,244,145239,2,0,P|200:232|164:232,1,63.7500024318696
104,276,145563,2,0,P|72:292|36:292,1,63.7500024318696
56,216,145888,1,0,0:0:0:0:
56,216,146050,2,0,P|116:188|128:128,1,127.500004863739
132,56,146536,2,0,P|160:116|220:128,1,127.500004863739
288,108,147023,1,0,0:0:0:0:
400,264,147185,5,0,0:0:0:0:
420,192,147347,2,0,P|360:192|324:248,1,127.500004863739
340,320,147834,1,0,0:0:0:0:
216,228,147996,1,0,0:0:0:0:
192,212,148077,1,0,0:0:0:0:
164,208,148158,1,0,0:0:0:0:
288,108,148320,1,0,0:0:0:0:
216,228,148482,6,0,P|200:260|200:288,1,63.7500024318696
260,336,148807,2,0,P|276:304|276:276,1,63.7500024318696,0|0,0:0|0:0,0:0:0:0:
60,352,149131,1,0,0:0:0:0:
132,320,149294,2,0,B|116:288|84:276|84:276|84:208,1,127.500004863739
384,48,149942,5,0,0:0:0:0:
276,192,150104,2,0,L|214:209,1,63.7500024318696
328,100,150428,2,0,L|266:117,1,63.7500024318696
252,108,150672,1,0,0:0:0:0:
240,100,150753,2,0,L|178:117,1,63.7500024318696
72,48,151077,5,0,0:0:0:0:
104,116,151239,1,0,0:0:0:0:
84,188,151401,1,0,0:0:0:0:
32,244,151563,1,0,0:0:0:0:
104,116,151726,5,0,0:0:0:0:
180,119,151888,1,0,0:0:0:0:
245,156,152050,1,0,0:0:0:0:
270,227,152212,1,0,0:0:0:0:
432,64,152536,5,0,0:0:0:0:
480,124,152698,2,0,P|440:144|392:132,1,95.6250036478044
360,116,153022,2,0,L|332:188,1,63.7500024318696
184,200,153347,2,0,L|212:272,1,63.7500024318696
96,152,153672,1,0,0:0:0:0:
152,100,153834,2,0,P|208:72|272:84,1,127.500004863739
304,152,154320,1,0,0:0:0:0:
272,220,154482,2,0,B|312:238|350:213|350:213|386:240,1,127.500004863739
386,240,155131,5,0,0:0:0:0:
356,316,155293,2,0,B|316:316|316:316|312:324|312:324|252:324,1,95.6250036478044
228,324,155618,1,0,0:0:0:0:
128,160,155780,1,0,0:0:0:0:
176,244,155942,1,0,0:0:0:0:
276,80,156104,1,0,0:0:0:0:
332,168,156266,5,0,0:0:0:0:
388,116,156428,2,0,L|468:100,1,63.7500024318696
256,8,156753,1,0,0:0:0:0:
416,144,156915,2,0,L|496:128,1,63.7500024318696
512,200,157239,1,0,0:0:0:0:
328,64,157401,1,0,0:0:0:0:
232,184,157563,1,0,0:0:0:0:
156,128,157725,1,0,0:0:0:0:
136,140,157806,1,0,0:0:0:0:
116,152,157887,1,0,0:0:0:0:
232,184,158050,1,0,0:0:0:0:
124,340,158212,1,0,0:0:0:0:
144,328,158293,1,0,0:0:0:0:
164,316,158374,1,0,0:0:0:0:
260,324,158536,1,0,0:0:0:0:
280,312,158617,1,0,0:0:0:0:
300,300,158698,1,0,0:0:0:0:
320,288,158780,1,0,0:0:0:0:
340,276,158861,1,0,0:0:0:0:
368,76,159185,6,0,P|300:104|236:92,1,136
172,48,159834,1,0,0:0:0:0:
96,260,160158,2,0,P|132:200|164:128,1,136
88,88,160807,1,0,0:0:0:0:
88,88,161131,2,0,P|72:124|56:156,1,68
96,260,161455,6,0,P|156:240|240:248,1,136
312,272,161942,1,0,0:0:0:0:
420,132,162266,1,0,0:0:0:0:
312,272,162590,1,0,0:0:0:0:
312,272,162753,2,0,B|336:224|312:176|312:176|320:160|348:148,1,136
92,60,163401,2,0,B|68:108|92:156|92:156|84:172|56:184,1,136
65,179,163888,2,0,L|128:204,1,68
352,192,164699,6,0,P|280:188|232:232,1,136
400,268,165185,2,0,P|436:276|468:276,1,68
308,116,165672,1,0,0:0:0:0:
228,132,165996,2,0,B|200:144|164:136|164:136|120:124|84:140,1,136
94,136,166645,1,0,0:0:0:0:
160,256,167618,6,0,B|212:288|260:280|260:280|288:244|288:244|348:240|368:208|368:208|336:196,1,272
96,136,168590,1,0,0:0:0:0:
96,136,169239,6,0,P|156:116|228:100,1,136
276,172,169888,1,0,0:0:0:0:
324,248,170212,2,0,B|388:180|336:108|336:108|376:136|396:212,1,272
256,308,171185,1,0,0:0:0:0:
180,264,171509,2,0,B|200:236|200:236|196:196,1,68
168,28,171834,5,0,0:0:0:0:
256,44,172158,1,0,0:0:0:0:
344,56,172482,1,0,0:0:0:0:
432,68,172807,1,0,0:0:0:0:
368,212,173131,6,0,L|380:144,1,68
432,68,173455,1,0,0:0:0:0:
272,236,173780,6,0,L|284:168,1,68
176,260,174104,2,0,L|188:192,1,68
20,56,174428,6,0,B|56:84|56:84|112:52|176:80,1,170,0|0,0:0|0:0,0:0:0:0:
272,236,174915,2,0,P|276:264|272:280,1,42.5
272,236,175077,2,0,P|308:212|348:212,1,85
440,256,175401,1,0,0:0:0:0:
504,64,175563,2,0,P|440:96|344:84,1,170
252,128,176050,2,0,P|240:84|252:40,1,85
168,176,176374,2,0,P|128:200|88:200,1,85
90,200,176618,1,0,0:0:0:0:
90,200,176699,2,0,P|104:244|84:288,1,85
108,116,177023,5,0,0:0:0:0:
260,252,177185,1,0,0:0:0:0:
452,176,177347,1,0,0:0:0:0:
308,32,177509,2,0,P|296:76|312:112,1,85
404,72,177834,1,0,0:0:0:0:
168,176,177996,1,0,0:0:0:0:
360,232,178158,2,0,P|380:288|376:356,1,127.5
376,355,178482,2,0,P|420:340|464:344,1,85
404,72,178807,1,0,0:0:0:0:
484,260,178969,1,0,0:0:0:0:
332,144,179131,2,0,L|240:120,1,85
176,256,179455,1,0,0:0:0:0:
176,256,179536,1,0,0:0:0:0:
176,256,179618,6,0,P|178:176|123:100,1,170
264,336,180104,1,0,0:0:0:0:
264,336,180185,1,0,0:0:0:0:
264,336,180266,2,0,P|260:292|280:252,1,85
332,172,180590,1,0,0:0:0:0:
432,56,180753,2,0,B|384:88|384:88|320:60|276:88,1,170
184,44,181239,1,0,0:0:0:0:
248,184,181401,2,0,L|212:212,1,42.5
164,200,181563,2,0,L|84:260,1,85
16,188,181888,1,0,0:0:0:0:
232,328,182050,1,0,0:0:0:0:
484,104,182212,1,0,0:0:0:0:
484,104,182536,6,0,P|452:128|408:136,1,85
328,72,182861,1,0,0:0:0:0:
263,243,183023,2,0,P|264:201|284:164,1,85
232,328,183347,2,0,B|184:308|172:264|172:264|152:272|128:264,1,127.5
136,266,183672,1,0,0:0:0:0:
224,28,183834,1,0,0:0:0:0:
176,120,183996,2,0,L|92:132,1,85
263,243,184320,1,0,0:0:0:0:
368,132,184482,1,0,0:0:0:0:
448,320,184645,1,0,0:0:0:0:
448,320,184726,1,0,0:0:0:0:
448,320,184807,6,0,B|404:276|404:212|404:212|376:224|344:216,1,170
300,76,185293,1,0,0:0:0:0:
288,104,185374,1,0,0:0:0:0:
276,132,185455,2,0,L|180:152,1,85
424,40,185780,1,0,0:0:0:0:
264,168,185942,2,0,L|92:204,1,170
12,256,186428,1,0,0:0:0:0:
116,64,186590,1,0,0:0:0:0:
140,296,186753,2,0,P|148:340|136:380,1,85
236,260,187077,1,0,0:0:0:0:
368,340,187239,1,0,0:0:0:0:
368,340,187320,1,0,0:0:0:0:
368,340,187401,6,0,B|396:264|344:240|376:172,1,170
460,48,187888,2,0,P|424:72|384:72,1,85
292,24,188212,1,0,0:0:0:0:
200,148,188374,1,0,0:0:0:0:
300,124,188536,2,0,P|296:192|256:232,1,127.5
212,256,188861,2,0,L|300:300,1,85
444,193,189185,2,0,L|368:232,1,85
200,148,189509,1,0,0:0:0:0:
460,48,189672,1,0,0:0:0:0:
380,112,189834,1,0,0:0:0:0:
380,112,189915,1,0,0:0:0:0:
380,112,189996,6,0,B|360:84|348:60|348:60|296:68|232:48,1,170
284,144,190482,2,0,P|280:196|284:228,1,85
360,296,190807,1,0,0:0:0:0:
452,252,190969,1,0,0:0:0:0:
284,228,191131,2,0,P|200:240|116:226,1,170
200,100,191618,1,0,0:0:0:0:
88,96,191780,1,0,0:0:0:0:
72,72,191861,1,0,0:0:0:0:
56,48,191942,1,0,0:0:0:0:
200,100,192104,1,0,0:0:0:0:
308,128,192266,1,0,0:0:0:0:
324,152,192347,1,0,0:0:0:0:
340,176,192428,1,0,0:0:0:0:
356,200,192509,1,0,0:0:0:0:
372,224,192590,1,0,0:0:0:0:
372,224,192915,5,0,0:0:0:0:
476,48,193077,1,0,0:0:0:0:
400,112,193239,2,0,P|376:76|380:32,1,85
208,228,193563,1,0,0:0:0:0:
152,140,193726,2,0,P|132:100|136:60,1,85
80,192,194050,1,0,0:0:0:0:
272,120,194212,1,0,0:0:0:0:
276,324,194374,1,0,0:0:0:0:
208,228,194536,1,0,0:0:0:0:
208,228,194699,1,0,0:0:0:0:
308,200,194861,1,0,0:0:0:0:
336,196,194942,1,0,0:0:0:0:
364,196,195023,1,0,0:0:0:0:
392,200,195104,1,0,0:0:0:0:
420,212,195185,6,0,B|408:168|424:112|424:112|400:88|360:88,1,170
292,120,195996,5,0,0:0:0:0:
228,64,196159,2,0,P|200:44|164:36,1,63.7500024318696
104,140,196483,1,0,0:0:0:0:
104,140,196645,2,0,P|140:136|172:120,1,63.7500024318696
40,76,196969,2,0,P|20:108|12:144,1,63.7500024318696
0,208,197294,1,0,0:0:0:0:
16,284,197456,1,0,0:0:0:0:
80,328,197618,1,0,0:0:0:0:
380,344,197780,5,0,0:0:0:0:
380,344,197942,2,0,L|456:320,1,63.7500024318696
484,252,198267,2,0,L|464:192,1,63.7500024318696
388,156,198591,2,0,L|312:180,1,63.7500024318696
284,248,198915,2,0,L|304:308,2,63.7500024318696
212,208,199402,1,0,0:0:0:0:
132,192,199564,1,0,0:0:0:0:
48,204,199726,1,0,0:0:0:0:
156,272,199888,5,0,0:0:0:0:
212,208,200050,1,0,0:0:0:0:
236,128,200213,1,0,0:0:0:0:
216,48,200375,1,0,0:0:0:0:
80,120,200537,5,0,0:0:0:0:
132,192,200699,1,0,0:0:0:0:
236,128,200861,2,0,L|296:88,1,63.7500024318696
368,148,201186,2,0,L|308:188,1,63.7500024318696
336,276,201510,2,0,L|396:236,1,63.7500024318696
389,240,201834,1,0,0:0:0:0:
468,296,201996,2,0,L|408:336,1,63.7500024318696
352,372,202321,5,0,0:0:0:0:
284,336,202483,1,0,0:0:0:0:
220,292,202645,1,0,0:0:0:0:
156,248,202807,1,0,0:0:0:0:
88,288,202969,6,0,L|24:324,2,63.7500024318696
156,248,203456,1,0,0:0:0:0:
224,212,203618,2,0,L|288:176,2,63.7500024318696
236,108,204105,2,0,L|300:72,1,63.7500024318696
140,68,204429,2,0,L|204:32,1,63.7500024318696
156,164,204753,1,0,0:0:0:0:
332,124,204915,1,0,0:0:0:0:
300,36,205078,5,0,0:0:0:0:
268,192,205240,1,0,0:0:0:0:
420,144,205402,1,0,0:0:0:0:
