osu file format v11

[General]
AudioFilename: 08 - Shizuku.mp3
AudioLeadIn: 0
PreviewTime: 234365
Countdown: 0
SampleSet: Soft
StackLeniency: 0.4
Mode: 0
LetterboxInBreaks: 1

[Editor]
Bookmarks: 16079,34365,98365,171508,180651,209222
DistanceSpacing: 0.9
BeatDivisor: 2
GridSize: 4

[Metadata]
Title:Shizuku
TitleUnicode:Shizuku
Artist:Asaki
ArtistUnicode:Asaki
Creator:Xin_U
Version:Hyper
Source:
Tags:Pop'n Music 12 Konami Original Sinkyoku REFLEC BEAT limelight Dance Dance Revolution X3 VS 2ndMIX DDR Lamento
BeatmapID:207424
BeatmapSetID:65901

[Difficulty]
HPDrainRate:5
CircleSize:4
OverallDifficulty:5
ApproachRate:8
SliderMultiplier:1.59999990463257
SliderTickRate:2

[Events]
//Background and Video events
0,0,"water drop.jpg"
//Break Periods
//Storyboard Layer 0 (Background)
//Storyboard Layer 1 (Fail)
//Storyboard Layer 2 (Pass)
//Storyboard Layer 3 (Foreground)
//Storyboard Sound Samples
//Background Colour Transformations
3,100,163,162,255

[TimingPoints]
16080,285.714285714286,4,2,1,66,1,0
189794,-200,4,2,1,33,0,0
198937,-133.333333333333,4,2,1,50,0,0
203508,-100,4,2,1,60,0,0
209222,-83.3333333333333,4,2,1,80,0,1
252649,-83.3333333333333,4,2,1,80,0,0
252650,-83.3333333333333,4,2,1,80,0,1

[Colours]
Combo1 : 69,109,131
Combo2 : 0,0,255
Combo3 : 53,11,117
Combo4 : 70,251,255
Combo5 : 47,208,176

[HitObjects]
256,192,16079,2,0,P|308:116|388:116,1,159.999990463257
376,180,16508,2,0,P|456:248,1,79.9999952316285
420,304,16794,2,0,P|340:236,1,79.9999952316285
288,264,17079,1,0,0:0:0
144,252,17365,5,0,0:0:0
264,172,17651,2,0,P|228:128|180:132,1,79.9999952316285
256,72,17937,2,0,P|292:116|340:112,1,79.9999952316285
456,112,18365,6,0,P|472:208|420:240,1,159.999990463257
412,168,18794,1,0,0:0:0
284,232,19079,1,0,0:0:0
213,249,19223,2,0,P|243:291|339:275,1,159.999990463257
348,204,19651,5,0,0:0:0
292,160,19794,1,0,0:0:0
220,156,19937,1,0,0:0:0
164,200,20079,2,0,P|108:260,1,79.9999952316285
36,264,20364,2,0,P|90:205,1,79.9999952316285
36,72,20794,5,0,0:0:0
108,84,20937,2,0,P|108:180,1,79.9999952316285
248,196,21365,1,0,0:0:0
304,240,21508,2,0,P|384:180,1,79.9999952316285
440,176,21794,5,0,0:0:0
404,36,22079,1,0,0:0:0
332,160,22365,1,0,0:0:0
256,36,22651,1,0,0:0:0
228,104,22794,1,0,0:0:0
212,176,22937,6,0,P|237:266|395:252,1,239.999985694885
340,212,23508,1,0,0:0:0
284,168,23651,1,0,0:0:0
272,240,23794,2,0,P|216:296,1,79.9999952316285
144,296,24080,6,0,P|88:240,1,79.9999952316285
92,168,24365,2,0,P|148:112,1,79.9999952316285
220,116,24651,1,0,0:0:0
352,56,24937,1,0,0:0:0
404,188,25222,5,0,0:0:0
316,300,25508,1,0,0:0:0
276,240,25651,1,0,0:0:0
316,180,25794,1,0,0:0:0
200,96,26080,1,0,0:0:0
160,156,26223,1,0,0:0:0
200,216,26366,5,0,0:0:0
92,308,26651,2,0,P|52:224|116:168,1,159.999990463257
119,242,27080,2,0,P|159:158|95:102,1,159.999990463257
124,40,27508,5,0,0:0:0
268,64,27794,2,0,P|228:148|292:204,1,159.999990463257
295,130,28223,2,0,P|335:214|271:270,1,159.999990463257
300,332,28651,5,0,0:0:0
420,252,28937,2,0,P|420:144,1,79.9999952316285
420,100,29222,2,0,P|326:154,1,79.9999952316285
288,176,29508,2,0,P|381:230,1,79.9999952316285
352,288,29794,5,0,0:0:0
208,272,30080,1,0,0:0:0
136,272,30222,1,0,0:0:0
232,164,30508,1,0,0:0:0
304,164,30651,1,0,0:0:0
376,164,30794,1,0,0:0:0
448,164,30937,6,0,P|448:68,1,79.9999952316285
388,44,31222,1,0,0:0:0
332,88,31365,2,0,P|332:168,1,79.9999952316285
400,196,31651,1,0,0:0:0
392,268,31794,1,0,0:0:0
320,280,31937,1,0,0:0:0
280,220,32080,6,0,P|264:300|232:328|232:328|200:300|184:220,1,239.999985694885
184,148,32651,1,0,0:0:0
112,148,32794,1,0,0:0:0
112,76,32937,1,0,0:0:0
184,76,33080,1,0,0:0:0
396,104,33508,6,0,P|460:151,1,79.9999952316285
424,212,33794,2,0,P|359:164,1,79.9999952316285
328,228,34080,2,0,P|392:275,1,79.9999952316285
344,328,34365,6,0,P|228:328|206:301,1,159.999990463257
260,252,34794,2,0,P|238:225|122:225,1,159.999990463257,0|0,0:0|0:0,0:0:0
52,224,35222,2,0,P|52:140,1,79.9999952316285
124,144,35508,6,0,P|124:56,1,79.9999952316285
196,84,35794,2,0,P|258:21,1,79.9999952316285
296,88,36080,2,0,P|384:88,1,79.9999952316285
364,160,36365,1,0,0:0:0
420,204,36508,1,0,0:0:0
476,248,36651,6,0,P|476:80,1,159.999990463257
404,84,37080,1,0,0:0:0
332,76,37222,2,0,P|332:240,1,159.999990463257
196,288,37794,5,0,0:0:0
91,187,38080,1,0,0:0:0
229,148,38365,1,0,0:0:0
196,288,38651,2,0,P|244:320|268:288,1,79.9999952316285
308,260,38937,6,0,P|319:253|367:285,1,79.9999952316285
416,340,39222,2,0,P|448:292|416:268,1,79.9999952316285
472,140,39651,1,0,0:0:0
408,104,39794,1,0,0:0:0
340,124,39937,1,0,0:0:0
212,56,40222,5,0,0:0:0
156,103,40365,1,0,0:0:0
151,174,40508,1,0,0:0:0
196,232,40651,2,0,P|276:184,1,79.9999952316285
292,256,40937,2,0,P|360:214,1,79.9999952316285
396,276,41222,5,0,0:0:0
432,136,41508,1,0,0:0:0
472,76,41651,1,0,0:0:0
336,28,41937,1,0,0:0:0
280,72,42080,1,0,0:0:0
208,80,42222,1,0,0:0:0
144,44,42365,5,0,0:0:0
224,164,42651,1,0,0:0:0
156,192,42794,1,0,0:0:0
120,256,42937,1,0,0:0:0
88,320,43080,1,0,0:0:0
24,348,43222,1,0,0:0:0
190,255,43508,6,0,P|210:194|301:148,1,159.999990463257
278,222,43937,2,0,P|357:175|378:115,1,159.999990463257,0|0,0:0|0:0,0:0:0
308,124,44365,2,0,P|328:63|419:17,1,159.999990463257
480,20,44794,6,0,P|464:120,1,79.9999952316285
468,172,45080,2,0,P|452:272,1,79.9999952316285
456,324,45365,2,0,P|356:308,1,79.9999952316285
304,312,45651,1,0,0:0:0
232,308,45794,5,0,0:0:0
208,240,45937,1,0,0:0:0
184,172,46080,1,0,0:0:0
160,104,46222,1,0,0:0:0
24,56,46508,5,0,0:0:0
48,124,46651,1,0,0:0:0
72,192,46794,1,0,0:0:0
96,260,46937,2,0,P|192:316|244:288,1,159.999990463257
172,256,47365,2,0,P|256:200,1,79.9999952316285
308,236,47651,2,0,P|392:180,1,79.9999952316285
444,64,48080,5,0,0:0:0
304,88,48365,2,0,P|220:128,1,79.9999952316285
116,212,48794,1,0,0:0:0
88,280,48937,1,0,0:0:0
84,352,49080,2,0,P|196:332,1,79.9999952316285
308,336,49508,6,0,P|252:244,1,79.9999952316285
320,220,49794,1,0,0:0:0
288,156,49937,1,0,0:0:0
312,88,50080,1,0,0:0:0
364,36,50222,1,0,0:0:0
436,24,50365,5,0,0:0:0
484,160,50651,2,0,P|392:236,1,79.9999952316285
464,272,50937,2,0,P|384:292,1,79.9999952316285
384,364,51222,1,0,0:0:0
304,244,51508,6,0,P|313:118,1,79.9999952316285
237,168,51794,2,0,P|202:74,1,79.9999952316285
149,132,52080,2,0,P|55:90,1,79.9999952316285
31,158,52365,1,0,0:0:0
140,316,52651,6,0,P|244:320|332:256,1,159.999990463257
244,244,53080,2,0,P|312:232|352:252,1,79.9999952316285
372,284,53365,1,0,0:0:0
440,264,53508,1,0,0:0:0
488,208,53651,1,0,0:0:0
444,152,53794,6,0,P|376:88,1,79.9999952316285
432,40,54080,2,0,P|352:28|308:104,1,159.999990463257
280,152,54508,1,0,0:0:0
224,196,54651,2,0,P|136:212,1,79.9999952316285
164,280,54937,6,0,P|64:304,1,79.9999952316285
116,364,55222,2,0,P|212:340,1,79.9999952316285
248,296,55508,1,0,0:0:0
320,284,55651,1,0,0:0:0
372,236,55794,1,0,0:0:0
280,124,56080,5,0,0:0:0
252,56,56222,1,0,0:0:0
184,36,56365,1,0,0:0:0
112,48,56508,1,0,0:0:0
88,116,56651,2,0,P|80:228,1,79.9999952316285
76,268,56937,1,0,0:0:0
208,212,57222,6,0,P|224:108|304:96,1,159.999990463257
272,164,57651,1,0,0:0:0
404,104,57937,1,0,0:0:0
411,30,58081,2,0,P|451:47|467:151,1,159.999990463257
456,224,58508,5,0,0:0:0
424,288,58651,1,0,0:0:0
360,316,58794,2,0,P|252:284,1,79.9999952316285
156,228,59222,1,0,0:0:0
136,160,59365,1,0,0:0:0
176,96,59508,6,0,P|248:88|272:72,1,79.9999952316285
324,64,59794,2,0,P|332:136|348:160,1,79.9999952316285
368,208,60080,2,0,P|296:216|272:232,1,79.9999952316285
232,260,60365,1,0,0:0:0
96,120,60651,5,0,0:0:0
80,188,60794,1,0,0:0:0
224,204,61080,1,0,0:0:0
268,260,61222,1,0,0:0:0
320,308,61365,2,0,P|420:300,1,79.9999952316285
448,116,61794,6,0,P|336:96,1,79.9999952316285
304,72,62080,2,0,P|312:148|408:160,1,159.999990463257
448,208,62508,1,0,0:0:0
396,256,62651,1,0,0:0:0
324,252,62794,1,0,0:0:0
268,208,62937,5,0,0:0:0
216,72,63222,2,0,P|148:108|112:196,1,159.999990463257
184,188,63651,1,0,0:0:0
156,252,63794,1,0,0:0:0
180,320,63937,1,0,0:0:0
244,356,64080,6,0,P|412:320,1,159.999990463257
436,260,64508,2,0,P|272:296,1,159.999990463257
228,244,64937,1,0,0:0:0
260,180,65080,1,0,0:0:0
328,156,65222,6,0,P|408:104,1,79.9999952316285
424,48,65508,1,0,0:0:0
488,12,65651,1,0,0:0:0
492,156,65937,1,0,0:0:0
456,220,66080,1,0,0:0:0
392,248,66222,1,0,0:0:0
336,296,66365,6,0,P|264:344|176:356,1,159.999990463257
120,344,66794,2,0,P|64:304|56:264,1,79.9999952316285
52,224,67080,1,0,0:0:0
88,160,67222,1,0,0:0:0
160,144,67365,1,0,0:0:0
232,140,67508,6,0,P|255:101|257:67,1,79.9999952316285
228,0,67794,2,0,P|140:20|84:92,1,159.999990463257
76,140,68222,1,0,0:0:0
96,208,68365,1,0,0:0:0
160,240,68508,1,0,0:0:0
232,240,68651,5,0,0:0:0
356,164,68937,2,0,P|368:68|424:24,1,159.999990463257
436,96,69365,1,0,0:0:0
428,168,69508,1,0,0:0:0
452,236,69651,1,0,0:0:0
436,304,69794,5,0,0:0:0
248,340,70080,2,0,P|184:256,1,79.9999952316285
224,208,70365,1,0,0:0:0
276,156,70508,2,0,P|192:92,1,79.9999952316285
24,152,70937,5,0,0:0:0
64,212,71080,1,0,0:0:0
120,256,71222,2,0,P|140:172|196:104,1,159.999990463257
252,96,71651,1,0,0:0:0
316,68,71794,1,0,0:0:0
384,40,71937,1,0,0:0:0
456,24,72080,6,0,P|488:128,1,79.9999952316285
424,144,72365,2,0,P|456:248,1,79.9999952316285,0|0,0:0|0:0,0:0:0
384,256,72651,1,0,0:0:0
320,292,72794,2,0,P|280:168,1,79.9999952316285
232,176,73080,1,0,0:0:0
