osu file format v5

[General]
AudioFilename: BeatMania IIDX (Happy Sky) - Agnus Dei.mp3
AudioLeadIn: 0
PreviewTime: -1
Countdown: 1
SampleSet: Normal
StackLeniency: 0.2
Mode: 0
LetterboxInBreaks: 1
EditorBookmarks: 34047,70816

[Metadata]
Title:Agnus Dei
Artist:Asaki
Creator:lesjuh
Version:Normal
Source:Beatmania IIDX
Tags:beatmania agnus dei another happy sky lesjuh asaki

[Difficulty]
HPDrainRate:4
CircleSize:4
OverallDifficulty:4
SliderMultiplier:1.2
SliderTickRate:2

[Events]
//Background and Video events
0,0,"Melodic_Hands_by_PL0.jpg"
//Break Periods
2,46549,50564
2,59226,64847
2,70652,71817
//Storyboard Layer 0 (Background)
//Storyboard Layer 1 (Failing)
//Storyboard Layer 2 (Passing)
//Storyboard Layer 3 (Foreground)
//Storyboard Sound Samples
//Background Colour Transformations
3,100,163,162,255

[TimingPoints]
9744.79817847556,357.143086053412,4,1,0,80,1
31530,-100,4,1,0,60,0
34030,-100,4,1,0,70,0
51530,-100,4,1,0,60,0
55459,-100,4,1,0,70,0
73121,357.083086053413,4,1,0,80,1
98830,-100,4,1,0,70,0

[Colours]
Combo1 : 210,255,255
Combo2 : 0,0,160

[HitObjects]
256,192,9744,5,4
56,296,10459,6,0,B|192:296,1,120
232,296,10994,1,0
288,296,11173,1,4
384,96,11887,6,0,B|256:96,1,120
152,88,12601,2,0,B|152:224,1,120,4|0
152,264,13137,2,4,B|288:264,1,120
328,264,13673,1,0
440,264,14030,2,0,B|440:120,1,120,4|0
328,144,14744,2,0,B|328:280,1,120,4|0
216,264,15459,1,4
48,136,16173,6,4,B|184:136,1,120
168,192,16709,2,4,B|32:192,1,120
48,248,17244,2,4,B|184:248,1,120
224,248,17780,2,4,B|360:248,1,120
400,248,18316,1,4
256,192,18494,12,4,19744
56,56,21173,6,0,B|200:56,1,120
232,152,21887,2,0,B|96:152,1,120
56,248,22601,2,0,B|200:248,1,120
232,248,23137,1,0
288,248,23316,2,0,B|424:248,1,120
456,144,24030,2,0,B|328:144,1,120
224,144,24744,5,0
320,88,25101,1,0
224,24,25459,1,0
136,88,25816,1,0
136,144,25994,1,0
136,200,26173,1,4
136,256,26351,6,0,B|280:256,1,120
312,256,26887,1,0
424,256,27244,1,0
424,312,27423,2,0,B|288:312,1,120
248,312,27959,1,0
136,312,28316,6,4,B|-8:312,1,120
16,312,28851,2,4,B|16:176,1,120
72,192,29387,1,4
128,192,29566,1,0
184,192,29744,2,4,B|320:192,1,120
416,192,30459,1,4
416,192,30637,1,4
416,192,30816,1,4
400,56,31530,5,0
344,56,31709,1,0
288,56,31887,1,0
176,56,32244,1,0
136,96,32423,1,0
96,136,32601,1,0
16,208,32959,1,0
56,248,33137,1,0
96,288,33316,1,0
208,288,33673,1,0
320,288,34030,6,4,B|408:200,1,120
296,200,34744,1,0
184,200,35101,2,4,B|288:96,1,120
268,115,35816,1,0
376,112,36173,6,0,B|376:192,1,60
376,224,36530,1,0
488,224,36887,2,0,B|488:304,1,60
488,336,37244,1,0
272,280,37959,6,12,B|136:280,1,120
152,168,38673,1,8
208,168,38851,1,0
264,168,39030,1,8
264,56,39387,2,4,B|128:56,1,120,12|4
64,128,40101,2,4,B|64:272,1,120,4|4
152,320,40816,2,4,B|400:320,1,240,0|4
392,208,41887,5,4
168,208,42601,5,0
72,144,42959,1,0
168,88,43316,1,0
216,112,43494,1,0
264,136,43673,1,0
360,80,44030,1,0
408,112,44209,1,0
456,144,44387,1,4
456,144,44744,1,4
456,256,45101,6,0,B|376:256,1,60
336,256,45459,2,0,B|256:256,1,60
216,256,45816,2,4,B|32:256,1,180
72,112,51887,5,0
72,168,52066,1,0
72,224,52244,2,0,B|200:224,1,120
192,168,52780,1,0
192,112,52959,2,0,B|320:112,1,120
424,112,53673,5,0
424,168,53851,1,0
424,224,54030,1,0
312,224,54387,1,0
312,280,54566,1,0
312,336,54744,1,0
200,336,55101,1,0
200,280,55280,1,0
200,224,55459,1,0
200,168,55637,1,0
256,192,55816,12,4,59030
256,192,66173,5,0
256,192,66887,1,0
256,192,67601,1,0
256,192,68316,1,0
168,128,68673,6,4,B|352:128,1,180
352,184,69387,2,4,B|152:184,1,180
172,184,70101,1,4
172,184,70459,1,4
72,176,73121,6,4,B|216:176,1,120
248,176,73656,1,0
304,176,73835,1,0
376,256,74192,6,4,B|248:256,1,120
200,256,74727,1,0
144,256,74906,1,0
64,336,75263,6,4,B|200:336,1,120
240,336,75799,1,0
296,336,75977,1,0
352,336,76156,1,0
408,336,76334,2,0,B|488:336,6,60,0|0|0|0|0|4|4
240,192,78120,1,0
240,192,78477,1,4
56,64,79191,5,0
136,144,79548,1,0
216,64,79905,1,0
296,144,80262,1,0
376,64,80619,1,4
64,192,81690,6,4,B|192:192,1,120
240,192,82226,1,0
296,192,82405,1,4
240,288,82762,2,4,B|368:288,1,120
416,288,83297,1,0
472,288,83476,1,4
480,176,83833,6,4,B|480:40,1,120
424,56,84369,1,0
368,56,84547,1,4
256,56,84904,2,4,B|256:192,1,120
200,176,85440,1,0
144,176,85618,1,4
144,288,85975,5,0
200,288,86154,1,4
256,288,86333,2,4,B|336:288,2,60
256,176,87047,1,0
200,176,87225,1,4
144,176,87404,2,4,B|72:176,2,60
144,64,88118,5,0
200,64,88297,1,4
256,64,88475,2,4,B|400:64,1,120
432,64,89011,1,0
432,120,89189,2,4,B|432:248,1,120
432,240,89725,1,4
432,240,89903,1,0
360,320,90260,6,4,B|232:320,1,120
184,320,90796,1,0
128,320,90975,1,0
128,208,91332,2,0,B|264:208,2,120
128,96,92403,2,4,B|272:96,1,120
304,96,92939,1,0
360,96,93117,1,0
440,168,93474,2,0,B|440:304,2,120
328,168,94545,5,0
272,168,94724,1,0
216,168,94903,1,4
160,168,95081,1,0
104,168,95260,1,0
104,280,95617,5,0
160,280,95795,1,0
216,280,95974,1,4
272,280,96152,1,0
328,280,96331,1,0
416,216,96688,5,0
360,216,96867,1,0
304,216,97045,1,4
248,216,97224,1,0
192,216,97402,1,0
256,128,97759,6,0,B|256:80,8,30
256,240,98830,6,0,B|192:240,1,60
152,280,99188,2,0,B|152:352,1,60
208,344,99545,2,0,B|288:344,1,60
320,344,99902,2,0,B|320:256,1,60
256,192,101703,5,4
256,192,101732,12,4,103294
256,192,103935,5,4
256,192,103964,12,4,106508
256,192,107713,5,4
