osu file format v5

[General]
AudioFilename: BeatMania IIDX (Happy Sky) - Agnus Dei.mp3
AudioLeadIn: 0
PreviewTime: -1
Countdown: 1
SampleSet: Normal
StackLeniency: 0.2
Mode: 0
LetterboxInBreaks: 1
EditorBookmarks: 34047,70816

[Metadata]
Title:Agnus Dei
Artist:Asaki
Creator:lesjuh
Version:Easy
Source:Beatmania IIDX
Tags:beatmania agnus dei another happy sky lesjuh asaki

[Difficulty]
HPDrainRate:2
CircleSize:4
OverallDifficulty:2
SliderMultiplier:1.2
SliderTickRate:2

[Events]
//Background and Video events
0,0,"Melodic_Hands_by_PL0.jpg"
//Break Periods
2,46551,50567
2,59230,64853
2,70659,71801
//Storyboard Layer 0 (Background)
//Storyboard Layer 1 (Failing)
//Storyboard Layer 2 (Passing)
//Storyboard Layer 3 (Foreground)
//Storyboard Sound Samples
//Background Colour Transformations
3,100,163,162,255

[TimingPoints]
9744.79817847556,357.143086053412,4,1,0,80,1
31530,-100,4,1,0,60,0
37959,-100,4,1,0,70,0
50459,-100,4,1,0,60,0
55816,-100,4,1,0,70,0
73121,357.083086053413,4,1,0,80,1
98830,-100,4,1,0,60,0

[Colours]
Combo1 : 210,255,255
Combo2 : 0,0,160

[HitObjects]
256,192,9744,5,4
56,296,10459,6,0,B|192:296,1,120
296,296,11173,1,4
376,64,11887,6,0,B|128:64,1,240,0|0
136,248,13137,2,4,B|320:248,1,180,0|0
440,248,14030,1,4
256,80,14744,2,0,B|176:80,4,60,0|0|0|0|4
80,248,16173,6,4,B|288:248,1,180
432,184,17244,2,4,B|232:184,1,180
64,184,18316,1,4
256,192,18494,12,4,19744
56,112,21173,6,0,B|200:112,1,120
296,112,21887,1,0
296,112,22244,1,0
296,232,22601,2,0,B|160:232,1,120
176,352,23316,2,0,B|320:352,1,120
416,352,24030,1,0
416,232,24387,1,0
416,112,24744,6,0,B|480:112,2,60
296,112,25459,2,0,B|216:112,4,60
296,232,26530,6,0,B|152:232,1,120,4|0
56,232,27244,1,0
56,352,27601,1,0
176,352,27959,1,0
176,352,28137,1,0
176,352,28316,2,4,B|312:352,1,120
352,352,28851,1,0
256,272,29209,2,0,B|256:192,3,60,0|4|0|4
256,56,30459,1,4
256,56,30637,1,4
256,56,30816,1,4
56,192,31530,6,0,B|152:288,1,120
240,352,32244,2,0,B|336:256,1,120
232,184,32959,1,0
136,104,33316,2,0,B|80:48,4,60
256,104,34387,1,0
376,104,34744,1,0
376,224,35101,1,0
256,224,35459,1,0
256,224,35637,1,0
256,224,35816,1,0
168,144,36173,6,0,B|168:288,1,120
64,200,36887,2,0,B|64:328,1,120
304,320,37959,6,0,B|408:216,1,120,4|0
272,200,38673,1,8
272,200,38851,1,0
272,200,39030,1,8
232,80,39387,2,0,B|128:184,1,120
152,288,40101,2,8,B|416:288,1,240,4|4
256,80,41887,5,4
40,192,42601,5,0
160,192,42959,1,0
280,192,43316,1,0
280,192,43494,1,0
280,192,43673,1,0
400,192,44030,1,0
336,88,44387,1,4
216,88,44744,1,4
280,192,45101,6,0,B|280:280,4,60,0|0|0|0|4
280,192,46351,5,4
72,112,51887,5,0
72,232,52244,1,0
192,232,52601,1,0
192,112,52959,1,0
192,112,53137,1,0
192,112,53316,1,0
312,112,53673,2,0,B|360:64,2,60
312,232,54387,2,0,B|368:176,2,60
224,312,55101,1,0
224,312,55280,1,0
224,312,55459,1,0
256,192,55816,12,4,59030
256,192,66173,5,0
256,192,66887,1,0
256,192,67601,1,0
256,192,68316,1,0
136,192,68673,6,4,B|408:192,1,240
256,288,70101,1,4
256,288,70459,1,4
80,104,73121,6,4,B|224:104,1,120
320,104,73835,1,0
392,200,74192,6,4,B|264:200,1,120
152,200,74906,1,0
80,296,75263,6,4,B|216:296,1,120
320,296,75977,1,0
256,192,76334,2,0,B|256:128,6,60,0|0|0|0|0|0|4
256,192,78120,1,4
256,192,78477,1,4
72,192,79191,5,0
192,192,79548,1,0
312,192,79905,1,0
432,192,80262,1,0
432,192,80619,1,4
64,192,81690,6,4,B|192:192,1,120
296,192,82405,1,4
208,280,82762,2,4,B|336:280,1,120
448,280,83476,1,4
392,168,83833,6,4,B|392:32,1,120
272,48,84547,1,4
152,48,84904,2,4,B|152:184,1,120
272,168,85618,1,4
272,288,85975,5,0
272,288,86154,1,0
272,288,86333,2,0,B|272:360,2,60,0|4|0
272,168,87047,1,0
272,168,87225,1,0
272,168,87404,2,0,B|272:96,2,60,0|4|0
328,64,88118,6,0,B|192:64,2,120
448,64,89189,5,4
448,184,89546,1,4
448,304,89903,1,0
328,304,90260,6,4,B|192:304,1,120,4|0
208,304,90796,1,4
208,304,90975,1,0
208,184,91332,2,0,B|344:184,2,120
208,64,92403,6,4,B|352:64,1,120
328,64,92939,1,4
328,64,93117,1,0
416,144,93474,2,0,B|416:280,2,120
296,144,94545,5,0
296,144,94724,1,0
296,144,94903,1,0
296,144,95081,1,0
296,144,95260,1,4
176,144,95617,5,4
176,144,95795,1,0
176,144,95974,1,0
176,144,96152,1,0
176,144,96331,1,0
240,248,96688,6,0,B|240:312,4,60
240,128,97759,1,4
184,232,98116,1,4
304,232,98473,1,4
248,336,98830,5,4
248,336,99188,1,0
248,336,99545,1,0
248,336,99902,1,0
248,336,100080,1,0
256,192,101703,5,4
256,192,101732,12,4,103294
256,192,103935,5,4
256,192,103964,12,4,106508
256,192,107713,5,4
