osu file format v5

[General]
AudioFilename: BeatMania IIDX (Happy Sky) - Agnus Dei.mp3
AudioLeadIn: 0
PreviewTime: -1
Countdown: 1
SampleSet: Normal
StackLeniency: 0.2
Mode: 0
LetterboxInBreaks: 1
EditorBookmarks: 34047,70816

[Metadata]
Title:Agnus Dei
Artist:Asaki
Creator:lesjuh
Version:Another
Source:Beatmania IIDX
Tags:beatmania agnus dei another happy sky lesjuh asaki

[Difficulty]
HPDrainRate:6
CircleSize:5
OverallDifficulty:8
SliderMultiplier:1.6
SliderTickRate:2

[Events]
//Background and Video events
0,0,"Melodic_Hands_by_PL0.jpg"
//Break Periods
2,60297,65267
2,70652,72237
//Storyboard Layer 0 (Background)
//Storyboard Layer 1 (Failing)
//Storyboard Layer 2 (Passing)
//Storyboard Layer 3 (Foreground)
//Storyboard Sound Samples
//Background Colour Transformations
3,100,163,162,255

[TimingPoints]
9745,357.142857142857,4,1,0,80,1
51887,-100,4,1,0,60,0
55459,-100,4,1,0,80,0
73121,357.083086053413,4,1,0,80,1
98830,-100,4,1,0,60,0

[Colours]
Combo1 : 210,255,255
Combo2 : 0,0,160

[HitObjects]
256,192,9745,5,4
56,336,10459,5,0
128,336,10637,1,0
128,336,10727,1,0
128,336,10816,1,0
200,336,10995,1,0
272,336,11173,1,4
440,96,11887,5,0
368,96,12066,1,0
368,96,12155,1,0
368,96,12244,1,0
328,96,12334,1,0
296,96,12423,1,0
224,96,12602,2,0,B|224:296,1,160,4|0
224,328,13137,2,4,B|416:328,1,160
384,256,13673,1,0
312,256,13852,1,0
240,256,14030,2,0,B|240:64,1,160,4|0
312,96,14566,1,0
384,96,14744,2,0,B|384:288,1,160,4|0
344,312,15280,1,0
344,312,15459,1,4
104,168,16173,6,4,B|280:168,1,160
264,200,16619,1,0
264,232,16709,2,4,B|96:232,1,160
104,264,17155,1,0
104,296,17244,2,4,B|280:296,1,160
296,296,17691,1,0
328,296,17780,2,4,B|520:296,1,160
488,296,18316,1,0
256,192,18494,12,4,19744
256,240,20459,5,0
256,240,20548,1,0
256,240,20637,1,0
256,240,20816,1,0
256,240,20994,1,0
256,168,21173,6,0,B|256:48,1,80
328,88,21530,1,0
376,136,21709,1,0
328,184,21887,1,0
376,232,22066,1,0
328,280,22244,1,0
272,320,22423,1,0
200,320,22602,1,0
144,272,22780,1,0
88,224,22959,1,0
88,152,23137,1,0
144,192,23316,1,0
208,160,23494,1,0
264,192,23673,1,0
328,160,23852,1,0
392,192,24030,5,0
456,160,24209,1,0
392,128,24387,1,0
328,96,24566,1,0
264,128,24744,2,0,B|264:40,1,80
192,48,25102,2,0,B|192:144,1,80
120,128,25459,2,0,B|120:40,1,80
48,48,25816,1,0
48,120,25994,1,0
48,192,26173,1,0
120,192,26352,6,0,B|168:192|168:256,1,80
96,256,26709,2,0,B|48:272|80:344,1,80
144,328,27066,2,0,B|152:376|208:360,1,80
216,288,27423,2,0,B|264:264|280:352,1,80
344,320,27780,2,0,B|392:320|392:240,1,80
400,192,28137,1,0
328,192,28316,6,4,B|272:152|216:224|160:184,1,160
176,192,28852,2,4,B|134:225|78:153|22:193,1,160
40,264,29387,1,0
40,336,29566,1,0
112,336,29744,2,4,B|184:336|232:312|216:208,1,160
288,248,30280,1,4
288,176,30459,1,4
288,176,30548,1,4
288,176,30637,1,4
216,168,30816,2,4,B|229:104|181:80|109:80,1,160
112,152,31352,5,0
56,200,31530,1,8
112,248,31709,1,0
56,296,31887,1,0
112,344,32066,1,0
168,296,32244,1,8
224,344,32423,1,0
280,296,32602,1,0
224,248,32780,1,0
224,176,32959,1,8
192,112,33137,1,0
264,112,33316,1,8
120,112,33673,1,12
120,256,34030,6,0,B|176:256|232:216|216:128,1,160,4|0
144,152,34566,1,0
72,152,34744,1,0
72,80,34923,1,0
144,80,35102,2,0,B|200:80|256:120|240:208,1,160
240,256,35637,1,0
240,328,35816,1,0
240,184,36173,6,0,B|136:128,1,80
240,136,36530,2,0,B|320:104,1,80
240,88,36887,2,0,B|152:40,2,80
408,320,37959,5,4
408,320,38048,1,0
408,320,38137,1,0
336,320,38316,1,8
280,272,38495,1,0
224,320,38673,1,8
168,272,38852,1,0
104,304,39030,1,8
104,304,39120,1,0
104,304,39209,1,0
112,232,39387,5,12
112,232,39477,1,0
112,232,39566,1,0
168,272,39745,1,8
224,224,39923,1,0
280,272,40102,1,8
336,224,40280,1,0
392,272,40459,1,12
392,272,40548,1,0
392,272,40637,1,0
448,224,40816,1,12
448,224,40905,1,0
448,224,40995,1,0
392,168,41173,1,8
392,96,41352,1,0
392,96,41530,1,12
248,96,41887,6,4,B|168:80|72:120|32:208|40:320,1,320
112,280,42780,1,0
184,280,42959,2,0,B|296:280,1,80
336,280,43316,2,0,B|272:216,1,80
208,216,43673,2,0,B|280:144,1,80
336,152,44030,2,0,B|256:72,1,80
208,96,44387,1,4
64,96,44745,1,4
64,240,45102,5,0
136,240,45280,1,0
136,240,45370,1,0
136,240,45459,1,0
208,240,45637,1,0
280,240,45816,2,4,B|280:112|400:112|400:272,1,240
288,336,46709,5,0
360,336,46887,1,0
432,336,47066,1,0
392,272,47245,2,0,B|296:272|320:184|408:208,1,160
464,200,47780,2,0,B|560:192|536:104|448:128,1,160
392,128,48316,5,0
320,128,48495,2,0,B|216:128,1,80
168,128,48852,1,0
96,128,49030,1,0
96,128,49120,1,0
96,128,49209,1,0
48,184,49387,1,0
96,240,49566,1,0
96,240,49655,1,0
96,240,49745,1,0
168,240,49923,1,0
240,240,50102,2,4,B|256:328|304:320|320:232,1,160
392,240,50637,1,0
256,72,51173,5,0
256,72,51262,1,0
256,72,51352,1,0
256,72,51441,1,0
256,72,51530,1,0
256,296,51887,5,0
192,256,52066,1,4
128,216,52245,1,0
88,272,52423,1,0
144,312,52602,1,0
192,256,52780,1,4
232,192,52959,1,0
280,136,53137,1,0
336,176,53316,1,0
288,232,53495,1,4
360,232,53673,2,0,B|400:256|456:232,1,80
488,184,54030,2,0,B|424:208|384:176,1,80
360,136,54387,2,0,B|408:152|448:128,1,80
488,80,54745,2,0,B|440:112|400:88,1,80
360,48,55102,1,0
304,96,55280,1,4
248,48,55459,1,0
192,96,55637,1,4
136,144,55816,5,0
136,144,55905,1,0
136,144,55995,1,0
192,184,56173,1,0
192,184,56262,1,0
192,184,56352,1,0
136,224,56530,5,0
136,224,56620,1,0
136,224,56709,1,0
192,264,56887,1,0
192,264,56977,1,0
192,264,57066,1,0
136,312,57245,5,0
136,312,57334,1,0
136,312,57423,1,0
192,352,57602,1,0
192,352,57691,1,0
192,352,57780,1,0
248,312,57959,5,0
304,264,58137,1,0
360,216,58316,2,0,B|432:80|264:0|160:104,1,320,0|4
256,192,59745,5,0
256,192,59834,1,0
256,192,59923,1,0
256,192,60012,1,0
256,192,60102,1,0
256,192,66173,5,0
256,192,66887,1,0
256,192,67423,1,0
256,192,67780,1,0
256,192,68137,1,0
256,192,68227,1,0
256,192,68316,1,0
112,192,68673,6,4,B|112:368|280:368,1,240
280,368,69298,1,0
312,368,69387,2,4,B|441:371|441:195,1,240
440,168,70012,1,4
440,128,70102,1,0
296,128,70459,1,4
160,72,73121,5,4
304,72,73478,1,0
368,104,73656,1,0
384,176,73835,1,0
336,232,74013,1,0
264,240,74192,1,4
264,168,74370,5,0
192,192,74549,1,0
176,264,74727,1,0
216,320,74906,1,0
280,344,75084,1,0
344,312,75263,6,4,B|344:208,1,80
408,264,75620,2,0,B|408:152,1,80
408,112,75977,1,0
336,112,76156,1,0
264,112,76334,1,0
264,112,76424,1,0
264,112,76513,1,0
192,88,76691,1,0
192,88,76781,1,0
192,88,76870,1,0
128,56,77048,1,0
128,56,77138,1,0
128,56,77227,1,0
128,128,77405,6,0,B|-8:136|-24:304|144:312,1,320
280,312,78477,2,0,B|416:304|432:136|264:128,1,320
136,192,79548,1,0
280,192,79905,1,0
136,192,80262,1,0
280,192,80619,1,0
48,192,81690,5,0
136,192,81869,1,0
136,192,81958,1,0
136,192,82048,1,0
224,192,82226,2,0,B|272:144,2,40
312,192,82583,1,0
312,192,82672,1,0
312,192,82762,2,0,B|424:192,1,80
384,280,83119,2,0,B|288:280,1,80
240,344,83476,2,0,B|120:344,1,80
72,344,83833,5,0
128,272,84012,1,0
128,272,84101,1,0
128,272,84190,1,0
72,208,84369,2,0,B|16:208,2,40
128,136,84726,1,0
128,136,84815,1,0
128,136,84904,2,0,B|248:136,1,80
240,216,85261,2,0,B|344:216,1,80
360,296,85618,2,0,B|472:296,1,80
448,208,85975,5,0
496,136,86154,1,0
496,136,86243,1,0
496,136,86333,1,0
448,56,86511,2,0,B|448:0,2,40
400,136,86868,1,0
400,136,86957,1,0
400,136,87047,2,0,B|296:136,1,80
232,136,87404,1,0
144,136,87582,2,0,B|56:136,1,80
64,224,87939,1,0
64,312,88118,5,0
152,312,88297,2,0,B|152:248,2,40
240,312,88654,1,0
240,312,88743,1,0
240,312,88832,1,0
328,312,89011,1,0
416,312,89189,1,0
416,312,89279,1,0
416,312,89368,1,0
504,312,89546,1,0
464,232,89725,1,0
464,232,89814,1,0
464,232,89903,1,0
464,144,90082,1,0
464,56,90260,5,0
384,96,90439,1,0
384,96,90528,1,0
384,96,90618,1,0
296,96,90796,2,0,B|296:48,2,40
208,96,91153,1,0
208,96,91242,1,0
208,96,91332,1,0
120,96,91510,1,0
120,184,91689,1,0
208,184,91867,1,0
296,184,92046,2,0,B|368:184|376:240|352:272|280:272,1,160
216,272,92582,5,0
216,272,92671,1,0
216,272,92760,1,0
128,280,92939,2,0,B|128:328,2,40
40,280,93296,1,0
40,280,93385,1,0
40,280,93474,1,0
88,200,93653,1,0
136,120,93831,1,0
48,120,94010,1,0
88,200,94188,2,0,B|136:136|184:248|248:176,1,160
320,184,94724,5,0
320,184,94813,1,0
320,184,94903,1,0
408,184,95081,2,0,B|456:184,2,40
360,112,95438,1,0
360,112,95527,1,0
360,112,95617,1,0
280,72,95795,1,0
200,24,95974,1,0
136,88,96152,1,0
48,96,96331,2,0,B|48:296,1,160
48,344,96867,5,0
120,296,97045,1,0
200,344,97224,1,0
272,296,97402,1,0
352,344,97581,1,0
424,296,97759,1,0
424,296,97849,1,0
424,296,97938,1,0
352,240,98116,1,0
272,192,98295,1,0
352,144,98473,1,0
352,56,98652,1,0
288,120,98830,6,0,B|208:200,1,80
232,264,99188,2,0,B|160:336,1,80
88,320,99545,1,0
128,240,99723,1,0
128,152,99902,1,0
128,64,100080,1,0
256,192,101703,5,4
256,192,101732,12,4,103294
256,192,103935,5,4
256,192,103964,12,4,105437
256,192,106597,5,0
256,192,106686,1,0
256,192,106775,1,0
256,192,107713,5,4
