osu file format v11

[General]
AudioFilename: Bleach ED - Mad Surfer.mp3
AudioLeadIn: 1500
PreviewTime: 29914
Countdown: 0
SampleSet: Soft
StackLeniency: 0.7
Mode: 0
LetterboxInBreaks: 0

[Editor]
DistanceSpacing: 1
BeatDivisor: 4
GridSize: 4

[Metadata]
Title:Mad Surfer (TV Size)
TitleUnicode:Mad Surfer (TV Size)
Artist:Asai Kenichi
ArtistUnicode:Asai Kenichi
Creator:Kuroneko-sHerald
Version:Mad lovhin
Source:BLEACH
Tags:ending lovhin456
BeatmapID:187465
BeatmapSetID:17079

[Difficulty]
HPDrainRate:7
CircleSize:4
OverallDifficulty:7
ApproachRate:8
SliderMultiplier:1.7
SliderTickRate:2

[Events]
//Background and Video events
0,0,"Bleach ed bg.jpg"
Video,-500,"Bleach ED - Mad Surfer.avi"
//Break Periods
//Storyboard Layer 0 (Background)
//Storyboard Layer 1 (Fail)
//Storyboard Layer 2 (Pass)
//Storyboard Layer 3 (Foreground)
//Storyboard Sound Samples
//Background Colour Transformations
3,100,163,162,255

[TimingPoints]
505,454.545454545455,4,2,1,50,1,0
4141,-100,4,2,1,80,0,0
29823,-100,4,2,1,30,0,0
31414,-100,4,2,1,100,0,1
45959,-100,4,2,1,100,0,0
64368,-100,4,2,1,80,0,0
65959,-100,4,2,1,100,0,1
87777,-100,4,2,1,100,0,0

[Colours]
Combo1 : 239,33,64
Combo2 : 64,186,200
Combo3 : 167,235,27
Combo4 : 252,184,24
Combo5 : 172,57,138

[HitObjects]
296,324,505,2,0,B|344:308|344:256,1,85,2|0,0:0|0:0,0:0:0
216,324,959,2,0,B|168:308|168:256,3,85,2|0|2|0,0:0|0:0|0:0|0:0,0:0:0
112,100,2095,2,0,B|196:100|216:216,1,170,2|0,0:0|0:0,0:0:0
300,212,2777,2,0,B|319:97|403:97,1,170,2|2,0:0|0:0,0:0:0
340,40,3459,1,0,0:0:0
256,36,3686,1,2,0:0:0
172,40,3914,1,0,0:0:0
112,100,4141,5,4,0:0:0
144,180,4368,2,0,B|168:224|216:212,1,85,0|8,0:0|0:0,0:0:0
368,180,4823,2,0,B|344:224|296:212,2,85
256,288,5505,1,0,0:0:0
256,288,5732,2,0,B|256:372,1,85
256,288,6186,6,0,B|256:204,1,85,0|8,0:0|0:0,0:0:0
312,136,6641,1,0,0:0:0
340,56,6868,1,8,0:0:0
200,136,7095,1,0,0:0:0
172,56,7322,1,8,0:0:0
256,60,7550,1,0,0:0:0
256,60,7777,1,4,0:0:0
220,228,8232,6,0,B|280:316|388:144|448:228,1,255
447,227,9141,2,0,B|479:267|455:307,1,85,0|2,0:0|0:0,0:0:0
296,156,9823,6,0,B|236:68|128:240|68:156,1,255
68,156,10732,1,0,0:0:0
68,156,10959,2,0,B|35:115|59:75,1,85,0|2,0:0|0:0,0:0:0
212,152,11641,6,0,B|296:152,1,85
300,236,12095,2,0,B|212:236,1,85
148,288,12550,1,0,0:0:0
256,324,12777,1,0,0:0:0
364,288,13005,1,0,0:0:0
364,288,13232,5,4,0:0:0
300,236,13459,2,0,B|336:152,1,85,0|8,0:0|0:0,0:0:0
300,80,13914,2,0,B|376:40,2,85
212,236,14595,2,0,B|176:152,1,85,8|0,0:0|0:0,0:0:0
196,120,14936,1,8,0:0:0
212,80,15050,2,0,B|136:40,2,85,0|0|8,0:0|0:0|0:0,0:0:0
300,80,15732,2,0,B|376:40,2,85,0|8|0,0:0|0:0|0:0,0:0:0
340,156,16414,5,8,0:0:0
256,328,16641,1,0,0:0:0
172,156,16868,1,4,0:0:0
40,264,17323,6,0,B|64:312|112:296,1,85,8|0,0:0|0:0,0:0:0
176,348,17777,2,0,B|220:304|196:220|140:212,1,170,0|8,0:0|0:0,0:0:0
140,212,18459,1,2,0:0:0
216,60,18914,2,0,B|256:84|296:60,1,85,0|8,0:0|0:0,0:0:0
296,59,19368,1,0,0:0:0
380,40,19595,2,0,B|352:100|440:152|480:92,1,170,0|8,0:0|0:0,0:0:0
480,91,20277,1,2,0:0:0
472,264,20959,6,0,B|448:312|400:296,1,85,8|0,0:0|0:0,0:0:0
336,348,21413,2,0,B|292:304|316:220|372:212,1,170,0|8,0:0|0:0,0:0:0
372,212,22095,1,0,0:0:0
296,60,22550,2,0,B|256:84|216:60,1,85,0|8,0:0|0:0,0:0:0
215,59,23004,1,0,0:0:0
132,40,23231,2,0,B|160:100|72:152|32:92,1,170,0|8,0:0|0:0,0:0:0
31,91,23913,1,2,0:0:0
31,91,24141,1,4,0:0:0
68,256,24595,5,8,0:0:0
68,256,24823,1,0,0:0:0
68,256,25050,2,0,B|112:196|196:252|168:312,1,170,0|8,0:0|0:0,0:0:0
168,310,25732,1,2,0:0:0
336,332,26186,1,0,0:0:0
420,324,26414,1,8,0:0:0
480,264,26641,1,0,0:0:0
396,244,26868,2,0,B|364:188|428:124|488:168,1,170,0|8,0:0|0:0,0:0:0
487,167,27550,1,2,0:0:0
256,64,28232,6,0,B|188:112,1,85,8|0,0:0|0:0,0:0:0
116,246,28686,2,0,B|186:197,1,85
116,331,29141,2,0,B|48:379,1,85,8|0,0:0|0:0,0:0:0
186,197,29595,1,0,0:0:0
272,196,29823,6,0,B|328:244|408:136|432:184,1,170
428,264,30505,1,2,0:0:0
428,96,30732,1,0,0:0:0
428,264,30959,1,2,0:0:0
428,96,31186,1,0,0:0:0
272,196,31414,5,4,0:0:0
236,120,31641,2,0,B|228:72|184:60,1,85,0|8,0:0|0:0,0:0:0
100,80,32095,1,0,0:0:0
36,136,32323,1,0,0:0:0
20,220,32550,1,0,0:0:0
48,300,32777,1,8,0:0:0
120,344,33005,2,0,B|164:368|200:332,1,85
252,268,33459,6,0,B|304:284|316:320,1,85,0|8,0:0|0:0,0:0:0
461,265,33914,2,0,B|420:276|400:320,1,85
352,252,34368,1,0,0:0:0
380,172,34595,1,8,0:0:0
336,100,34823,1,0,0:0:0
392,36,35050,6,0,B|352:8|312:16,1,85
175,96,35505,2,0,B|204:72|256:80,1,85,8|0,0:0|0:0,0:0:0
80,204,35959,2,0,B|112:176|160:180,1,85
32,324,36414,2,0,B|52:288|104:284,1,85,8|0,0:0|0:0,0:0:0
104,368,36868,1,0,0:0:0
176,324,37095,2,0,B|232:344|296:296|300:212|220:200|196:276|248:320|320:304|336:280,2,255
323,290,38686,5,4,0:0:0
392,344,38914,2,0,B|436:312|428:272,1,85,0|8,0:0|0:0,0:0:0
476,204,39368,2,0,B|476:156|432:128,1,85
396,56,39823,2,0,B|360:24|312:48,1,85,0|8,0:0|0:0,0:0:0
260,108,40277,2,0,B|292:144|336:128,1,85
316,212,40732,6,0,B|244:272|292:332|336:280|296:232|264:208|160:256,1,255
96,204,41641,1,0,0:0:0
140,132,41868,1,8,0:0:0
84,68,42095,1,0,0:0:0
140,132,42323,2,0,B|96:204,1,85
32,264,42777,2,0,B|80:336,1,85,8|0,0:0|0:0,0:0:0
203,366,43232,2,0,B|156:296,1,85
108,224,43686,1,8,0:0:0
256,192,44141,12,4,45959,0:0:0
216,52,46414,5,8,0:0:0
300,52,46641,1,0,0:0:0
352,120,46868,1,0,0:0:0
300,188,47095,1,0,0:0:0
216,188,47323,1,8,0:0:0
164,120,47550,1,0,0:0:0
300,188,48005,6,0,B|360:256,1,85,0|8,0:0|0:0,0:0:0
216,188,48459,2,0,B|156:256,1,85
348,120,48914,2,0,B|432:120,1,85,8|4,0:0|0:0,0:0:0
164,120,49368,2,0,B|80:120,1,85,0|8,0:0|0:0,0:0:0
472,284,50050,6,0,B|444:344|356:360|292:308|300:232,1,255,8|0,0:0|0:0,0:0:0
299,231,50959,1,8,0:0:0
299,231,51186,1,2,0:0:0
148,308,51641,1,0,0:0:0
80,256,51868,1,8,0:0:0
160,228,52095,1,0,0:0:0
148,308,52323,1,0,0:0:0
80,256,52550,1,0,0:0:0
96,172,52777,2,0,B|112:120|72:92,1,85,8|2,0:0|0:0,0:0:0
240,48,53459,6,0,B|328:48,1,85,0|8,0:0|0:0,0:0:0
476,124,54141,2,0,B|392:124,1,85
391,124,54595,1,8,0:0:0
391,124,54823,1,2,0:0:0
372,292,55277,1,0,0:0:0
372,292,55505,2,0,B|320:240|260:316|204:252,1,170,8|0,0:0|0:0,0:0:0
264,192,56186,1,8,0:0:0
348,180,56414,2,0,P|392:108,1,85,8|2,0:0|0:0,0:0:0
348,180,56868,1,4,0:0:0
228,52,57323,6,0,B|232:112|176:152|108:132,1,170,8|0,0:0|0:0,0:0:0
136,52,58005,1,0,0:0:0
136,52,58232,2,0,B|80:28|16:64|20:132,1,170,8|0,0:0|0:0,0:0:0
40,300,59141,2,0,B|108:352,2,85,8|0|0,0:0|0:0|0:0,0:0:0
104,244,59823,2,0,B|172:300,1,85,0|8,0:0|0:0,0:0:0
216,228,60277,1,2,0:0:0
276,288,60505,1,0,0:0:0
344,340,60732,2,0,B|392:324|400:280,1,85,0|8,0:0|0:0,0:0:0
340,220,61186,2,0,B|372:184|416:196,1,85
468,128,61641,2,0,B|424:112|420:64,2,85,0|8|0,0:0|0:0|0:0,0:0:0
416,196,62323,5,0,0:0:0
356,136,62550,1,0,0:0:0
272,140,62777,1,8,0:0:0
212,80,63005,1,0,0:0:0
292,56,63232,1,8,0:0:0
272,140,63459,1,0,0:0:0
196,180,63686,1,8,0:0:0
116,156,63914,1,8,0:0:0
116,72,64368,6,0,B|12:56|-20:168|-16:268|112:248|180:348|84:392|-44:360|40:176|124:280|184:324|228:288,1,510
380,228,65959,5,4,0:0:0
448,276,66186,2,0,B|472:236|452:192,1,85,0|8,0:0|0:0,0:0:0
388,140,66641,2,0,B|336:136|312:172,1,85
304,256,67095,2,0,B|320:296|368:308,1,85,0|8,0:0|0:0,0:0:0
448,276,67550,2,0,B|472:236|452:192,1,85
388,140,68005,5,0,0:0:0
444,76,68232,1,8,0:0:0
308,180,68459,1,0,0:0:0
316,96,68686,1,0,0:0:0
260,256,68914,1,0,0:0:0
228,180,69141,1,8,0:0:0
260,256,69368,1,0,0:0:0
228,180,69595,5,4,0:0:0
180,108,69823,2,0,B|112:56,1,85,0|8,0:0|0:0,0:0:0
96,140,70277,2,0,B|20:104,1,85
32,188,70732,2,0,B|100:240,1,85,0|8,0:0|0:0,0:0:0
28,284,71186,2,0,B|84:352,1,85
160,312,71641,5,0,0:0:0
180,228,71868,1,8,0:0:0
240,340,72095,1,0,0:0:0
256,212,72323,1,8,0:0:0
316,372,72550,1,0,0:0:0
336,204,72777,1,8,0:0:0
308,284,73005,1,0,0:0:0
476,288,73232,5,4,0:0:0
460,204,73459,2,0,B|452:156|480:124,1,85,0|8,0:0|0:0,0:0:0
396,124,73914,2,0,B|396:72|360:48,1,85
304,112,74368,2,0,B|264:140|224:120,1,85,0|8,0:0|0:0,0:0:0
200,40,74823,2,0,B|152:64|148:108,1,85
72,136,75277,5,0,0:0:0
20,204,75505,1,8,0:0:0
104,212,75732,1,0,0:0:0
20,204,75959,1,0,0:0:0
56,280,76186,1,0,0:0:0
104,212,76414,1,8,0:0:0
140,288,76641,1,0,0:0:0
184,216,76868,5,4,0:0:0
264,192,77095,2,0,B|328:132,1,85,0|8,0:0|0:0,0:0:0
308,260,77550,2,0,B|392:228,1,85
320,340,78005,2,0,B|408:352,1,85,0|8,0:0|0:0,0:0:0
460,288,78459,1,4,0:0:0
448,204,78686,2,0,B|464:92|328:84|292:124|328:184|400:160|424:56|300:24,1,340
220,40,79823,1,0,0:0:0
144,76,80050,2,0,B|184:104|180:192|128:228,1,170,8|4,0:0|0:0,0:0:0
60,272,80732,1,0,0:0:0
60,272,80959,2,0,P|40:316|48:352,1,85,8|0,0:0|0:0,0:0:0
132,364,81414,5,0,0:0:0
132,364,81641,1,2,0:0:0
300,344,82095,1,4,0:0:0
416,220,82550,1,0,0:0:0
420,136,82777,1,8,0:0:0
368,68,83005,1,0,0:0:0
288,36,83232,1,0,0:0:0
204,56,83459,1,0,0:0:0
140,112,83686,1,8,0:0:0
60,144,83914,6,0,B|28:224,1,85,0|4,0:0|0:0,0:0:0
192,236,84595,2,0,B|192:324,1,85,8|0,0:0|0:0,0:0:0
348,256,85277,2,0,B|384:336,1,85,0|8,0:0|0:0,0:0:0
256,192,85959,12,8,87323,0:0:0
256,192,87777,5,4,0:0:0
