osu file format v12

[General]
AudioFilename: Bleach ED - Mad Surfer.mp3
AudioLeadIn: 1500
PreviewTime: 29914
Countdown: 0
SampleSet: Normal
StackLeniency: 0.7
Mode: 0
LetterboxInBreaks: 0

[Editor]
DistanceSpacing: 0.8
BeatDivisor: 4
GridSize: 8

[Metadata]
Title:Mad Surfer (TV Size)
TitleUnicode:Mad Surfer (TV Size)
Artist:Asai Kenichi
ArtistUnicode:Asai Kenichi
Creator:Kuroneko-sHerald
Version:Hollow
Source:BLEACH
Tags:ending lovhin456
BeatmapID:146816
BeatmapSetID:17079

[Difficulty]
HPDrainRate:5
CircleSize:4
OverallDifficulty:5
ApproachRate:6
SliderMultiplier:1.4
SliderTickRate:1

[Events]
//Background and Video events
0,0,"Bleach ed bg.jpg",0,0
Video,-500,"Bleach ED - Mad Surfer.avi"
//Break Periods
2,45477,49000
//Storyboard Layer 0 (Background)
//Storyboard Layer 1 (Fail)
//Storyboard Layer 2 (Pass)
//Storyboard Layer 3 (Foreground)
//Storyboard Sound Samples
//Background Colour Transformations
3,100,163,162,255

[TimingPoints]
505,454.545454545455,4,2,0,100,1,0
2550,-100,4,2,0,5,0,0
3800,-100,4,2,0,50,0,0
4141,-100,4,1,0,50,0,0
8232,-100,4,2,0,100,0,0
29823,-100,4,1,0,50,0,1
31414,-100,4,2,0,100,0,1
33459,-100,4,1,0,50,0,1
35050,-100,4,2,0,100,0,1
37095,-100,4,1,0,50,0,1
38686,-100,4,2,0,100,0,1
40732,-100,4,1,0,50,0,1
42323,-100,4,2,0,100,0,1
44141,-100,4,1,0,50,0,1
45505,-100,4,1,0,50,0,0
50050,-100,4,2,0,100,0,0
62323,-100,4,1,0,50,0,0
64368,-100,4,1,0,50,0,1
65959,-100,4,2,0,100,0,1
68005,-100,4,1,0,50,0,1
69595,-100,4,2,0,100,0,1
71641,-100,4,1,0,50,0,1
73232,-100,4,2,0,100,0,1
75277,-100,4,1,0,50,0,1
76868,-100,4,2,0,100,0,1
78914,-100,4,1,0,50,0,1
83005,-100,4,1,0,30,0,1
84368,-100,4,1,0,50,0,1
87777,-100,4,1,0,100,0,0

[HitObjects]
144,328,504,1,4,0:0:0:0:
256,328,959,2,0,B|256:240,3,70
256,144,2095,1,4,0:0:0:0:
256,192,2550,12,0,3686,0:0:0:0:
328,192,4141,5,4,0:0:0:0:
216,192,4595,2,0,B|120:192,3,70
144,80,5732,1,4,0:0:0:0:
256,192,6186,12,4,7777,0:0:0:0:
432,304,8232,6,0,B|384:264|336:304|336:304|288:344|240:304,1,210
440,200,9823,2,0,B|376:152|312:200|312:200|248:256|184:200,1,280
328,32,11641,1,2,0:0:0:0:
288,72,11868,1,0,0:0:0:0:
232,72,12095,1,2,0:0:0:0:
256,120,12323,1,0,0:0:0:0:
256,176,12550,2,0,B|256:272,2,70,2|0|4,0:0|0:0|0:0,0:0:0:0:
256,192,13232,12,6,16868,0:0:0:0:
256,320,17323,6,0,P|384:312|464:192,1,280,0|2,0:0|0:0,0:0:0:0:
304,128,18914,2,0,B|368:184,1,70,2|0,0:0|0:0,0:0:0:0:
248,192,19595,2,0,B|312:248,1,70,2|0,0:0|0:0,0:0:0:0:
88,56,20959,5,4,0:0:0:0:
200,72,21414,2,0,P|128:152|32:152,1,210
184,224,22777,1,0,0:0:0:0:
184,224,23232,2,0,B|224:288,1,70,4|0,0:0|0:0,0:0:0:0:
432,104,24595,6,0,B|408:184|328:184,1,140,0|4,0:0|0:0,0:0:0:0:
256,264,25505,1,0,0:0:0:0:
256,264,26414,1,0,0:0:0:0:
181,183,26868,2,0,B|104:184|80:104,1,140,4|0,0:0|0:0,0:0:0:0:
296,48,28232,5,4,0:0:0:0:
216,128,28686,1,2,0:0:0:0:
256,88,28914,1,0,0:0:0:0:
296,128,29141,1,2,0:0:0:0:
256,168,29368,1,4,0:0:0:0:
160,224,29823,6,0,P|256:264|352:224,2,210,4|0|4,0:0|0:0|0:0,0:0:0:0:
256,96,33459,6,0,B|256:184,1,70,0|4,0:0|0:0,0:0:0:0:
344,96,34141,2,0,B|304:24,1,70
201,34,34823,2,0,B|167:95,1,70,4|0,0:0|0:0,0:0:0:0:
256,288,37095,6,0,B|256:200,1,70,0|4,0:0|0:0,0:0:0:0:
336,144,37777,2,0,B|272:88,1,70
228,97,38232,2,0,B|176:144,1,70,0|4,0:0|0:0,0:0:0:0:
283,48,40732,5,0,0:0:0:0:
227,48,40959,1,4,0:0:0:0:
256,152,41414,1,0,0:0:0:0:
256,264,41868,2,0,B|256:344,1,70,0|4,0:0|0:0,0:0:0:0:
376,192,44368,5,4,0:0:0:0:
208,192,45050,2,0,B|136:192,1,70,0|4,0:0|0:0,0:0:0:0:
160,184,50050,6,0,B|192:256|280:224,1,140,0|4,0:0|0:0,0:0:0:0:
352,192,51641,2,0,B|320:120|232:152,2,140,0|0|4,0:0|0:0|0:0,0:0:0:0:
256,192,53459,12,0,54822,0:0:0:0:
464,144,55505,6,0,P|424:56|312:88,1,210,4|0,0:0|0:0,0:0:0:0:
256,224,56868,1,0,0:0:0:0:
186,314,57323,2,0,P|88:328|48:240,1,210,4|0,0:0|0:0,0:0:0:0:
256,56,59141,2,0,B|256:200,1,140,4|0,0:0|0:0,0:0:0:0:
400,192,60732,5,2,0:0:0:0:
352,168,60959,1,0,0:0:0:0:
304,192,61186,1,2,0:0:0:0:
256,216,61414,1,0,0:0:0:0:
200,192,61641,1,2,0:0:0:0:
152,168,61868,1,0,0:0:0:0:
104,192,62095,1,4,0:0:0:0:
256,192,62323,12,4,63914,0:0:0:0:
272,192,64368,6,0,B|321:241,3,70,0|4|0|0,0:0|0:0|0:0|0:0,0:0:0:0:
256,336,65505,1,0,0:0:0:0:
256,336,65732,1,4,0:0:0:0:
88,192,66641,5,0,0:0:0:0:
40,160,66868,1,2,0:0:0:0:
120,240,67323,1,0,0:0:0:0:
168,272,67550,1,2,0:0:0:0:
240,192,68005,6,0,B|190:142,1,70,0|4,0:0|0:0,0:0:0:0:
256,48,68686,1,0,0:0:0:0:
321,142,69141,2,0,B|272:192,1,70,0|4,0:0|0:0,0:0:0:0:
256,360,70050,6,0,B|256:272,1,70,2|0,0:0|0:0,0:0:0:0:
152,256,70732,1,2,0:0:0:0:
224,192,70959,1,0,0:0:0:0:
96,72,71641,6,0,B|192:0|256:88|320:176|416:104,1,350
415,104,73005,1,4,0:0:0:0:
256,352,73914,6,0,B|256:264,1,70,0|2,0:0|0:0,0:0:0:0:
360,248,74596,1,0,0:0:0:0:
287,186,74823,1,2,0:0:0:0:
424,128,75277,6,0,B|368:184,1,70,0|4,0:0|0:0,0:0:0:0:
336,136,75732,2,0,B|280:192,1,70,0|0,0:0|0:0,0:0:0:0:
248,144,76186,2,0,B|192:200,1,70
160,152,76641,2,0,B|104:208,1,70,4|0,0:0|0:0,0:0:0:0:
144,312,77323,6,0,L|200:270,1,70
312,272,78005,2,0,L|376:320,1,70
360,128,78914,6,0,B|315:74,3,70,0|4|0|0,0:0|0:0|0:0|0:0,0:0:0:0:
200,72,80050,2,0,L|154:126,1,70,0|4,0:0|0:0,0:0:0:0:
256,192,80732,12,4,82778,0:0:0:0:
168,200,83459,6,0,B|208:240|256:256|256:256|304:240|344:200,1,210
256,192,85959,12,4,87322,0:0:0:0:
256,192,87777,5,4,0:0:0:0:
