osu file format v4

[General]
AudioFilename: As One - In The Future.mp3
AudioLeadIn: 0
AudioHash: 2df26b53c79de99f2b29955c65fc5b8b
PreviewTime: -1
SampleSet: Normal
EditorBookmarks: 24614

[Metadata]
Title:In The Future
Artist:As One
Creator:EiJi
Version:Hardish

[Difficulty]
HPDrainRate:5
CircleSize:5
OverallDifficulty:5
SliderMultiplier: 1.8
SliderTickRate: 2

[Events]
//Background and Video events
//Break Periods
2,67564,74512
2,117651,132947
//Storyboard Layer 0 (Background)
//Storyboard Layer 1 (Failing)
//Storyboard Layer 2 (Passing)
//Storyboard Layer 3 (Foreground)
//Storyboard Sound Samples
//Background Colour Transformations
3,100,163,162,255

[TimingPoints]
8930,521.739130434783,4,1,0

[HitObjects]
104,80,25625,1,0
104,144,25886,1,0
104,208,26147,1,0
104,272,26408,2,0,B|104:272|232:272,4,90
40,272,27712,5,0
40,208,27973,1,0
40,144,28234,1,0
40,80,28495,1,0
104,80,28756,5,0
104,144,29016,1,0
104,208,29277,1,0
104,272,29538,1,0
168,272,29799,2,0,B|168:272|320:272,1,135
256,192,30582,12,0,31364
256,192,31886,1,0
256,192,32669,12,0,33451
344,104,33973,2,0,B|344:104|344:208,1,90
344,256,34495,2,0,B|344:256|232:256,1,90
192,256,35016,2,0,B|192:256|192:152,3,90
192,104,36060,6,0,B|192:104|304:104,3,90
344,104,37103,6,0,B|344:104|344:216,2,90
280,104,37886,1,0
216,104,38147,2,0,B|216:104|216:256,1,135
256,192,38930,12,0,39712
256,192,40234,1,0
256,192,41016,12,0,41799
200,152,42321,2,0,B|200:152|400:152,1,180
440,152,43103,1,0
440,216,43364,1,0
440,280,43625,1,0
440,344,43886,1,0
376,344,44147,6,0,B|376:344|264:328,5,90
224,312,45712,5,0
224,248,45973,2,0,B|224:248|424:248,2,180
224,184,47277,5,0
160,184,47538,1,0
160,248,47799,1,0
96,248,48060,5,0
96,184,48321,1,0
96,120,48582,1,0
160,120,48843,6,0,B|160:120|272:112,2,90
160,56,49625,6,0,B|160:56|384:56,2,180
144,240,51451,5,0
272,240,51973,2,0,B|272:240|376:240,1,90
424,248,52495,1,0
424,184,52756,1,0
424,56,53277,5,0
360,56,53538,1,0
232,56,54060,2,0,B|232:56|112:56,2,90
232,120,54843,1,0
256,192,55625,12,0,56408
256,192,56930,1,0
256,192,57712,12,0,58495
256,192,59016,1,0
64,192,59799,2,0,B|64:192|288:192,1,180
304,192,60582,2,0,B|304:192|408:192,2,90
176,192,61625,5,0
176,256,61886,1,0
304,256,62408,5,0
304,192,62669,1,0
320,128,62930,1,0
368,88,63190,1,0
256,192,63973,12,0,64756
256,184,65277,1,0
256,192,66060,12,0,67364
104,208,75712,5,0
104,144,75973,1,0
104,80,76234,1,0
168,80,76495,1,0
232,80,76756,6,0,B|232:80|416:80,2,180
232,144,78060,5,0
232,208,78321,1,0
232,272,78582,1,0
232,336,78843,6,0,B|232:336|24:336,2,180
256,192,80408,5,0
256,192,80669,12,0,81451
256,192,81973,1,0
256,192,82495,1,0
256,192,82756,12,0,83538
344,104,84060,2,0,B|344:104|344:208,1,90
344,256,84582,2,0,B|344:256|344:368,1,90
280,352,85103,6,0,B|280:352|176:352,3,90
192,288,86147,6,0,B|192:288|288:248,3,90
248,200,87190,6,0,B|248:200|144:240,2,90
224,144,87973,5,0
248,200,88234,2,0,B|248:200|112:256,1,135
256,192,89017,12,0,89799
256,192,90321,1,0
256,192,90843,1,0
256,192,91103,12,0,91886
168,64,92408,2,0,B|168:64|368:64,1,180
344,128,93190,5,0
344,192,93451,1,0
304,240,93712,1,0
240,240,93973,1,0
176,240,94234,6,0,B|176:240|176:128,5,90
232,120,95799,5,0
272,168,96060,2,0,B|272:168|272:368,2,180
208,168,97364,5,0
200,232,97625,1,0
160,280,97886,1,0
96,280,98147,1,0
48,232,98408,1,0
48,168,98669,1,0
88,120,98930,2,0,B|88:120|200:112,2,90
128,168,99712,6,0,B|128:168|352:168,2,180
312,112,101538,5,0
312,240,102060,1,0
312,240,102321,1,0
312,240,102582,1,0
312,240,102843,1,0
184,240,103364,5,0
184,240,103625,1,0
56,240,104147,5,0
56,240,104408,1,0
56,240,104669,1,0
56,240,104930,1,0
64,112,105451,5,0
64,112,105712,1,0
256,112,106495,5,0
384,112,107016,1,0
384,240,107538,5,0
384,240,107799,1,0
256,240,108321,5,0
256,240,108582,1,0
128,248,109103,5,0
128,56,109886,1,0
256,56,110408,2,0,B|256:56|368:56,3,90
352,184,111712,5,0
288,200,111973,2,0,B|288:200|104:192,1,180
104,128,112756,2,0,B|104:128|96:0,2,90
256,192,114060,12,0,114843
256,192,115364,1,0
256,192,115886,1,0
256,192,116147,12,0,117451
112,96,134147,1,0
112,224,134669,1,0
112,288,134930,1,0
240,288,135451,1,0
432,288,136234,5,0
432,160,136756,1,0
432,96,137016,1,0
304,96,137538,1,0
304,288,138321,5,0
304,160,138843,1,0
304,224,139103,1,0
304,96,139625,1,0
112,96,140408,5,0
112,224,140930,1,0
112,160,141190,1,0
112,288,141712,1,0
304,288,142495,5,0
304,160,143016,1,0
240,160,143277,1,0
112,160,143799,1,0
112,224,144060,1,0
104,352,144582,5,0
184,256,145103,1,0
224,208,145364,1,0
312,120,145886,1,0
360,80,146147,1,0
440,176,146669,5,0
320,176,147190,1,0
256,176,147451,1,0
128,176,147973,1,0
64,176,148234,1,0
64,304,148756,5,0
192,304,149277,5,0
192,304,149538,1,0
256,192,149799,12,0,150843
