osu file format v11

[General]
AudioFilename: As I Lay Dying 'Parallels' (OFFICIAL VIDEO).mp3
AudioLeadIn: 0
PreviewTime: -1
Countdown: 1
SampleSet: None
StackLeniency: 0.7
Mode: 0
LetterboxInBreaks: 1

[Editor]
DistanceSpacing: 0.1
BeatDivisor: 4
GridSize: 32

[Metadata]
Title:Parallels
TitleUnicode:Parallels
Artist:As I Lay Dying
ArtistUnicode:As I Lay Dying
Creator:restormed
Version:Normal
Source:
Tags:
BeatmapID:216987
BeatmapSetID:77234

[Difficulty]
HPDrainRate:5
CircleSize:5
OverallDifficulty:5
ApproachRate:5
SliderMultiplier:1.70000000596046
SliderTickRate:1

[Events]
//Background and Video events
//Break Periods
2,72281,80383
//Storyboard Layer 0 (Background)
//Storyboard Layer 1 (Fail)
//Storyboard Layer 2 (Pass)
//Storyboard Layer 3 (Foreground)
//Storyboard Sound Samples
//Background Colour Transformations
3,100,163,162,255

[TimingPoints]
0,500,4,1,0,100,1,0
25000,250,4,1,0,100,1,0

[HitObjects]
224,32,333,2,0,P|96:128|64:128,1,170.000000596046
64,192,1000,2,0,P|320:192|512:192|512:192,3,396.666668057441
288,32,5166,2,0,P|416:128|448:128,1,170.000000596046
448,192,5832,2,0,P|192:192|0:192|0:192,3,396.666668057441
224,32,10000,2,0,P|96:128|64:128,1,170.000000596046
64,192,10667,2,0,P|320:192|512:192|512:192,3,396.666668057441
288,32,14832,2,0,P|416:128|448:128,1,170.000000596046
448,192,15499,2,0,P|192:192|0:192|0:192,3,396.666668057441
224,32,19666,2,0,P|96:128|64:128,1,170.000000596046
64,192,20333,2,0,P|160:32|128:128|224:64|224:64|288:288|288:288,1,396.666668057441
256,192,22000,12,0,24500,0:0:0
192,192,25000,6,0,P|352:128|352:128|416:96,1,226.666667461395
352,256,26000,5,0,0:0:0
288,288,26333,1,0,0:0:0
224,288,26583,2,0,P|64:224,1,170.000000596046
128,160,27333,2,0,P|160:64|320:128,1,283.333334326743
352,128,28250,1,0,0:0:0
384,160,28500,1,0,0:0:0
416,192,28833,2,0,P|352:320|192:288|288:288,1,226.666667461395
256,288,29666,2,0,P|128:192|128:192|256:192,1,283.333334326743
288,192,30667,1,0,0:0:0
352,160,31000,1,0,0:0:0
416,128,31333,2,0,P|256:32|256:32,2,170.000000596046
448,192,32000,1,0,0:0:0
448,224,32249,2,0,P|256:320|-32:32|-32:32,1,510.000001788138
64,32,33166,2,0,P|192:64|192:320|192:320,1,340.000001192092
320,192,34583,6,0,P|160:128|160:128|96:96,1,226.666667461395
160,256,35583,5,0,0:0:0
224,288,35916,1,0,0:0:0
288,288,36166,2,0,P|448:224,1,170.000000596046
384,160,36916,2,0,P|352:64|192:128,1,283.333334326743
160,128,37833,1,0,0:0:0
128,160,38083,1,0,0:0:0
96,192,38416,2,0,P|160:320|320:288|224:288,1,226.666667461395
256,288,39249,2,0,P|384:192|384:192|256:192,1,283.333334326743
224,192,40250,1,0,0:0:0
160,160,40583,1,0,0:0:0
96,128,40916,2,0,P|256:32|256:32,2,170.000000596046
64,192,41583,1,0,0:0:0
64,224,41832,2,0,P|256:320|544:32|544:32,1,510.000001788138
448,32,42749,2,0,P|320:64|320:320|320:320,1,340.000001192092
192,192,43667,6,0,P|192:64|192:64,2,113.333333730697
192,192,44250,2,0,P|320:192|320:192,2,113.333333730697
192,192,44833,2,0,P|192:64|192:64,3,113.333333730697
192,192,46167,6,0,P|192:64|192:64,2,113.333333730697
192,192,46750,2,0,P|320:192|320:192,2,113.333333730697
192,192,47333,2,0,P|192:64|192:64,3,113.333333730697
256,64,48083,2,0,P|256:192|256:192,2,113.333333730697
288,224,48666,5,0,0:0:0
256,256,48999,1,0,0:0:0
224,288,49333,1,0,0:0:0
160,288,49666,1,0,0:0:0
64,256,49999,2,0,P|64:128|64:128|416:128|416:128|416:288|416:288,1,623.333335518835
384,288,51500,1,0,0:0:0
320,320,51750,1,0,0:0:0
224,320,52000,1,0,0:0:0
192,288,52250,2,0,P|480:128|448:32|288:32|32:64,1,623.333335518835
128,128,53625,5,0,0:0:0
96,192,53875,1,0,0:0:0
96,256,54125,1,0,0:0:0
96,352,54416,2,0,P|416:352|416:352,2,283.333334326743
192,288,55938,5,0,0:0:0
256,256,56250,1,0,0:0:0
320,224,56500,1,0,0:0:0
352,192,56916,2,0,P|160:32,2,226.666667461395
352,256,58333,5,0,0:0:0
320,192,58666,1,0,0:0:0
288,128,58916,1,0,0:0:0
256,96,59249,2,0,P|96:288,2,226.666667461395
192,288,61000,5,0,0:0:0
256,256,61333,1,0,0:0:0
352,192,61583,2,0,P|352:64|64:224,1,680.000002384184
192,192,63416,6,0,P|352:128|352:128|416:96,1,226.666667461395
352,256,64416,5,0,0:0:0
288,288,64749,1,0,0:0:0
224,288,64999,2,0,P|64:224,1,170.000000596046
128,160,65749,2,0,P|160:64|320:128,1,283.333334326743
352,128,66666,1,0,0:0:0
384,160,66916,1,0,0:0:0
416,192,67249,2,0,P|352:320|192:288|288:288,1,226.666667461395
256,288,68082,2,0,P|128:192|128:192|256:192,1,283.333334326743
288,192,69083,1,0,0:0:0
352,160,69416,1,0,0:0:0
416,128,69749,2,0,P|256:32|256:32,2,170.000000596046
448,192,70416,1,0,0:0:0
448,224,70665,2,0,P|256:320|-32:32|-32:32,1,510.000001788138
64,32,71582,2,0,P|192:64|192:320|192:320,1,340.000001192092
224,128,81583,6,0,P|288:128,4,56.6666668653487
96,160,82375,5,0,0:0:0
128,224,82750,1,0,0:0:0
192,288,83167,1,0,0:0:0
256,320,83667,1,0,0:0:0
352,320,84083,2,0,P|384:192|256:96|192:32,1,340.000001192092
128,224,85000,5,0,0:0:0
192,288,85437,1,0,0:0:0
256,320,85937,1,0,0:0:0
352,320,86438,2,0,P|384:192|256:96|192:32,1,340.000001192092
160,96,87125,6,0,P|192:224|288:256,2,212.500000745058
96,96,88063,1,0,0:0:0
96,160,88562,2,0,P|320:160,1,212.500000745058
320,96,89562,6,0,P|416:256,1,170.000000596046
320,256,90375,1,0,0:0:0
224,288,90813,1,0,0:0:0
128,288,91312,2,0,P|32:192|224:64,1,425.000001490115
352,64,92250,6,0,P|64:320,2,382.500001341104
352,128,94563,2,0,P|384:256|256:288,1,255.000000894069
224,288,95188,1,0,0:0:0
96,192,95563,1,0,0:0:0
32,128,96062,2,0,P|160:32|320:64,1,297.500001043081
128,224,97000,6,0,P|512:224,2,382.500001341104
128,224,99437,6,0,P|320:224,2,170.000000596046
160,160,100562,1,0,0:0:0
256,128,100937,1,0,0:0:0
256,192,101062,12,0,105000,0:0:0
224,192,105374,6,0,P|288:192,8,42.5000001490115
