osu file format v14

[General]
AudioFilename: NetWORK eng.mp3
AudioLeadIn: 0
PreviewTime: 60877
Countdown: 0
SampleSet: None
StackLeniency: 0.7
Mode: 0
LetterboxInBreaks: 0
WidescreenStoryboard: 0

[Editor]
DistanceSpacing: 0.9
BeatDivisor: 4
GridSize: 32
TimelineZoom: 1

[Metadata]
Title:Mysterious Messenger
TitleUnicode:Mysterious Messenger
Artist:Aruvn
ArtistUnicode:Aruvn
Creator:Konei
Version:Insane
Source:수상한메신저
Tags:Cheritz Susanghan Messenger mystic
BeatmapID:1154551
BeatmapSetID:544864

[Difficulty]
HPDrainRate:7
CircleSize:4
OverallDifficulty:7
ApproachRate:9
SliderMultiplier:1.6
SliderTickRate:2

[Events]
//Background and Video events
0,0,"aaaa.jpg",0,0
//Break Periods
//Storyboard Layer 0 (Background)
//Storyboard Layer 1 (Fail)
//Storyboard Layer 2 (Pass)
//Storyboard Layer 3 (Foreground)
//Storyboard Sound Samples

[TimingPoints]
1229,468.75,4,2,1,70,1,0
53729,-83.3333333333333,4,2,1,70,0,0
55604,-100,4,2,1,70,0,0
57479,-76.9230769230769,4,2,1,70,0,0
58182,-90.9090909090909,4,2,1,70,0,0
58650,-100,4,2,1,70,0,0
59588,-125,4,2,1,70,0,0
60291,-100,4,2,1,70,0,0
61229,-83.3333333333333,4,2,1,70,0,1
65213,-66.6666666666667,4,2,1,70,0,1
65682,-76.9230769230769,4,2,1,70,0,1
66150,-66.6666666666667,4,2,1,70,0,1
66619,-76.9230769230769,4,2,1,70,0,1
68729,-90.9090909090909,4,2,1,70,0,1
75994,-100,4,2,1,70,0,0
76229,-100,4,2,1,70,0,1
86072,-100,4,2,1,70,0,0

[Colours]
Combo1 : 169,217,252
Combo2 : 242,237,19
Combo3 : 255,60,60
Combo4 : 247,80,9
Combo5 : 48,72,101

[HitObjects]
211,149,53025,6,0,L|276:143,1,40,0|0,1:0|1:0,0:0:0:0:
117,199,53260,2,0,L|106:254,1,40,0|0,1:0|1:0,0:0:0:0:
115,100,53494,2,0,L|98:48,1,40,0|0,1:0|1:0,0:0:0:0:
192,229,53729,6,0,P|220:278|232:328,1,95.9999970703126,4|2,1:0|0:0,0:0:0:0:
33,152,54197,1,0,1:0:0:0:
233,50,54432,1,0,0:0:0:0:
252,40,54549,2,0,P|323:30|398:37,1,143.999995605469,2|0,0:0|0:0,0:0:0:0:
276,146,55135,2,0,P|331:142|376:148,1,95.9999970703126,0|0,1:0|0:0,0:0:0:0:
395,164,55486,1,0,0:0:0:0:
414,189,55604,6,0,L|437:272,1,80,2|0,3:2|0:0,0:0:0:0:
245,365,56072,2,0,L|254:262,1,80,0|2,1:0|0:0,0:0:0:0:
276,146,56541,1,0,3:0:0:0:
92,54,56775,1,0,0:0:0:0:
95,266,57010,1,0,1:0:0:0:
220,44,57244,1,0,0:0:0:0:
234,272,57479,6,0,P|311:286|392:264,1,155.999992858887,4|0,1:0|0:0,0:0:0:0:
412,255,57947,1,0,1:0:0:0:
162,191,58182,6,0,P|120:162|24:161,1,132.00000402832
47,246,58650,2,0,L|40:147,1,80,0|0,0:0|1:0,0:0:0:0:
149,355,59119,1,0,1:0:0:0:
154,333,59236,1,0,1:0:0:0:
357,229,59588,6,0,P|406:231|445:219,1,64,0|4,1:0|1:0,0:0:0:0:
256,122,60057,1,0,3:0:0:0:
256,122,60174,1,0,3:0:0:0:
256,122,60291,6,0,P|210:118|157:126,1,80,4|0,1:0|1:0,0:0:0:0:
43,331,60760,1,0,1:0:0:0:
60,299,60877,1,0,1:0:0:0:
65,263,60994,1,0,1:0:0:0:
57,227,61111,1,0,1:0:0:0:
43,198,61229,6,0,P|28:151|31:98,1,95.9999970703126,4|2,1:0|0:0,0:0:0:0:
144,138,61697,1,0,1:0:0:0:
275,241,61932,6,0,P|244:166|119:147,1,191.999994140625,2|2,0:0|0:0,0:0:0:0:
72,313,62635,2,0,P|120:280|147:242,1,95.9999970703126,0|0,1:0|0:0,0:0:0:0:
246,56,63104,6,0,P|239:114|287:260,1,191.999994140625,2|0,3:2|1:0,0:0:0:0:
396,283,63807,2,0,P|448:276|503:283,1,95.9999970703126,2|0,3:2|0:0,0:0:0:0:
199,358,64275,2,0,P|246:359|303:341,1,95.9999970703126,2|0,0:0|1:0,0:0:0:0:
466,128,64744,6,0,P|397:104|315:117,1,143.999995605469,2|0,3:2|0:0,0:0:0:0:
248,128,65213,2,0,L|183:140,2,60.0000022888184,2|0|0,0:0|0:0|1:0,0:0:0:0:
69,348,65682,6,0,P|49:275|63:185,1,155.999992858887,2|0,0:0|0:0,0:0:0:0:
130,154,66150,2,0,L|257:126,1,120.000004577637,2|0,0:0|1:0,0:0:0:0:
366,291,66619,6,0,L|485:311,1,103.999995239258,2|0,3:2|3:0,0:0:0:0:
248,127,67088,2,0,L|228:8,1,103.999995239258,0|0,0:2|1:0,0:0:0:0:
146,291,67557,2,0,L|27:311,1,103.999995239258,0|2,3:2|0:0,0:0:0:0:
43,308,67908,6,0,L|19:198,1,103.999995239258,2|2,0:0|0:0,0:0:0:0:
123,189,68260,2,0,L|147:299,1,103.999995239258,0|0,1:0|1:0,0:0:0:0:
417,282,68729,6,0,P|456:231|429:127,1,176.000005371094,4|0,1:0|1:0,0:0:0:0:
253,167,69432,2,0,P|310:189|348:195,1,88.000002685547,2|0,0:0|0:0,0:0:0:0:
162,88,69900,2,0,P|140:31|134:-7,1,88.000002685547,2|0,0:0|1:0,0:0:0:0:
123,189,70369,6,0,P|100:251|99:318,1,132.00000402832,2|0,0:0|0:0,0:0:0:0:
101,339,70838,2,0,L|199:331,1,88.000002685547,0|0,0:0|1:0,0:0:0:0:
357,271,71307,2,0,P|415:283|481:249,1,132.00000402832,2|0,0:0|0:0,0:0:0:0:
446,174,71775,2,0,P|393:170|349:190,1,88.000002685547,2|0,0:0|1:0,0:0:0:0:
