osu file format v9

[General]
AudioFilename: 03 -Utau chikyuu Memories in interiors of eyes.mp3
AudioLeadIn: 500
PreviewTime: 124390
Countdown: 0
SampleSet: Soft
StackLeniency: 0.7
Mode: 0
LetterboxInBreaks: 1

[Editor]
Bookmarks: 49390,62890,86890,98890,124390,135640,148390,172390,196390
DistanceSpacing: 1.2
BeatDivisor: 4
GridSize: 4

[Metadata]
Title:Memories in interiors of eyes
Artist:Arugurei
Creator:bakabaka
Version:Insane
Source:Touhou
Tags:moriya suwako

[Difficulty]
HPDrainRate:7
CircleSize:4
OverallDifficulty:7
ApproachRate:8
SliderMultiplier:1.7
SliderTickRate:1

[Events]
//Background and Video events
0,0,"BG03.jpg"
//Break Periods
2,25590,27640
2,87090,98140
2,148590,158140
2,172590,177265
//Storyboard Layer 0 (Background)
//Storyboard Layer 1 (Fail)
//Storyboard Layer 2 (Pass)
//Storyboard Layer 3 (Foreground)
//Storyboard Sound Samples
//Background Colour Transformations
3,100,163,162,255

[TimingPoints]
1390,375,4,2,1,60,1,0
6077,-100,4,2,1,40,0,0
6452,-100,4,2,1,50,0,0
6827,-100,4,2,1,60,0,0
7577,-100,4,2,1,60,0,0
19390,-100,4,1,1,60,0,0
24640,-100,4,2,1,60,0,0
25390,-100,4,1,1,60,0,0
28202,-133.333333333333,4,2,1,60,0,0
30452,-100,4,1,1,50,0,0
31483,-133.333333333333,4,2,1,60,0,0
33640,-100,4,1,1,50,0,0
34390,-100,4,2,1,60,0,0
37390,-133.333333333333,4,1,1,60,0,0
37577,-133.333333333333,4,2,1,60,0,0
39640,-100,4,1,1,50,0,0
40390,-133.333333333333,4,2,1,60,0,0
42640,-100,4,1,1,50,0,0
43390,-133.333333333333,4,2,1,60,0,0
45640,-100,4,1,1,50,0,0
46390,-100,4,2,1,60,0,0
49202,-100,4,2,1,60,0,0
62515,-133.333333333333,4,2,1,60,0,0
62890,-100,4,2,1,60,0,1
74515,-133.333333333333,4,2,1,60,0,1
74890,-100,4,2,1,60,0,1
85483,-100,4,1,1,60,0,1
86890,-100,4,1,1,60,0,0
98702,-100,4,1,1,60,0,0
98890,-133.333333333333,4,1,1,60,0,0
99077,-133.333333333333,4,2,1,60,0,0
101140,-100,4,1,1,50,0,0
101890,-133.333333333333,4,2,1,60,0,0
104140,-100,4,1,1,50,0,0
104890,-133.333333333333,4,1,1,60,0,0
105077,-133.333333333333,4,2,1,60,0,0
107140,-100,4,1,1,50,0,0
107890,-133.333333333333,4,2,1,60,0,0
110421,-100,4,1,1,60,0,0
110890,-100,4,2,1,60,0,0
123827,-133.333333333333,4,2,1,60,0,0
123921,-133.333333333333,4,1,1,60,0,0
124390,-100,4,2,1,60,0,1
148390,-100,4,1,1,50,0,0
158702,-100,4,2,1,60,0,0
172015,-80,4,1,1,60,0,0
172390,-133.333333333333,4,2,1,60,0,0
177827,-133.333333333333,4,1,1,50,0,0
178390,-100,4,2,1,60,0,0
184390,-100,4,1,1,60,0,1
184577,-100,4,2,1,60,0,1
194983,-100,4,1,1,40,0,1
195358,-100,4,2,1,60,0,1
195546,-100,4,1,1,50,0,1
195921,-100,4,2,1,60,0,1
196108,-100,4,1,1,60,0,1
196390,-100,4,1,1,60,0,0

[Colours]
Combo1 : 0,128,192
Combo2 : 198,99,0
Combo3 : 157,157,157

[HitObjects]
88,132,1390,1,8
284,292,1952,1,0
420,192,2327,1,8
380,356,2702,1,0
368,272,2890,6,0,B|296:212|320:84,1,170,8|0
376,60,3452,2,0,B|472:64|512:160,2,170,0|8|0
296,36,4390,5,8
212,44,4577,1,8
24,192,4952,1,0
244,280,5327,1,8
104,88,5702,1,0
140,204,5890,6,0,B|200:228|240:160,1,85,8|8
232,168,6171,1,0
244,148,6265,1,2
260,132,6358,1,0
284,124,6452,1,8
308,128,6546,1,0
328,144,6640,1,2
340,164,6733,1,0
348,188,6827,2,0,B|324:224|328:280,1,85,8|0
400,316,7202,1,8
472,272,7390,6,0,B|496:236|492:180,1,85,4|2
468,92,7765,1,0
468,92,7858,1,0
468,92,7952,1,2
372,132,8140,1,0
296,64,8327,1,0
196,80,8515,1,2
156,84,8608,1,0
112,88,8702,1,0
80,184,8890,6,0,B|68:244|120:292,1,85
184,208,9265,1,2
184,208,9358,1,0
184,208,9452,1,0
284,192,9640,2,0,B|296:252|244:300,1,85
284,192,10015,5,0
292,152,10108,1,0
308,112,10202,1,2
340,84,10296,1,0
384,76,10390,2,0,B|468:80,2,56.6666666666667,4|2|0
396,144,10765,2,0,B|336:168,2,56.6666666666667,0|2|0
432,204,11140,2,0,B|504:232,2,56.6666666666667,0|2|0
384,252,11515,2,0,B|296:224,2,56.6666666666667,0|2|0
356,316,11890,2,0,B|384:376,2,56.6666666666667,0|2|0
288,324,12265,6,0,B|220:336,1,56.6666666666667
164,344,12515,1,2
116,296,12640,2,0,B|44:316,2,56.6666666666667,0|0|2
136,232,13015,2,0,B|216:244,2,56.6666666666667,0|2|0
88,184,13390,5,4
68,148,13483,1,0
76,104,13577,1,0
176,128,13765,1,2
208,104,13858,1,0
208,60,13952,1,0
312,60,14140,1,2
280,84,14233,1,0
280,128,14327,1,0
392,140,14515,1,2
392,140,14608,1,0
392,140,14702,1,0
496,144,14890,5,4
496,188,14984,1,0
464,212,15077,1,0
364,236,15265,2,0,B|320:224,2,42.5,2|0|0
316,328,15640,1,0
284,332,15733,1,0
252,324,15827,1,0
224,304,15921,1,0
208,276,16015,1,2
200,244,16108,1,0
180,216,16202,1,0
152,196,16296,1,0
116,196,16390,6,0,B|80:264,3,42.5,4|0|0|0
156,108,16765,2,0,B|132:44,3,42.5,2|0|0|0
200,244,17140,2,0,B|180:292,3,42.5,4|0|0|0
264,108,17515,2,0,B|288:156,3,42.5,2|0|0|0
304,184,17890,5,4
320,224,17983,1,0
316,268,18077,1,0
324,308,18171,1,0
356,336,18265,1,2
400,340,18358,1,0
440,332,18452,1,0
476,308,18546,1,0
492,268,18640,1,0
488,228,18733,1,0
480,188,18827,1,0
448,160,18921,1,0
408,152,19015,1,2
368,136,19108,1,0
344,100,19202,1,2
340,56,19296,1,0
340,56,19390,5,4
204,76,19577,1,0
100,328,19952,1,0
236,324,20140,2,0,B|244:212|120:192,1,170
204,76,20702,2,0,B|196:188|320:208,1,170
428,196,21265,1,0
356,84,21452,1,0
292,204,21640,1,0
368,316,21827,6,0,B|456:136,1,170
380,40,22390,2,0,B|292:220,1,170
252,316,22952,1,4
68,232,23233,1,4
232,112,23515,1,4
124,360,23890,6,0,B|192:216,1,127.5
132,100,24452,1,0
132,100,24546,1,0
132,100,24640,6,0,B|216:88,1,56.6666666666667,2|0
216,152,24890,2,0,B|300:192,1,56.6666666666667,0|2
320,136,25140,2,0,B|384:128,1,56.6666666666667,0|2
444,120,25390,1,4
256,328,28390,6,0,B|200:364|116:320,1,127.499996200204,4|0
152,252,28952,1,0
152,252,29046,1,0
152,252,29140,2,0,B|152:188|96:164,2,95.624997150153,2|2|0
216,172,29890,2,0,B|216:236|272:260,1,95.624997150153,0|2
364,68,30640,5,0
404,76,30733,1,0
440,100,30827,1,0
464,136,30921,1,0
476,176,31015,1,0
476,220,31108,1,0
456,260,31202,1,0
424,284,31296,1,0
384,296,31390,5,4
260,204,31765,2,0,B|272:160|252:120,1,63.749998100102,0|2
240,108,32046,1,0
204,92,32140,1,2
156,216,32421,1,2
44,288,32702,1,0
68,204,32890,5,2
164,324,33171,1,0
312,280,33452,1,2
412,264,33640,6,0,B|409:210|338:190,1,85,0|0
312,196,33921,2,0,B|232:184|224:88,1,127.5
204,68,34296,1,0
156,48,34390,5,4
20,200,34765,1,8
172,212,35046,1,0
172,212,35140,2,0,B|196:308,1,85,2|0
296,304,35515,2,0,B|268:196,1,85,8|0
312,128,35890,6,0,B|384:60|500:116,2,170,2|8|0
404,204,36827,1,2
500,276,37015,1,8
476,312,37108,1,0
440,336,37202,1,2
396,340,37296,1,2
356,332,37390,1,4
356,332,37765,5,8
248,296,38046,1,0
248,296,38140,1,2
172,312,38327,2,0,B|88:316|60:224,1,127.499996200204,0|2
120,192,38890,2,0,B|96:152|108:92,2,95.624997150153,0|2|2
208,136,39640,5,0
232,180,39733,1,0
276,208,39827,2,0,B|328:224|368:188,1,85
368,140,40108,2,0,B|424:100|488:120,1,127.5,0|4
448,268,40765,6,0,B|440:324|364:336,1,95.624997150153,8|0
348,332,41140,1,2
272,328,41327,2,0,B|244:264|172:248,1,127.499996200204,0|2
100,244,41890,2,0,B|48:220|52:136,1,95.624997150153,0|2
208,24,42640,5,0
248,36,42733,1,0
284,60,42827,1,0
312,92,42921,1,0
324,132,43015,1,0
324,176,43108,1,0
312,216,43202,1,0
280,244,43296,1,0
252,256,43390,6,0,B|160:148,1,127.499996200204,4|0
228,112,43952,1,2
284,60,44140,2,0,B|372:148,1,95.624997150153,0|2
432,208,44702,1,0
456,292,44890,5,2
372,328,45077,1,0
372,328,45171,2,0,B|308:328|292:268,1,95.624997150153,2|0
276,164,45640,6,0,B|276:112|224:72,1,85,0|0
204,124,45921,2,0,B|164:184|56:168,1,127.5
120,72,46390,5,4
64,268,46765,1,8
260,220,47140,1,0
300,128,47327,1,2
364,208,47515,1,8
300,128,47702,1,2
392,80,47890,6,0,B|452:80|488:132,1,85,0|2
464,212,48265,1,8
448,260,48358,1,0
412,296,48452,1,0
312,324,48640,2,0,B|244:292|260:196,1,127.5,0|2
260,168,49015,1,8
252,120,49108,1,0
228,76,49202,6,0,B|136:24|68:96,1,170,4|0
156,152,49765,2,0,B|208:236|144:328,1,170,8|0
92,232,50327,1,0
256,188,50515,1,8
332,36,50702,1,0
420,92,50890,6,0,B|488:164|460:284,2,170,0|8|0
372,292,52015,1,8
272,276,52202,1,0
184,332,52390,6,0,B|80:336|48:220,1,170,0|8
156,236,52952,1,0
128,192,53046,1,0
128,140,53140,2,0,B|144:44|240:24,1,170,0|8
256,228,53890,5,0
356,244,54077,1,0
404,260,54171,1,0
436,300,54265,1,8
340,332,54452,2,0,B|472:180,1,170
464,100,55015,1,8
364,76,55202,1,0
308,164,55390,6,0,B|288:284|168:224,2,170,0|8|0
212,132,56327,1,0
128,72,56515,1,8
128,72,56608,1,0
128,72,56702,1,0
84,164,56890,6,0,B|28:268,1,85
112,312,57265,1,8
164,224,57452,1,0
196,184,57546,1,0
248,176,57640,2,0,B|296:212|256:288,1,85
372,344,58015,2,0,B|324:308|364:232,1,85,8|0
452,280,58390,6,0,B|536:240|496:120,1,170,0|8
304,76,59140,2,0,B|220:124|260:236,1,170,0|8
344,172,59702,1,0
176,273,59890,6,0,B|136:192|152:88|208:36,2,255,0|2|0
244,348,61202,1,2
344,328,61390,5,8
384,312,61483,1,0
416,296,61577,1,2
440,272,61671,1,0
428,240,61765,1,8
396,232,61858,1,0
364,220,61952,1,2
336,200,62046,1,0
364,180,62140,1,8
396,168,62233,1,0
424,152,62327,1,0
448,128,62421,1,0
432,100,62515,6,0,B|396:40|300:48,1,127.499996200204,2|4
236,104,63077,1,2
188,116,63171,1,0
144,92,63265,1,8
140,192,63452,1,2
68,264,63640,2,0,B|132:332|228:284,1,170,0|8
268,156,64202,5,2
268,156,64296,1,0
268,156,64390,2,0,B|276:76|380:60,2,127.5,0|8|0
292,256,65140,2,0,B|344:256|360:188,1,85,0|2
384,164,65421,1,0
428,140,65515,1,8
500,212,65702,1,0
420,276,65890,6,0,B|384:336|308:348,1,127.5,0|8
260,204,66452,1,2
176,264,66640,2,0,B|96:264|60:188,2,127.5,0|8|2
144,82,67390,6,0,B|128:120|156:164,1,85,0|2
260,112,67765,1,8
332,208,67952,1,0
332,208,68046,1,0
332,208,68140,2,0,B|388:196|388:124,1,85,2|0
408,104,68421,2,0,B|480:112|516:196,1,127.5,2|8
444,296,68890,5,4
344,308,69077,1,2
292,308,69171,1,0
252,276,69265,2,0,B|208:248|228:172,1,85,8|0
268,112,69640,2,0,B|220:28|116:40,1,170,0|8
8,208,70390,5,4
180,320,70671,1,8
188,116,70952,1,2
68,184,71140,1,0
180,260,71327,5,2
172,208,71421,1,0
140,168,71515,1,8
236,64,71702,1,0
340,164,71890,2,0,B|416:152|432:68,2,127.5,4|8|0
332,64,72640,5,4
464,208,72827,1,0
464,208,72921,1,0
464,208,73015,1,8
348,332,73202,1,0
236,204,73390,2,0,B|236:116|136:84,2,127.5,4|8|2
132,200,74140,5,0
108,244,74233,1,0
112,296,74327,1,2
148,332,74421,1,0
200,336,74515,2,0,B|232:264|320:264,1,127.499996200204,8|4
440,328,75171,5,2
440,328,75265,1,8
404,232,75452,1,0
492,176,75640,5,0
340,100,75827,1,2
340,100,75921,1,0
340,100,76015,1,8
299,267,76202,1,2
200,236,76390,6,0,B|112:232|100:320,2,127.5,0|8|2
272,164,77140,1,2
224,152,77233,1,0
172,152,77327,1,0
124,164,77421,1,0
80,188,77515,1,8
84,136,77608,1,0
104,88,77702,1,2
136,48,77796,1,0
180,24,77890,6,0,B|264:0|320:44,1,127.5,2|8
468,104,78452,1,2
352,128,78640,2,0,B|276:148|244:224,1,127.5,2|8
200,376,79202,1,2
284,316,79390,5,0
384,328,79577,1,2
388,276,79671,1,0
352,240,79765,1,8
256,204,79952,2,0,B|176:156|200:52,1,170,0|2
104,100,80515,1,8
68,336,80890,6,0,B|148:288|124:184,1,170,4|8
32,232,81452,1,0
212,304,81640,1,2
336,192,81827,1,0
336,192,81921,1,0
336,192,82015,1,8
372,288,82202,1,0
448,220,82390,6,0,B|512:136,1,85,4|2
460,144,82671,1,0
460,144,82765,2,0,B|412:124|400:68,1,85,8|0
316,32,83140,5,0
148,52,83327,1,2
168,220,83515,1,8
336,192,83702,1,0
176,132,83890,6,0,B|100:116|56:208,1,127.5,4|8
48,232,84265,1,2
96,360,84452,1,0
224,312,84640,2,0,B|276:260|248:172,2,127.5,4|8|2
168,220,85390,5,4
196,120,85577,1,0
224,88,85671,1,0
264,72,85765,1,0
364,132,85952,1,0
340,168,86046,1,0
300,184,86140,1,0
336,296,86327,5,0
376,280,86421,1,0
412,256,86515,1,0
440,228,86608,1,0
460,192,86702,1,0
472,152,86796,1,0
476,108,86890,1,4
256,292,98890,5,4
256,292,99265,6,0,B|400:324,1,127.499996200204,2|0
380,244,99827,1,2
444,200,100015,1,0
396,140,100202,1,2
368,112,100296,1,0
340,84,100390,2,0,B|296:44|232:80,1,95.624997150153
244,108,100765,2,0,B|220:144|176:136,1,63.749998100102,2|0
120,64,101140,5,0
88,104,101233,1,0
72,152,101327,2,0,B|64:216|96:264,1,85
112,276,101608,2,0,B|116:220|172:192,1,85,0|0
260,212,101890,5,4
308,68,102265,1,0
352,132,102452,1,2
384,60,102640,2,0,B|428:56|452:92,1,63.749998100102
468,108,102921,2,0,B|496:160|476:212,1,95.624997150153,2|0
448,272,103390,5,2
388,320,103577,1,0
388,320,103671,1,2
276,300,103952,6,0,B|280:260|320:228,1,63.749998100102
300,200,104233,1,0
276,164,104327,1,0
244,136,104421,1,0
208,116,104515,1,0
168,108,104608,1,0
124,108,104702,1,0
84,116,104796,1,0
56,128,104890,6,0,B|32:264,1,127.499996200204,4|2
88,308,105452,1,0
124,292,105546,1,0
136,256,105640,2,0,B|156:144,1,95.624997150153,2|0
232,76,106202,1,2
232,76,106390,1,0
328,140,106671,2,0,B|308:252,1,95.624997150153,2|0
316,272,107046,1,0
340,316,107140,6,0,B|384:352|456:320,1,85,0|0
480,252,107421,2,0,B|436:216|364:248,1,85
399,235,107702,1,0
399,235,107796,1,0
399,235,107890,6,0,B|440:100,1,127.499996200204,4|8
292,164,108640,2,0,B|260:272,2,95.624997150153,2|8|0
252,100,109390,5,0
180,72,109577,1,2
100,96,109765,1,8
72,132,109858,1,0
72,176,109952,1,0
116,268,110140,2,0,B|204:296,1,63.749998100102,0|2
216,252,110421,6,0,B|284:232|368:280,1,127.5,0|4
472,108,111077,1,0
472,212,111265,2,0,B|376:192|360:72,1,170,8|0
276,40,111827,1,0
176,52,112015,1,8
128,60,112108,1,0
88,92,112202,1,0
100,192,112390,5,0
252,328,112765,1,8
404,192,113140,1,0
336,116,113327,1,0
336,116,113421,1,0
336,116,113515,1,8
236,124,113702,1,0
200,220,113890,6,0,B|172:320|68:328,2,170,0|8|0
236,124,114827,1,0
296,40,115015,2,0,B|388:28|408:76,1,127.5,8|0
372,112,115390,2,0,B|320:156|372:244,1,127.5,0|8
512,192,115952,5,0
380,348,116327,1,0
280,336,116515,1,8
232,316,116608,1,0
204,276,116702,1,0
228,176,116890,6,0,B|192:96|52:100,1,170,0|8
132,192,117452,2,0,B|160:96|260:68,1,170
340,36,118015,1,8
320,136,118202,1,0
376,220,118390,6,0,B|472:232|508:120,2,170,0|8|0
256,204,119327,1,0
200,308,119515,2,0,B|184:364|124:360,1,85,8|0
116,260,119890,5,0
132,108,120171,1,0
132,108,120265,2,0,B|224:76,1,85,8|0
336,136,120640,2,0,B|164:196,2,170,0|8|0
436,116,121577,5,0
492,200,121765,1,8
452,292,121952,2,0,B|420:372|296:364,1,170
212,336,122515,2,0,B|232:300,3,42.5,8|0|0|0
188,276,122890,5,2
148,264,122983,1,0
112,240,123077,1,2
84,208,123171,1,0
72,168,123265,1,8
156,112,123452,1,2
188,140,123546,1,0
208,180,123640,1,2
220,220,123733,1,0
220,252,123827,6,0,B|248:296|296:292,1,63.749998100102,0|4
364,104,124390,5,4
480,272,124671,1,8
276,288,124952,1,2
384,208,125140,5,0
480,136,125327,1,2
480,136,125421,1,0
480,136,125515,1,8
364,104,125702,1,0
292,176,125890,2,0,B|224:152|220:60,1,127.5,2|8
76,40,126452,5,2
48,140,126640,1,0
136,188,126827,1,2
48,140,127015,1,8
20,184,127108,1,0
24,236,127202,1,0
96,308,127390,6,0,B|156:348|228:296,1,127.5,2|0
215,304,127765,1,8
268,216,127952,1,0
276,116,128140,2,0,B|336:76|408:128,1,127.5,2|0
395,119,128515,1,8
484,200,128702,1,0
472,320,128890,6,0,B|392:364|296:300,2,170,2|8|0
404,248,129827,1,2
404,248,129921,1,0
404,248,130015,2,0,B|348:248|312:184,1,85,8|0
117,79,130390,6,0,B|204:64|276:124,1,170,4|8
188,176,130952,1,0
160,276,131140,1,2
108,276,131233,1,0
68,244,131327,1,0
188,176,131515,1,8
240,176,131608,1,0
276,212,131702,1,0
296,312,131890,6,0,B|360:344|432:292,1,127.5,4|0
452,264,132265,1,8
376,196,132452,1,0
456,136,132640,2,0,B|464:68|400:32,1,85,2|0
392,28,132921,1,0
340,20,133015,1,8
280,124,133202,1,0
376,196,133390,6,0,B|384:260|324:304,1,85,4|0
256,340,133765,1,8
140,312,133952,1,0
92,296,134046,1,0
64,252,134140,1,4
84,84,134327,2,0,B|128:76|164:100,1,85,0|8
208,132,134608,1,0
256,152,134702,1,0
308,152,134796,1,0
352,128,134890,6,0,B|388:96|460:76,1,85,4|0
472,252,135265,2,0,B|436:284|364:304,1,85,8|4
184,108,135640,2,0,B|219:76|257:67,1,85,2|0
256,312,136015,2,0,B|220:344|148:364,1,85,4|0
132,356,136296,1,0
92,324,136390,5,4
64,72,136671,1,8
300,172,136952,1,2
328,272,137140,2,0,B|352:364,1,85,0|2
436,300,137515,2,0,B|460:208,1,85,8|0
472,168,137796,1,0
484,120,137890,6,0,B|472:40|372:16,2,127.5,2|8|0
384,128,138640,2,0,B|396:184|332:232,1,85,0|2
284,136,139015,1,8
224,52,139202,1,0
176,68,139296,1,0
152,112,139390,6,0,B|148:184|80:228,1,127.5,2|0
40,228,139765,2,0,B|0:184|20:120,1,85,8|0
212,196,140140,6,0,B|216:268|284:312,1,127.5,2|0
324,312,140515,2,0,B|364:268|344:204,1,85,8|0
304,144,140890,5,2
364,60,141077,1,0
408,36,141171,1,0
460,40,141265,1,8
424,136,141452,2,0,B|476:132|504:192,2,85,0|2|0
412,236,142015,1,8
192,328,142390,5,4
112,264,142577,1,2
76,228,142671,1,0
40,192,142765,1,8
84,100,142952,1,0
184,128,143140,2,0,B|252:140|260:64,1,85,0|2
276,192,143515,2,0,B|208:180|200:256,1,85,8|0
196,276,143796,1,0
192,328,143890,5,4
396,324,144171,1,8
476,136,144452,1,2
412,256,144640,5,0
280,288,144827,1,2
396,216,145015,1,8
388,64,145202,1,0
224,24,145390,6,0,B|152:32|112:108,1,127.5,4|0
104,140,145765,1,8
112,308,145952,1,0
280,288,146140,1,4
296,188,146327,1,0
296,188,146421,1,0
296,188,146515,1,8
200,224,146702,5,2
352,352,146890,1,4
388,144,147077,1,2
256,192,147171,12,4,148390
40,244,158890,5,4
68,276,158983,1,0
104,300,159077,1,0
144,308,159171,1,0
188,304,159265,1,2
228,288,159358,1,0
260,264,159452,1,0
292,236,159546,1,0
328,212,159640,1,4
368,204,159733,1,0
412,212,159827,1,0
448,236,159921,1,0
472,272,160015,2,0,B|452:340,2,42.5,2|0|2
420,128,160390,5,4
380,144,160483,1,0
348,172,160577,1,0
328,212,160671,1,0
316,252,160765,1,2
296,296,160858,1,0
260,328,160952,1,0
216,340,161046,1,0
168,340,161140,1,4
124,328,161233,1,0
84,300,161327,1,0
56,260,161421,1,0
60,212,161515,2,0,B|12:184,2,42.5,2|0|2
116,88,161890,5,2
116,88,161983,1,0
116,88,162077,2,0,B|188:8,1,85,0|4
256,132,162452,1,2
256,132,162546,1,0
256,132,162640,2,0,B|184:212,1,85,0|0
288,300,163015,1,4
328,268,163108,1,0
364,232,163202,1,2
452,108,163390,5,2
492,136,163483,1,0
508,184,163577,2,0,B|508:216|512:236|476:272,1,85,0|4
352,184,163952,1,2
364,232,164046,1,0
352,284,164140,2,0,B|324:328|252:308,1,85,0|2
156,220,164515,1,4
156,220,164608,1,0
156,220,164702,1,0
44,300,164890,6,0,B|-12:216|52:116,1,170,2|8
216,28,165452,2,0,B|272:112|208:212,1,170,2|0
244,324,166015,1,8
376,348,166202,1,2
472,252,166390,6,0,B|500:208|472:144,1,85,0|2
464,124,166671,1,0
428,88,166765,1,8
296,112,166952,2,0,B|360:180|316:280,1,170,2|0
180,364,167515,1,8
36,276,167702,2,0,B|-28:208|16:104,1,170,2|0
188,20,168452,5,0
144,44,168546,1,0
112,84,168640,2,0,B|84:168,1,85,2|0
128,192,168921,2,0,B|204:136,1,85
248,136,169202,1,2
260,188,169296,2,0,B|220:284,1,85,0|2
212,316,169577,2,0,B|312:296,1,85,0|0
344,288,169858,1,0
376,328,169952,1,0
412,292,170046,2,0,B|508:180,1,127.5,2|4
420,56,170608,5,0
372,72,170702,1,0
344,116,170796,1,0
348,168,170890,2,0,B|332:220,3,42.5,2|0|0|0
292,236,171265,2,0,B|252:216,3,42.5,2|0|0|0
252,164,171640,2,0,B|260:104,3,42.5,2|0|0|0
212,96,172015,6,0,B|96:52|16:164,1,212.499996833503,0|4
304,68,178015,5,0
312,104,178108,1,0
336,136,178202,1,0
372,152,178296,1,0
408,164,178390,6,0,B|456:172|472:244,1,85,4|0
440,320,178765,2,0,B|404:364|344:336,1,85,8|0
336,244,179140,1,0
336,244,179233,1,0
336,244,179327,2,0,B|292:216|252:240,1,85,0|8
124,84,179890,6,0,B|60:112|64:192,2,127.5,0|8|0
220,52,180640,1,0
268,40,180733,1,0
316,52,180827,1,0
356,84,180921,1,0
368,132,181015,2,0,B|344:168|288:172,1,85,8|0
248,188,181296,1,0
224,232,181390,5,0
396,340,181671,1,8
480,156,181952,1,0
368,232,182140,5,0
228,380,182421,1,8
76,244,182702,1,0
80,108,182890,5,0
200,176,183077,1,0
276,60,183265,2,0,B|348:64|356:132,1,85,8|0
344,236,183640,2,0,B|272:232|264:164,1,85
448,48,184015,2,0,B|504:120|476:232,1,170,8|4
432,356,184671,5,2
432,356,184765,1,8
344,304,184952,1,0
248,344,185140,2,0,B|184:356|156:296,1,85,0|2
136,284,185421,1,0
116,236,185515,1,8
96,100,185702,1,0
208,176,185890,6,0,B|280:168|296:64,2,127.5,2|8|2
380,168,186640,1,0
364,216,186733,1,0
328,252,186827,1,2
280,272,186921,1,0
228,280,187015,1,8
280,272,187108,1,0
328,252,187202,1,0
364,216,187296,1,0
380,168,187390,6,0,B|392:92|480:76,1,127.5,2|0
504,80,187765,1,8
500,216,187952,1,0
364,216,188140,6,0,B|352:292|264:308,1,127.5,2|0
240,304,188515,1,8
240,168,188702,1,0
116,108,188890,6,0,B|128:36|196:12,2,127.5,2|8|0
108,280,189640,1,2
148,312,189733,1,0
196,328,189827,2,0,B|252:336|272:272,1,85,0|8
376,40,190390,5,4
484,148,190671,1,2
484,148,190765,5,8
392,248,190952,1,0
260,208,191140,1,2
296,172,191233,1,0
296,120,191327,1,0
264,80,191421,1,0
216,60,191515,2,0,B|112:24|76:140,1,170,8|4
132,256,192077,5,2
132,256,192171,1,0
132,256,192265,1,8
260,208,192452,1,0
340,316,192640,1,2
392,312,192733,1,0
436,288,192827,1,0
468,248,192921,1,0
480,200,193015,1,8
480,148,193108,1,0
460,100,193202,1,0
420,68,193296,1,0
372,48,193390,5,4
256,216,193671,1,8
140,48,193952,1,2
256,120,194140,5,4
132,344,194421,1,8
388,348,194702,1,2
256,216,194890,5,4
236,260,194983,1,0
188,276,195077,2,0,B|132:280|108:216,1,85,0|0
148,104,195452,1,4
180,64,195546,1,0
228,52,195640,2,0,B|276:40|324:80,1,85
372,228,196015,1,4
392,276,196108,1,0
440,296,196202,1,0
484,268,196296,1,0
492,216,196390,1,4
