osu file format v13

[General]
AudioFilename: Zoids Opening 1 Latino.mp3
AudioLeadIn: 0
PreviewTime: 33961
Countdown: 1
SampleSet: Soft
StackLeniency: 0.7
Mode: 0
LetterboxInBreaks: 1
WidescreenStoryboard: 1

[Editor]
DistanceSpacing: 0.7
BeatDivisor: 4
GridSize: 4
TimelineZoom: 1

[Metadata]
Title:Wild Flowers
TitleUnicode:Wild Flowers
Artist:Artist unknown
ArtistUnicode:Artist unknown
Creator:miyagi
Version:Normal
Source:Zoids
Tags:ゾイド Zoido opening 1 latino flores silvestres New Century Zero Chaotic Century Guardian Force Bang Freiheit Fine Eleceene Lyney Sieg
BeatmapID:575737
BeatmapSetID:250591

[Difficulty]
HPDrainRate:3
CircleSize:3
OverallDifficulty:4
ApproachRate:5
SliderMultiplier:1.3
SliderTickRate:1

[Events]
//Background and Video events
0,0,"Zoids_1746x1234.jpg",0,0
Video,0,"zoids_opening_latino.avi"
//Break Periods
//Storyboard Layer 0 (Background)
//Storyboard Layer 1 (Fail)
//Storyboard Layer 2 (Pass)
//Storyboard Layer 3 (Foreground)
//Storyboard Sound Samples

[TimingPoints]
1875,521.739130434783,4,2,1,20,1,0
35788,-66.6666666666667,4,2,1,35,0,1
51961,-100,4,2,1,30,0,0
56657,-66.6666666666667,4,2,1,35,0,1
75179,-100,4,2,1,30,0,0

[Colours]
Combo1 : 211,168,255
Combo2 : 89,255,172
Combo3 : 125,184,255
Combo4 : 128,255,255
Combo5 : 255,255,128
Combo6 : 192,192,192

[HitObjects]
100,201,1875,5,0,0:0:0:0:
162,234,2135,1,0,0:0:0:0:
224,199,2396,1,0,0:0:0:0:
307,130,2788,2,0,P|344:178|389:195,1,97.5
477,293,3701,1,0,0:0:0:0:
406,303,3962,1,0,0:0:0:0:
342,270,4222,1,0,0:0:0:0:
271,281,4483,1,0,0:0:0:0:
165,260,4875,6,0,P|122:237|95:197,1,97.5
142,100,5657,2,0,P|179:148|224:165,1,97.5
280,180,6309,1,0,0:0:0:0:
351,187,6570,1,0,0:0:0:0:
398,90,6961,2,0,P|451:99|480:155,1,97.5
389,194,7744,2,0,P|346:171|307:140,1,97.5
249,100,8396,1,0,0:0:0:0:
181,77,8657,1,0,0:0:0:0:
89,133,9048,6,0,P|126:181|171:198,1,97.5
264,179,9831,2,0,P|301:227|346:244,1,97.5
404,251,10483,1,0,0:0:0:0:
465,282,10744,1,0,0:0:0:0:
369,329,11135,2,0,P|326:306|254:309,1,97.5
207,289,11788,1,0,0:0:0:0:
162,233,12048,2,0,P|131:243|102:258,1,65
40,221,12570,1,0,0:0:0:0:
41,149,12831,5,0,0:0:0:0:
99,107,13092,1,0,0:0:0:0:
100,35,13353,1,0,0:0:0:0:
170,49,13614,2,0,P|207:97|287:111,1,130
334,78,14396,1,0,0:0:0:0:
379,134,14657,1,0,0:0:0:0:
451,142,14918,1,0,0:0:0:0:
473,210,15179,1,0,0:0:0:0:
439,273,15440,1,0,0:0:0:0:
368,287,15701,1,0,0:0:0:0:
306,250,15962,5,0,0:0:0:0:
239,223,16222,2,0,P|207:220|164:238,1,65
109,256,16744,1,0,0:0:0:0:
41,280,17005,2,0,P|5:249|39:194,1,97.5
72,113,17788,2,0,P|109:161|154:178,1,97.5
243,207,18570,1,0,0:0:0:0:
265,139,18831,1,0,0:0:0:0:
313,192,19092,1,0,0:0:0:0:
386,269,19483,6,0,P|423:317|468:334,1,97.5
469,225,20266,2,0,P|438:178|399:162,1,97.5
335,135,20918,1,0,0:0:0:0:
291,78,21179,1,0,0:0:0:0:
215,154,21570,2,0,P|172:131|145:91,1,97.5
153,241,22353,2,0,P|110:219|84:179,1,97.5
84,107,23005,1,0,0:0:0:0:
132,54,23266,1,0,0:0:0:0:
203,62,23527,5,0,0:0:0:0:
267,93,23788,1,0,0:0:0:0:
327,131,24048,2,0,B|394:131|394:131|353:182|325:223|325:223|424:223,1,260
450,277,25353,2,0,P|416:325|370:337,1,97.5
293,273,26136,2,0,P|330:321|375:338,1,97.5
375,229,26918,1,0,0:0:0:0:
375,157,27179,1,0,0:0:0:0:
375,85,27440,2,0,L|321:85|271:85,1,97.5
232,182,28222,6,0,L|178:182|128:182,1,97.5
52,113,29005,1,0,0:0:0:0:
106,67,29266,1,0,0:0:0:0:
177,64,29527,2,0,L|220:64|274:64,1,97.5
337,150,30309,2,0,L|380:150|434:150,1,97.5
465,252,31092,1,0,0:0:0:0:
396,231,31353,1,0,0:0:0:0:
328,254,31614,1,0,0:0:0:0:
261,227,31875,5,0,0:0:0:0:
194,253,32136,1,0,0:0:0:0:
140,206,32396,1,0,0:0:0:0:
72,230,32657,1,0,0:0:0:0:
41,165,32918,1,0,0:0:0:0:
72,100,33179,1,0,0:0:0:0:
139,76,33440,1,0,0:0:0:0:
208,90,33700,2,0,P|245:138|290:155,1,97.5
206,233,34483,6,0,P|243:281|288:298,1,97.5
291,189,35266,1,0,0:0:0:0:
260,124,35527,1,0,0:0:0:0:
279,58,35788,2,0,P|418:73|387:303,1,390.00001487732
284,302,37352,1,0,0:0:0:0:
217,286,37614,1,0,0:0:0:0:
157,252,37875,2,0,P|117:200|164:130,1,146.250005578995
245,96,38658,2,0,P|282:144|373:168,1,146.250005578995
447,113,39440,5,0,0:0:0:0:
318,67,39961,2,0,P|251:81|190:161,1,146.250005578995
290,181,40744,2,0,P|327:229|418:253,1,146.250005578995
468,172,41527,1,0,0:0:0:0:
440,109,41789,1,0,0:0:0:0:
375,130,42050,2,0,P|304:114|257:60,1,146.250005578995
170,113,42833,2,0,P|100:94|53:39,1,146.250005578995
32,139,43614,1,0,0:0:0:0:
91,172,43875,5,0,0:0:0:0:
154,184,44135,2,0,P|283:206|282:352,2,292.50001115799,0|0|0,0:0|0:0|0:0,0:0:0:0:
91,212,45961,1,0,0:0:0:0:
47,264,46222,2,0,P|66:318|151:301,1,146.250005578995
204,229,47005,2,0,P|241:277|332:301,1,146.250005578995
380,269,47656,1,0,0:0:0:0:
404,204,47918,1,0,0:0:0:0:
386,138,48179,2,0,P|320:107|242:116,1,146.250005578995
161,167,48961,6,0,P|161:231|229:303,1,146.250005578995
272,320,49614,1,0,0:0:0:0:
340,321,49875,1,0,0:0:0:0:
395,280,50137,1,0,0:0:0:0:
395,211,50398,2,0,P|324:195|277:141,1,146.250005578995
331,53,51181,2,0,P|368:101|459:125,1,146.250005578995
466,230,51961,1,0,0:0:0:0:
405,267,52223,1,0,0:0:0:0:
334,280,52484,2,0,P|291:257|264:217,1,97.5
292,114,53267,6,0,P|329:162|388:182,1,97.5
390,74,54048,1,0,0:0:0:0:
256,192,54570,12,0,56657,0:0:0:0:
287,167,57570,6,0,L|287:114,2,48.750001859665,0|0|0,0:0|0:0|0:0,0:0:0:0:
418,178,58222,1,0,0:0:0:0:
463,241,58483,1,0,0:0:0:0:
439,315,58744,2,0,P|368:299|321:245,1,146.250005578995
318,128,59527,2,0,P|355:176|446:200,1,146.250005578995
444,123,60178,1,0,0:0:0:0:
409,53,60440,5,0,0:0:0:0:
332,39,60701,2,0,P|258:40|189:80,1,146.250005578995
138,126,61353,1,0,0:0:0:0:
84,182,61614,1,0,0:0:0:0:
47,250,61875,1,0,0:0:0:0:
104,301,62135,1,0,0:0:0:0:
176,270,62396,1,0,0:0:0:0:
301,177,62918,1,0,0:0:0:0:
376,266,63309,5,0,0:0:0:0:
426,159,63701,2,0,P|361:91|262:92,1,195.00000743866
280,168,64483,1,0,0:0:0:0:
202,180,64745,1,0,0:0:0:0:
183,105,65006,2,0,P|112:89|65:35,1,146.250005578995
54,151,65657,2,0,P|91:199|219:228,1,195.00000743866
248,300,66440,1,0,0:0:0:0:
323,319,66701,1,0,0:0:0:0:
332,241,66961,6,0,P|369:289|405:177,1,243.750009298325
448,109,67876,2,0,P|393:44|356:31,1,97.50000371933
306,50,68395,1,0,0:0:0:0:
231,73,68657,1,0,0:0:0:0:
152,75,68918,2,0,P|110:132|85:189,1,97.50000371933
127,228,69440,2,0,P|164:276|255:300,1,146.250005578995
321,300,70092,1,0,0:0:0:0:
398,289,70353,1,0,0:0:0:0:
464,247,70614,5,0,0:0:0:0:
452,169,70876,1,0,0:0:0:0:
378,142,71136,2,0,P|307:126|258:67,1,146.250005578995
104,64,72048,2,0,P|141:112|210:135,1,97.50000371933
165,245,72699,1,0,0:0:0:0:
223,296,72961,1,0,0:0:0:0:
301,294,73222,2,0,P|356:273|392:193,1,146.250005578995
315,181,73875,1,0,0:0:0:0:
290,106,74137,6,0,P|343:113|397:170,1,97.50000371933
404,211,74657,1,0,0:0:0:0:
349,266,74918,1,0,0:0:0:0:
283,168,75309,2,0,B|312:256|312:256|225:256|226:255|214:200,1,225.000008583069
283,101,76614,1,0,0:0:0:0:
241,34,76875,1,0,0:0:0:0:
163,41,77136,1,0,0:0:0:0:
136,114,77396,2,0,B|139:69|118:38|118:38|87:61,1,97.5
43,149,78179,6,4,B|86:185|10:218|67:269,2,130,4|0|4,0:0|0:0|0:0,0:0:0:0:
106,103,79483,1,0,0:0:0:0:
195,178,79875,1,0,0:0:0:0:
193,294,80266,2,0,B|219:265|219:265|263:283|263:283|286:200|327:285|336:212,1,195
418,89,81570,1,0,0:0:0:0:
309,131,81961,1,0,0:0:0:0:
262,238,82353,2,4,B|211:295|178:219|122:278,2,130,4|0|4,0:0|0:0|0:0,0:0:0:0:
285,163,83657,1,0,0:0:0:0:
238,55,84049,5,0,0:0:0:0:
172,152,84440,2,0,B|204:124|204:124|268:152|268:152|312:116|332:92|328:64,1,195
440,104,85614,1,0,0:0:0:0:
442,220,86005,1,0,0:0:0:0:
333,175,86396,2,0,B|341:175|321:199|277:235|277:235|213:207|213:207|181:235,1,195,4|0,0:0|0:0,0:0:0:0:
107,214,87440,1,0,0:0:0:0:
145,145,87701,2,0,P|102:122|75:82,1,97.5
188,53,88483,2,0,P|247:86|270:118,1,97.5
296,221,89266,6,0,B|324:205|324:205|344:217|344:217|368:205|388:189|384:149,1,130,0|4,0:0|0:0,0:0:0:0:
