osu file format v13

[General]
AudioFilename: Zoids Opening 1 Latino.mp3
AudioLeadIn: 0
PreviewTime: 33961
Countdown: 1
SampleSet: Soft
StackLeniency: 0.7
Mode: 0
LetterboxInBreaks: 1
WidescreenStoryboard: 1

[Editor]
DistanceSpacing: 0.7
BeatDivisor: 2
GridSize: 4
TimelineZoom: 1

[Metadata]
Title:Wild Flowers
TitleUnicode:Wild Flowers
Artist:Artist unknown
ArtistUnicode:Artist unknown
Creator:miyagi
Version:Easy
Source:Zoids
Tags:ゾイド Zoido opening 1 latino flores silvestres New Century Zero Chaotic Century Guardian Force Bang Freiheit Fine Eleceene Lyney Sieg
BeatmapID:575733
BeatmapSetID:250591

[Difficulty]
HPDrainRate:2
CircleSize:2
OverallDifficulty:2
ApproachRate:3
SliderMultiplier:1
SliderTickRate:1

[Events]
//Background and Video events
0,0,"Zoids_1746x1234.jpg",0,0
Video,0,"zoids_opening_latino.avi"
//Break Periods
//Storyboard Layer 0 (Background)
//Storyboard Layer 1 (Fail)
//Storyboard Layer 2 (Pass)
//Storyboard Layer 3 (Foreground)
//Storyboard Sound Samples

[TimingPoints]
1875,521.739130434783,4,2,1,20,1,0
35788,-66.6666666666667,4,2,1,35,0,1
51961,-100,4,2,1,30,0,0
56657,-66.6666666666667,4,2,1,35,0,1
75179,-100,4,2,1,30,0,0

[Colours]
Combo1 : 211,168,255
Combo2 : 89,255,172
Combo3 : 125,184,255
Combo4 : 128,255,255
Combo5 : 255,255,128
Combo6 : 192,192,192

[HitObjects]
80,264,1875,5,0,0:0:0:0:
140,208,2396,1,0,0:0:0:0:
260,192,3179,2,0,P|348:220|404:220,1,150
460,164,4482,1,0,0:0:0:0:
380,76,5266,2,0,P|308:52|235:48,1,150
160,76,6570,1,0,0:0:0:0:
64,148,7354,6,0,L|208:228|208:228,1,150
264,264,8657,1,0,0:0:0:0:
324,160,9441,2,0,P|344:212|424:188,1,150
460,124,10744,1,0,0:0:0:0:
356,64,11528,2,0,P|281:61|211:36,1,150
132,52,12831,1,0,0:0:0:0:
64,152,13615,6,0,P|152:180|208:180,1,150
284,156,14918,1,0,0:0:0:0:
344,52,15702,2,0,P|269:49|200:92,1,150
152,148,17005,1,0,0:0:0:0:
104,256,17789,2,0,P|104:312|196:336,1,150
256,316,19092,1,0,0:0:0:0:
320,216,19876,6,0,P|245:213|240:140,1,150
296,100,21179,1,0,0:0:0:0:
412,64,21963,2,0,P|428:132|412:220,1,150
372,276,23266,1,0,0:0:0:0:
256,304,24050,2,0,P|181:301|111:276,1,150
84,200,25353,1,0,0:0:0:0:
172,116,26137,6,0,P|208:176|184:260,1,150
128,300,27440,1,0,0:0:0:0:
80,164,28224,2,0,P|180:168|224:192,1,150
288,236,29527,1,0,0:0:0:0:
372,320,30311,2,0,P|452:304|452:232,1,150
432,172,31614,1,0,0:0:0:0:
370,68,32396,6,0,L|210:68,1,150
153,113,33701,1,0,0:0:0:0:
223,210,34485,2,0,P|296:201|309:131,1,150
279,58,35788,2,0,P|418:73|368:316,1,450.000017166138
285,299,37875,1,0,0:0:0:0:
279,209,38396,2,0,P|367:237|423:237,1,150
460,154,39440,5,0,0:0:0:0:
404,83,39961,2,0,P|329:80|248:114,3,150.000005722046,0|0|0|0,0:0|0:0|0:0|0:0,0:0:0:0:
193,167,42048,1,0,0:0:0:0:
240,243,42570,2,0,B|152:275|140:219|80:291,1,150.000005722046
152,343,43614,1,0,0:0:0:0:
241,332,44135,2,0,P|346:281|359:182,2,225.000008583069,0|0|0,0:0|0:0|0:0,0:0:0:0:
185,261,46222,5,0,0:0:0:0:
139,183,46744,2,0,B|181:129|193:185|281:153,1,150.000005722046
367,171,47788,1,0,0:0:0:0:
434,229,48309,1,0,0:0:0:0:
396,310,48831,2,0,B|308:342|296:286|236:358,1,150.000005722046
164,325,49875,1,0,0:0:0:0:
104,257,50396,5,0,0:0:0:0:
99,167,50918,2,0,B|95:65|174:209|197:84,1,150.000005722046
269,49,51962,1,0,0:0:0:0:
347,93,52483,2,0,L|285:191,1,100
318,264,53527,2,0,L|438:192,1,100
256,192,54570,12,0,56657,0:0:0:0:
359,185,57179,6,0,B|385:280|263:205|284:318,1,150.000005722046
196,321,58223,1,0,0:0:0:0:
110,292,58744,1,0,0:0:0:0:
97,202,59266,2,0,B|229:190|269:234|265:254,1,150.000005722046
302,154,60309,2,0,B|434:142|474:186|470:206,1,150.000005722046
460,263,61353,1,0,0:0:0:0:
412,339,61875,6,0,B|405:316|365:272|233:284,1,150.000005722046
213,340,62918,2,0,B|150:322|152:259|163:198,1,150.000005722046
172,126,63961,1,0,0:0:0:0:
251,83,64483,2,0,B|383:71|423:115|419:135,1,150.000005722046
349,179,65526,2,0,B|313:266|521:211|517:231,1,150.000005722046
474,139,66570,1,0,0:0:0:0:
397,90,67092,6,0,B|434:79|394:35|262:47,1,150.000005722046
266,132,68135,2,0,B|261:115|178:185|119:111,1,150.000005722046
186,52,69179,1,0,0:0:0:0:
275,43,69701,2,0,B|407:31|447:75|443:95,1,150.000005722046
454,146,70744,2,0,B|477:236|487:271|395:306,1,150.000005722046
352,307,71788,1,0,0:0:0:0:
264,328,72310,6,0,B|180:362|249:295|117:307,1,150.000005722046
60,244,73353,2,0,B|131:196|177:192|221:206,1,150.000005722046
280,240,74396,2,0,B|374:316|452:272|448:292,1,150.000005722046
442,199,75440,2,0,B|471:153|476:111|448:54,1,150
301,150,77527,2,0,L|175:67,1,150,0|4,0:0|0:0,0:0:0:0:
148,180,79353,2,0,L|300:280,1,150
357,166,80918,6,0,L|473:234,1,100
348,302,82222,6,4,B|297:359|264:283|214:332,1,100,4|0,0:0|0:0,0:0:0:0:
169,214,83527,2,0,B|253:186|285:186|289:218|317:214|361:194,1,150
373,107,85092,2,0,B|397:87|429:87|433:119|461:115|505:95,1,100
466,208,86396,1,4,0:0:0:0:
237,210,87701,2,0,B|321:182|353:182|357:214|385:210|429:190,1,150
335,321,89266,2,0,B|359:301|391:301|395:333|423:329|467:309,1,100,0|4,0:0|0:0,0:0:0:0:
