osu file format v14

[General]
AudioFilename: 01 Himitsu wo Choudai Actually, I Am OP1.mp3
AudioLeadIn: 500
PreviewTime: 779
Countdown: 0
SampleSet: Soft
StackLeniency: 0.7
Mode: 0
LetterboxInBreaks: 0
WidescreenStoryboard: 0

[Editor]
DistanceSpacing: 1.3
BeatDivisor: 4
GridSize: 4
TimelineZoom: 1.6

[Metadata]
Title:Himitsu o Choudai
TitleUnicode:ひみつをちょーだい
Artist:ArsMagna
ArtistUnicode:アルスマグナ
Creator:Kyubey
Version:Normal
Source:実は私は
Tags:jitsu wa watashi wa actually i am opening op tv size lunarblossom ryuu seikatu
BeatmapID:751181
BeatmapSetID:337700

[Difficulty]
HPDrainRate:4
CircleSize:3
OverallDifficulty:4
ApproachRate:5
SliderMultiplier:1.2
SliderTickRate:1

[Events]
//Background and Video events
0,0,"bg.jpg",0,0
//Break Periods
//Storyboard Layer 0 (Background)
//Storyboard Layer 1 (Fail)
//Storyboard Layer 2 (Pass)
//Storyboard Layer 3 (Foreground)
//Storyboard Sound Samples

[TimingPoints]
868,375,4,2,1,43,1,0
12868,-100,4,1,1,53,0,0
18868,-100,4,1,1,44,0,0
42868,-100,4,1,1,41,0,0
45305,-100,4,1,0,41,0,0
45868,-100,4,1,1,41,0,0
48305,-100,4,1,0,41,0,0
48868,-100,4,1,1,41,0,0
49805,-100,4,1,0,41,0,0
50180,-100,4,1,1,41,0,0
51305,-100,4,1,0,41,0,0
51868,-100,4,1,1,41,0,0
56368,-100,4,1,1,53,0,1
68274,-100,4,1,1,53,0,0
68368,-100,4,1,1,53,0,1
74368,-100,4,1,1,43,0,0
80368,-100,4,2,1,43,0,0

[Colours]
Combo1 : 221,157,87
Combo2 : 78,96,220
Combo3 : 215,55,112
Combo4 : 116,233,37

[HitObjects]
177,314,868,6,0,L|309:326,1,120,4|2,1:1|2:2,0:0:0:0:
397,206,1618,2,0,L|277:216,1,120,4|2,1:1|2:2,0:0:0:0:
121,214,2368,2,0,P|113:182|111:139,1,60,0|2,1:0|2:0,0:0:0:0:
125,78,2743,1,0,0:0:0:0:
202,79,2930,2,0,P|303:95|413:60,1,180,4|2,1:1|0:0,0:0:0:0:
504,169,3868,6,0,L|490:336,1,120,4|2,1:1|0:0,0:0:0:0:
359,368,4618,2,0,L|345:201,1,120,4|2,1:1|0:0,0:0:0:0:
243,132,5368,2,0,L|236:217,1,60,0|2,1:0|0:0,0:0:0:0:
269,263,5743,1,0,1:0:0:0:
191,259,5930,2,0,P|99:251|5:265,1,180,4|2,1:1|0:0,0:0:0:0:
34,108,6868,6,0,B|95:121|95:121|154:107,1,120,4|2,1:1|0:0,0:0:0:0:
191,259,7618,2,0,B|247:245|247:245|308:258,1,120,4|2,1:1|0:0,0:0:0:0:
381,286,8180,1,0,2:0:0:0:
456,306,8368,2,0,P|457:335|455:365,2,60,0|2|0,1:0|0:0|0:0,0:0:0:0:
437,230,8930,2,0,P|429:139|435:51,1,180,4|2,1:1|0:0,0:0:0:0:
280,28,9868,6,0,L|272:170,1,120,4|0,1:1|0:0,0:0:0:0:
207,190,10430,1,0,0:0:0:0:
149,137,10618,2,0,L|153:53,2,60,4|2|0,1:1|0:0|0:0,0:0:0:0:
266,240,11368,2,0,L|262:324,2,60,4|2|2,1:1|0:0|0:0,0:0:0:0:
190,257,11930,1,4,1:1:0:0:
403,124,12868,6,0,B|417:186|417:186|404:257,1,120,4|2,0:0|2:0,0:0:0:0:
289,344,13618,2,0,P|226:335|146:352,1,120,2|2,2:0|2:0,0:0:0:0:
96,365,14180,1,8,2:1:0:0:
46,304,14368,2,0,L|28:166,2,120,0|2|2,0:0|2:0|2:0,0:0:0:0:
159,195,15493,2,0,L|147:89,1,60,2|8,0:2|0:0,0:0:0:0:
209,81,15868,6,0,B|265:91|307:73|307:73|276:50,1,120,4|2,0:0|2:0,0:0:0:0:
400,173,16618,2,0,B|344:163|301:180|301:180|333:204,1,120,0|2,0:0|2:2,0:0:0:0:
412,68,17368,2,0,B|468:78|510:60|510:60|479:37,1,120,4|2,0:0|0:2,0:0:0:0:
511,202,18118,2,0,L|506:334,1,120,0|8,0:0|0:0,0:0:0:0:
351,302,18868,6,0,P|289:296|215:306,1,120,4|8,0:0|2:1,0:0:0:0:
76,286,19618,2,0,L|64:351,2,60,0|0|8,0:0|0:0|2:1,0:0:0:0:
144,248,20180,1,2,2:0:0:0:
212,209,20368,2,0,L|229:76,1,120,0|8,0:0|2:1,0:0:0:0:
373,42,21118,1,0,0:0:0:0:
373,42,21305,1,2,0:2:0:0:
373,42,21493,2,0,L|368:124,1,60,8|2,2:1|2:0,0:0:0:0:
443,127,21868,6,0,L|463:288,1,120,4|8,0:0|2:1,0:0:0:0:
308,204,22618,2,0,L|215:194,1,60,0|0,0:0|0:0,0:0:0:0:
183,241,22993,1,8,2:1:0:0:
180,84,23368,1,0,0:0:0:0:
35,50,23743,2,0,L|21:123,1,60,8|0,2:1|2:0,0:0:0:0:
56,179,24118,2,0,L|67:237,1,60,0|0,0:0|0:0,0:0:0:0:
30,307,24493,2,0,L|16:380,1,60,8|2,2:1|2:0,0:0:0:0:
96,368,24868,6,0,L|251:355,1,120,4|8,0:0|2:1,0:0:0:0:
371,363,25618,2,0,L|446:373,2,60,0|0|8,0:0|0:0|2:1,0:0:0:0:
295,342,26180,1,2,2:0:0:0:
270,267,26368,2,0,L|286:133,1,120,0|8,0:0|2:1,0:0:0:0:
175,35,27118,2,0,L|190:106,2,60,0|2|8,0:0|0:2|2:1,0:0:0:0:
97,26,27680,1,2,2:0:0:0:
19,19,27868,6,0,P|11:67|28:162,1,120,4|8,0:0|2:1,0:0:0:0:
49,209,28430,1,0,2:0:0:0:
77,282,28618,2,0,P|78:322|70:366,1,60,0|0,0:0|0:0,0:0:0:0:
152,353,28993,2,0,L|240:338,1,60,8|2,2:1|2:0,0:0:0:0:
288,355,29368,1,0,0:0:0:0:
423,277,29743,2,0,L|365:221,1,60,8|0,2:1|2:0,0:0:0:0:
306,207,30118,2,0,L|286:285,1,60,0|0,0:0|0:0,0:0:0:0:
301,342,30493,2,0,L|378:319,1,60,8|0,0:0|0:0,0:0:0:0:
423,277,30868,6,0,P|433:212|408:138,1,120,4|10,0:0|2:1,0:0:0:0:
291,70,31618,2,0,L|311:159,1,60,0|0,0:0|0:0,0:0:0:0:
306,207,31993,1,10,2:1:0:0:
241,250,32180,1,0,2:0:0:0:
165,228,32368,2,0,P|103:216|40:226,1,120,0|10,0:0|2:1,0:0:0:0:
170,127,33118,2,0,L|232:100,2,60,0|0|10,0:0|0:0|2:1,0:0:0:0:
103,86,33680,1,0,2:0:0:0:
166,40,33868,6,0,P|228:17|278:34,1,120,4|8,0:0|2:1,0:0:0:0:
272,189,34618,2,0,L|352:157,1,60
384,112,34993,1,8,2:1:0:0:
461,109,35180,1,2,2:1:0:0:
503,174,35368,2,0,P|503:234|464:304,1,120,0|8,0:0|2:1,0:0:0:0:
411,328,35930,1,2,2:1:0:0:
332,325,36118,2,0,L|260:344,2,60,0|0|8,0:0|0:0|2:1,0:0:0:0:
372,257,36680,1,0,1:0:0:0:
293,253,36868,6,0,P|278:194|291:128,1,120,4|8,0:0|2:1,0:0:0:0:
157,46,37618,2,0,L|141:120,2,60,0|2|8,0:0|0:2|2:1,0:0:0:0:
79,181,38368,2,0,L|108:310,1,120,0|8,0:0|2:1,0:0:0:0:
254,342,39118,1,0,0:0:0:0:
254,342,39305,1,2,0:2:0:0:
254,342,39493,2,0,L|334:324,1,60,8|2,2:1|2:0,0:0:0:0:
384,360,39868,6,0,P|374:304|388:205,1,120,4|8,0:0|2:1,0:0:0:0:
478,122,40618,2,0,P|484:88|474:44,1,60,0|2,0:0|0:2,0:0:0:0:
406,87,40993,1,8,2:1:0:0:
261,134,41368,2,0,P|199:142|126:129,1,120,0|8,0:0|2:1,0:0:0:0:
35,20,42118,1,0,0:0:0:0:
49,175,42493,1,8,2:1:0:0:
37,330,42868,6,0,P|95:320|175:333,1,120,4|8,0:0|2:1,0:0:0:0:
282,362,43618,2,0,P|309:303|306:215,1,120,0|8,0:0|2:1,0:0:0:0:
259,127,44368,1,0,0:0:0:0:
390,142,44743,1,8,2:1:0:0:
312,248,45118,1,0,0:0:0:0:
312,248,45305,1,8,0:0:0:0:
312,248,45493,1,8,2:1:0:0:
180,241,45868,6,0,P|165:182|163:110,1,120,4|8,0:0|2:1,0:0:0:0:
48,56,46618,2,0,P|46:116|28:186,1,120,0|8,0:0|2:1,0:0:0:0:
62,303,47368,1,0,0:0:0:0:
180,241,47743,1,8,2:1:0:0:
293,308,48118,1,0,0:0:0:0:
293,308,48305,1,8,0:0:0:0:
293,308,48493,2,0,L|306:248,1,60,8|0,2:1|2:0,0:0:0:0:
347,183,48868,6,0,L|379:321,1,120,4|8,0:0|2:1,0:0:0:0:
498,204,49618,2,0,L|506:134,2,60,0|8|8,0:0|0:1|2:1,0:0:0:0:
347,183,50368,2,0,L|214:170,1,120,4|8,0:0|2:1,0:0:0:0:
120,284,51118,2,0,L|202:266,2,60,0|8|8,0:0|0:1|2:1,0:0:0:0:
51,147,51868,6,0,P|54:80|73:6,1,120,4|8,0:0|2:1,0:0:0:0:
207,99,52618,2,0,P|204:166|185:240,1,120,0|8,0:0|2:1,0:0:0:0:
62,302,53368,1,0,0:0:0:0:
193,218,53743,1,8,2:1:0:0:
288,341,54118,1,0,0:0:0:0:
419,257,54493,1,0,0:0:0:0:
419,257,56368,6,0,P|434:195|405:122,1,120,4|0,0:0|0:0,0:0:0:0:
269,96,57118,2,0,L|159:116,1,60,0|10,0:0|2:1,0:0:0:0:
139,140,57493,2,0,L|72:124,1,60,0|10,0:0|2:1,0:0:0:0:
14,84,57868,2,0,L|28:208,1,120,4|0,0:0|0:0,0:0:0:0:
75,351,58618,2,0,L|160:320,1,60,0|10,0:0|2:1,0:0:0:0:
209,334,58993,1,0,0:0:0:0:
209,334,59180,1,10,2:1:0:0:
209,334,59368,6,0,P|220:269|195:188,1,120,4|0,0:0|0:0,0:0:0:0:
307,95,60118,2,0,P|296:160|321:241,1,120,2|0,0:0|0:0,0:0:0:0:
420,318,60868,1,6,0:0:0:0:
461,167,61243,1,0,0:0:0:0:
306,212,61618,2,0,P|272:217|230:210,1,60,4|10,0:0|2:1,0:0:0:0:
176,179,61993,2,0,P|146:176|116:181,1,60,0|10,0:0|2:1,0:0:0:0:
78,249,62368,6,0,L|51:124,1,120,4|0,0:0|0:0,0:0:0:0:
75,57,62930,1,8,2:1:0:0:
228,30,63305,1,10,2:1:0:0:
296,68,63493,2,0,P|324:70|370:65,1,60,0|10,0:0|2:1,0:0:0:0:
412,14,63868,6,0,L|401:146,1,120,4|0,0:0|0:0,0:0:0:0:
456,188,64430,1,8,2:1:0:0:
332,283,64805,1,10,2:1:0:0:
265,324,64993,2,0,L|197:315,1,60,0|10,0:0|2:1,0:0:0:0:
138,356,65368,6,0,P|92:262|150:178,2,180,4|8|0,0:0|2:1|0:0,0:0:0:0:
248,245,66868,1,6,0:0:0:0:
369,343,67243,1,0,0:0:0:0:
463,219,67618,1,6,0:0:0:0:
342,121,67993,1,2,0:0:0:0:
186,118,68368,6,0,L|98:134,1,60,12|0,2:1|0:0,0:0:0:0:
50,113,68743,2,0,L|114:228,1,120,10|8,2:1|2:1,0:0:0:0:
260,182,69493,1,8,2:1:0:0:
375,77,69868,6,0,L|463:93,1,60,8|0,2:1|0:0,0:0:0:0:
511,72,70243,2,0,L|447:187,1,120,10|8,2:1|2:1,0:0:0:0:
345,290,70993,1,8,2:1:0:0:
188,292,71368,5,8,2:1:0:0:
72,188,71743,1,10,2:1:0:0:
92,32,72118,1,8,2:1:0:0:
208,136,72493,1,10,2:1:0:0:
324,240,72868,2,0,P|356:184|360:120,1,120,8|8,2:1|2:1,0:0:0:0:
236,224,73618,2,0,L|260:356,1,120,8|8,2:1|2:1,0:0:0:0:
116,276,74368,6,0,P|104:212|120:144,1,120,4|0,0:0|2:0,0:0:0:0:
167,50,75118,1,8,2:1:0:0:
233,150,75493,1,0,0:0:0:0:
233,150,75680,2,0,L|377:132,1,120,0|0,0:0|0:0,0:0:0:0:
469,109,76430,1,0,0:0:0:0:
469,109,76618,2,0,L|457:198,1,60,8|2,2:1|2:0,0:0:0:0:
496,216,76993,2,0,L|484:305,1,60,0|8,2:0|2:1,0:0:0:0:
482,335,77368,6,0,P|423:325|349:339,1,120,4|0,0:0|2:0,0:0:0:0:
247,362,78118,2,0,P|188:372|114:358,1,120,8|0,2:1|0:0,0:0:0:0:
95,313,78680,1,8,2:1:0:0:
188,237,79055,1,8,2:1:0:0:
219,185,79243,2,0,P|221:149|213:106,1,60,0|0,0:0|0:0,0:0:0:0:
172,86,79618,2,0,P|170:50|178:7,2,60,0|2|8,0:0|0:2|2:1,0:0:0:0:
326,64,80368,6,0,L|464:45,1,120,4|2,1:0|2:0,0:0:0:0:
378,188,81118,2,0,L|240:169,1,120,4|2,1:0|2:0,0:0:0:0:
185,309,81868,2,0,P|215:309|279:296,1,60,0|2,1:0|2:0,0:0:0:0:
322,301,82243,1,0,2:0:0:0:
291,372,82430,2,0,P|203:358|85:379,1,180,4|2,1:0|0:0,0:0:0:0:
11,250,83368,6,0,B|1:188|1:188|15:128,1,120,4|2,1:0|0:0,0:0:0:0:
135,34,84118,2,0,B|145:96|145:96|131:156,1,120,4|2,1:0|0:0,0:0:0:0:
152,306,84868,2,0,L|228:276,1,60,0|2,1:0|0:0,0:0:0:0:
276,246,85243,1,0,1:0:0:0:
331,300,85430,2,0,L|354:111,1,180,4|2,1:0|0:0,0:0:0:0:
225,29,86368,6,0,L|207:170,1,120,4|0,1:0|0:0,0:0:0:0:
140,185,86930,1,0,0:0:0:0:
86,128,87118,2,0,L|95:44,2,60,4|2|0,1:0|0:0|0:0,0:0:0:0:
196,239,87868,2,0,L|186:322,2,60,4|2|0,1:0|0:0|0:0,0:0:0:0:
119,251,88430,1,4,1:0:0:0:
