osu file format v14

[General]
AudioFilename: virtual
AudioLeadIn: 0
PreviewTime: -1
Countdown: 0
SampleSet: None
StackLeniency: 0.7
Mode: 3
LetterboxInBreaks: 0
SpecialStyle: 1
WidescreenStoryboard: 1

[Editor]
DistanceSpacing: 0.7
BeatDivisor: 4
GridSize: 8
TimelineZoom: 1

[Metadata]
Title:Cai Yun Zhui Yue (Piano Solo)
TitleUnicode:彩云追月 (Piano Solo)
Artist:Arranged by Wang Jianzhong
ArtistUnicode:Arranged by 王建中
Creator:liaoxingyao
Version:Another 7K
Source:
Tags:
BeatmapID:1430567
BeatmapSetID:676371

[Difficulty]
HPDrainRate:8
CircleSize:7
OverallDifficulty:9
ApproachRate:5
SliderMultiplier:1.4
SliderTickRate:1

[Events]
//Background and Video events
//Break Periods
//Storyboard Layer 0 (Background)
//Storyboard Layer 1 (Fail)
//Storyboard Layer 2 (Pass)
//Storyboard Layer 3 (Foreground)
//Storyboard Sound Samples
Sample,3769,0,"bgm.wav",70
Sample,5015,0,"b_57l32-3o6a.wav",70
Sample,5015,0,"b_57l32-3o7e.wav",70
Sample,5415,0,"b_57l16-3o7e.wav",70
Sample,5415,0,"b_57l16-3o6a.wav",70
Sample,6215,0,"b_59l16-3o6a.wav",70
Sample,6215,0,"b_59l16-3o7e.wav",70
Sample,13809,0,"b_60l32-3o6fp.wav",70
Sample,13809,0,"b_60l32-3o6d.wav",70
Sample,14209,0,"b_60l16-3o6d.wav",70
Sample,14209,0,"b_60l16-3o6fp.wav",70
Sample,15009,0,"b_60l16-3o6d.wav",70
Sample,15009,0,"b_60l16-3o6fp.wav",70
Sample,26782,0,"b_73l2o5e.wav",70
Sample,29440,0,"b_51l32-3o5cp.wav",70
Sample,29793,0,"b_51l16-3o5cp.wav",70
Sample,30460,0,"b_50l16-3o5cp.wav",70
Sample,32127,0,"b_48l32-3o5cp.wav",70
Sample,32460,0,"b_48l16-3o5cp.wav",70
Sample,33127,0,"b_47l16-3o5cp.wav",70
Sample,37460,0,"b_68l8o4fp.wav",70
Sample,38460,0,"b_43l4o5fp.wav",70
Sample,45793,0,"b_50l4o5cp.wav",70
Sample,47127,0,"b_47l2o5e.wav",70
Sample,48460,0,"b_41l4o4fp.wav",70
Sample,56460,0,"b_52l2o4b.wav",70
Sample,58793,0,"b_46l32-3o4a.wav",70
Sample,59127,0,"b_64l8o4fp.wav",70
Sample,59793,0,"b_64l8o4fp.wav",70
Sample,60460,0,"b_54l8-3o5fp.wav",70
Sample,60460,0,"b_54l4o4a.wav",70
Sample,60460,0,"b_54l8-3o5a.wav",70
Sample,61460,0,"b_58l32-3o6d.wav",70
Sample,61460,0,"b_58l32-3o6fp.wav",70
Sample,62460,0,"b_67l16-3o6d.wav",70
Sample,63127,0,"b_64l8-3o5cp.wav",70
Sample,63127,0,"b_78l8o4e.wav",70
Sample,63127,0,"b_64l8-3o5e.wav",70
Sample,64127,0,"b_52l32-3o5a.wav",70
Sample,64127,0,"b_52l32-3o6cp.wav",70
Sample,65127,0,"b_55l16-3o6cp.wav",70
Sample,73793,0,"b_52l8-3o5gp.wav",70
Sample,76460,0,"b_54l4o5e.wav",70
Sample,77793,0,"b_71l8o5cp.wav",70
Sample,81793,0,"b_61l4o5cp.wav",70
Sample,81793,0,"b_61l4o5e.wav",70
Sample,82793,0,"b_75l8o7cp.wav",70
Sample,82793,0,"b_61l8-3o6cp.wav",70
Sample,83793,0,"b_60l4o5b.wav",70
Sample,103127,0,"b_82l16o4e.wav",70
Sample,103127,0,"b_98l16-3o6a.wav",70
Sample,103627,0,"b_106l16o6fp.wav",70
Sample,104460,0,"b_99l8o6e.wav",70
Sample,104460,0,"b_99l8o6a.wav",70
Sample,105127,0,"b_92l4o6e.wav",70
Sample,105127,0,"b_92l4o6b.wav",70
Sample,105127,0,"b_92l4o6fp.wav",70
Sample,105793,0,"b_89l4-3o6a.wav",70
Sample,109519,0,"b_59l8o5fp.wav",70
Sample,112264,0,"b_59l8o5cp.wav",70
Sample,116617,0,"b_65l8-3o4gp.wav",70
Sample,117950,0,"b_66l2o5cp.wav",70
Sample,119284,0,"b_50l8o5b.wav",70
Sample,119284,0,"b_50l8o5d.wav",70
Sample,119284,0,"b_50l8o5fp.wav",70
Sample,121950,0,"b_63l8-3o4b.wav",70
Sample,123284,0,"b_49l384-19o3fp.wav",70
Sample,131081,0,"b_65l4o5gp.wav",70
Sample,131787,0,"b_67l4o5gp.wav",70
Sample,133552,0,"b_70l8o5e.wav",70
Sample,133905,0,"b_72l4o5e.wav",70
Sample,134733,0,"b_75l4o5e.wav",70
Sample,135820,0,"b_77l4o3e.wav",70
Sample,135820,0,"b_86l8-3o5e.wav",70
Sample,137820,0,"b_97l8o6cp.wav",70
Sample,138487,0,"b_91l16-15o7cp.wav",70
Sample,138487,0,"b_82l2o3fp.wav",70
Sample,138487,0,"b_91l16-13o6fp.wav",70
Sample,139487,0,"b_82l8o4fp.wav",70
Sample,140153,0,"b_86l8o4b.wav",70
Sample,140487,0,"b_89l8o5cp.wav",70
Sample,140820,0,"b_91l8o5e.wav",70
Sample,141153,0,"b_93l8o7d.wav",70
Sample,141153,0,"b_93l8o6fp.wav",70
Sample,141153,0,"b_93l8o6a.wav",70
Sample,142487,0,"b_82l4o4cp.wav",70
Sample,142487,0,"b_82l4o3cp.wav",70
Sample,143153,0,"b_73l4o4gp.wav",70
Sample,143153,0,"b_73l4o5cp.wav",70
Sample,143820,0,"b_91l8o7fp.wav",70
Sample,143820,0,"b_86l384-19o3d.wav",70
Sample,143820,0,"b_86l384-19o3a.wav",70
Sample,145153,0,"b_91l8o6gp.wav",70
Sample,145153,0,"b_91l8o7e.wav",70
Sample,145820,0,"b_97l4o6e.wav",70
Sample,145820,0,"b_76l4o4gp.wav",70
Sample,146487,0,"b_86l384-19o3d.wav",70
Sample,146487,0,"b_86l384-19o3a.wav",70
Sample,146487,0,"b_92l8o7fp.wav",70
Sample,147820,0,"b_91l8o6gp.wav",70
Sample,147820,0,"b_82l4o4cp.wav",70
Sample,148487,0,"b_83l4o3b.wav",70
Sample,149153,0,"b_89l4o6e.wav",70
Sample,149153,0,"b_89l4o6a.wav",70
Sample,150153,0,"b_85l8o5e.wav",70
Sample,150820,0,"b_82l16o7cp.wav",70
Sample,151153,0,"b_82l16o7fp.wav",70
Sample,151487,0,"b_82l16o7cp.wav",70
Sample,151820,0,"b_91l8o7cp.wav",70
Sample,151820,0,"b_87l384-19o3gp.wav",70
Sample,151820,0,"b_91l8o6cp.wav",70
Sample,153153,0,"b_92l8o5b.wav",70
Sample,153153,0,"b_92l8o6b.wav",70
Sample,153820,0,"b_78l4o4b.wav",70
Sample,153820,0,"b_102l4o5b.wav",70
Sample,154487,0,"b_92l8o6e.wav",70
Sample,154487,0,"b_92l8o6gp.wav",70
Sample,154487,0,"b_92l8o7cp.wav",70
Sample,155820,0,"b_92l8o6b.wav",70
Sample,155820,0,"b_92l8o5b.wav",70
Sample,156487,0,"b_102l4o5b.wav",70
Sample,156487,0,"b_102l4o6b.wav",70
Sample,157153,0,"b_92l8o6e.wav",70
Sample,157153,0,"b_92l8o6gp.wav",70
Sample,157153,0,"b_92l8o7cp.wav",70
Sample,158487,0,"b_96l8o6fp.wav",70
Sample,158487,0,"b_96l8o5b.wav",70
Sample,159153,0,"b_102l8o5e.wav",70
Sample,159820,0,"b_92l2o6e.wav",70
Sample,159820,0,"b_92l2o6a.wav",70
Sample,160820,0,"b_81l8o3a.wav",70
Sample,161487,0,"b_81l8o3a.wav",70
Sample,161820,0,"b_81l8o4fp.wav",70
Sample,162153,0,"b_81l8o3a.wav",70
Sample,163487,0,"b_72l16o7e.wav",70
Sample,163487,0,"b_85l32-3o6fp.wav",70
Sample,163820,0,"b_72l384-19o7a.wav",70
Sample,164487,0,"b_83l16-3o6d.wav",70
Sample,166153,0,"b_81l32-3o6e.wav",70
Sample,166153,0,"b_68l16o7e.wav",70
Sample,166487,0,"b_82l16-3o6e.wav",70
Sample,167153,0,"b_76l16-3o6e.wav",70
Sample,168879,0,"b_73l32-3o4a.wav",70
Sample,168879,0,"b_73l32-3o5d.wav",70
Sample,169232,0,"b_61l384-19o6a.wav",70
Sample,169938,0,"b_71l16-3o4a.wav",70
Sample,171768,0,"b_64l32-3o4a.wav",70
Sample,171768,0,"b_64l32-3o5cp.wav",70
Sample,172143,0,"b_66l16-3o5cp.wav",70
Sample,172943,0,"b_55l16-3o4a.wav",70
Sample,175632,0,"b_59l32-3o6cp.wav",70
Sample,175632,0,"b_57l32-3o7e.wav",70
Sample,176060,0,"b_57l16-3o7e.wav",70
Sample,176060,0,"b_59l16-3o6cp.wav",70
Sample,176918,0,"b_59l16-3o7e.wav",70
Sample,176918,0,"b_59l16-3o6cp.wav",70
Sample,183154,0,"b_40l8-3o5a.wav",70
Sample,183154,0,"b_75l8-3o6a.wav",70
Sample,184554,0,"b_60l32-3o6d.wav",70
Sample,184554,0,"b_60l32-3o7a.wav",70
Sample,184954,0,"b_60l16-3o7a.wav",70
Sample,185754,0,"b_60l16-3o7a.wav",70
Sample,196069,0,"b_47l2o7gp.wav",70
Sample,196069,0,"b_77l2o5gp.wav",70
Sample,196069,0,"b_47l2o8gp.wav",70
Sample,197569,0,"b_72l2o5e.wav",70
Sample,199169,0,"b_60l8-3o6cp.wav",70
Sample,202426,0,"b_57l8-3o7cp.wav",70
Sample,203745,0,"b_59l32-3o7e.wav",70
Sample,204206,0,"b_59l16-3o7e.wav",70
Sample,205206,0,"b_59l16-3o7e.wav",70

[TimingPoints]
0,923.076923076923,4,2,0,70,1,0
4615,800,4,2,0,70,1,0
6815,1000,4,2,0,70,1,0
7565,923.076923076923,4,2,0,70,1,0
8026,857.142857142857,4,2,0,70,1,0
8455,800,4,2,0,70,1,0
8855,1333.33333333333,4,2,0,70,1,0
9188,1200,4,2,0,70,1,0
9488,1090.90909090909,4,2,0,70,1,0
9761,1000,4,2,0,70,1,0
10261,1090.90909090909,4,2,0,70,1,0
10534,1500,4,2,0,70,1,0
10909,6000,4,2,0,70,1,0
12409,1000,4,2,0,70,1,0
13409,800,4,2,0,70,1,0
15609,1000,4,2,0,70,1,0
16359,923.076923076923,4,2,0,70,1,0
16820,857.142857142857,4,2,0,70,1,0
17249,800,4,2,0,70,1,0
17649,1333.33333333333,4,2,0,70,1,0
17982,1200,4,2,0,70,1,0
18282,1090.90909090909,4,2,0,70,1,0
18555,1000,4,2,0,70,1,0
19055,1090.90909090909,4,2,0,70,1,0
19328,1333.33333333333,4,2,0,70,1,0
19661,2000,4,2,0,70,1,0
20161,1000,4,2,0,70,1,0
20411,857.142857142857,4,2,0,70,1,0
20625,666.666666666667,4,2,0,70,1,0
20792,571.428571428571,4,2,0,70,1,0
21506,545.454545454546,4,2,0,70,1,0
22597,571.428571428571,4,2,0,70,1,0
23169,600,4,2,0,70,1,0
23919,631.578947368421,4,2,0,70,1,0
24392,750,4,2,0,70,1,0
24767,857.142857142857,4,2,0,70,1,0
24982,1200,4,2,0,70,1,0
25282,750,4,2,0,70,1,0
26782,800,4,2,0,70,1,0
28382,705.882352941176,4,2,0,70,1,0
29793,666.666666666667,4,2,0,70,1,0
108460,705.882352941176,4,2,0,70,1,0
109872,666.666666666667,4,2,0,70,1,0
111205,705.882352941176,4,2,0,70,1,0
112617,666.666666666667,4,2,0,70,1,0
124617,631.578947368421,4,2,0,70,1,0
129669,705.882352941176,4,2,0,70,1,0
133905,800,4,2,0,70,1,0
134305,857.142857142857,4,2,0,70,1,0
134733,923.076923076923,4,2,0,70,1,0
135195,1000,4,2,0,70,1,0
135445,1500,4,2,0,70,1,0
135820,666.666666666667,4,2,0,70,1,0
167820,705.882352941176,4,2,0,70,1,0
170643,750,4,2,0,70,1,0
172143,800,4,2,0,70,1,0
172943,923.076923076923,4,2,0,70,1,0
173174,1090.90909090909,4,2,0,70,1,0
173447,1333.33333333333,4,2,0,70,1,0
173780,2000,4,2,0,70,1,0
174280,923.076923076923,4,2,0,70,1,0
175203,857.142857142857,4,2,0,70,1,0
177560,1000,4,2,0,70,1,0
178310,923.076923076923,4,2,0,70,1,0
178772,857.142857142857,4,2,0,70,1,0
179201,800,4,2,0,70,1,0
179601,1333.33333333333,4,2,0,70,1,0
179934,1200,4,2,0,70,1,0
180234,1090.90909090909,4,2,0,70,1,0
180507,1000,4,2,0,70,1,0
181007,1090.90909090909,4,2,0,70,1,0
181279,1500,4,2,0,70,1,0
181654,6000,4,2,0,70,1,0
183154,1000,4,2,0,70,1,0
184154,800,4,2,0,70,1,0
186354,1000,4,2,0,70,1,0
187104,923.076923076923,4,2,0,70,1,0
187566,857.142857142857,4,2,0,70,1,0
187994,800,4,2,0,70,1,0
188394,1333.33333333333,4,2,0,70,1,0
188728,1200,4,2,0,70,1,0
189028,1090.90909090909,4,2,0,70,1,0
189301,1000,4,2,0,70,1,0
189801,1090.90909090909,4,2,0,70,1,0
190073,1500,4,2,0,70,1,0
190448,2000,4,2,0,70,1,0
190948,1000,4,2,0,70,1,0
191198,857.142857142857,4,2,0,70,1,0
191413,666.666666666667,4,2,0,70,1,0
191579,571.428571428571,4,2,0,70,1,0
192294,545.454545454546,4,2,0,70,1,0
193384,571.428571428571,4,2,0,70,1,0
193956,600,4,2,0,70,1,0
194706,631.578947368421,4,2,0,70,1,0
195180,750,4,2,0,70,1,0
195555,857.142857142857,4,2,0,70,1,0
195769,1200,4,2,0,70,1,0
196069,750,4,2,0,70,1,0
197569,800,4,2,0,70,1,0
201569,857.142857142857,4,2,0,70,1,0
203283,923.076923076923,4,2,0,70,1,0
204206,1000,4,2,0,70,1,0
205206,1200,4,2,0,70,1,0
206406,1000,4,2,0,70,1,0

[HitObjects]
109,192,3692,5,0,0:0:0:0:b_69l8-3o5e.wav
256,192,3692,1,0,0:0:0:0:b_74l8-3o6e.wav
182,192,5015,1,0,0:0:0:0:b_59l32-3o5a.wav
329,192,5015,1,0,0:0:0:0:b_59l32-3o6cp.wav
475,192,5015,1,0,0:0:0:0:b_57l32-3o6e.wav
182,192,5415,1,0,0:0:0:0:b_59l16-3o5a.wav
329,192,5415,1,0,0:0:0:0:b_59l16-3o6cp.wav
475,192,5415,1,0,0:0:0:0:b_57l16-3o6e.wav
182,192,6215,1,0,0:0:0:0:b_59l16-3o5a.wav
329,192,6215,1,0,0:0:0:0:b_59l16-3o6cp.wav
475,192,6215,1,0,0:0:0:0:b_59l16-3o6e.wav
109,192,7002,1,0,0:0:0:0:b_70l64-25o6e.wav
256,192,7065,1,0,0:0:0:0:b_70l16-7o6a.wav
402,192,7107,1,0,0:0:0:0:b_70l384-181o7cp.wav
36,192,7190,1,0,0:0:0:0:b_47l32o4e.wav
109,192,7315,1,0,0:0:0:0:b_47l32o4fp.wav
182,192,7440,1,0,0:0:0:0:b_48l32o4a.wav
109,192,7565,1,0,0:0:0:0:b_50l32o4b.wav
182,192,7680,1,0,0:0:0:0:b_51l32o5cp.wav
256,192,7796,1,0,0:0:0:0:b_53l32o5e.wav
182,192,7911,1,0,0:0:0:0:b_55l32o5fp.wav
256,192,8026,1,0,0:0:0:0:b_56l32o5a.wav
329,192,8134,1,0,0:0:0:0:b_58l32o5b.wav
256,192,8241,1,0,0:0:0:0:b_59l32o6cp.wav
329,192,8348,1,0,0:0:0:0:b_61l32o6e.wav
402,192,8455,1,0,0:0:0:0:b_63l32o6fp.wav
329,192,8555,1,0,0:0:0:0:b_64l32o6a.wav
402,192,8655,1,0,0:0:0:0:b_66l32o6b.wav
475,192,8755,1,0,0:0:0:0:b_67l64o7cp.wav
36,192,8855,1,0,0:0:0:0:b_68l64o7e.wav
256,192,8938,1,0,0:0:0:0:b_68l384-7o7fp.wav
36,192,9022,1,0,0:0:0:0:b_68l64o7e.wav
256,192,9105,1,0,0:0:0:0:b_68l384-7o7fp.wav
36,192,9188,1,0,0:0:0:0:b_66l64o7e.wav
256,192,9263,1,0,0:0:0:0:b_65l384-7o7fp.wav
36,192,9338,1,0,0:0:0:0:b_65l64o7e.wav
256,192,9413,1,0,0:0:0:0:b_64l384-7o7fp.wav
36,192,9488,1,0,0:0:0:0:b_63l64o7e.wav
256,192,9557,1,0,0:0:0:0:b_63l384-7o7fp.wav
36,192,9625,1,0,0:0:0:0:b_62l64o7e.wav
256,192,9693,1,0,0:0:0:0:b_62l384-7o7fp.wav
36,192,9761,1,0,0:0:0:0:b_61l64o7e.wav
256,192,9824,1,0,0:0:0:0:b_60l384-7o7fp.wav
36,192,9886,1,0,0:0:0:0:b_60l64o7e.wav
256,192,9949,1,0,0:0:0:0:b_59l384-7o7fp.wav
36,192,10011,1,0,0:0:0:0:b_58l64o7e.wav
256,192,10074,1,0,0:0:0:0:b_58l384-7o7fp.wav
36,192,10136,1,0,0:0:0:0:b_57l64o7e.wav
256,192,10199,1,0,0:0:0:0:b_57l384-7o7fp.wav
36,192,10261,1,0,0:0:0:0:b_56l64o7e.wav
256,192,10329,1,0,0:0:0:0:b_55l384-7o7fp.wav
36,192,10397,1,0,0:0:0:0:b_55l64o7e.wav
256,192,10466,1,0,0:0:0:0:b_54l384-7o7fp.wav
36,192,10534,1,0,0:0:0:0:b_53l64o7e.wav
256,192,10628,1,0,0:0:0:0:b_53l384-7o7fp.wav
36,192,10721,1,0,0:0:0:0:b_52l16o7e.wav
182,192,12409,1,0,0:0:0:0:b_75l8-3o6a.wav
36,192,12409,1,0,0:0:0:0:b_40l8-3o5a.wav
182,192,13809,1,0,0:0:0:0:b_60l32-3o6a.wav
329,192,13809,1,0,0:0:0:0:b_60l32-3o7d.wav
402,192,13809,1,0,0:0:0:0:b_60l32-3o7a.wav
182,192,14209,1,0,0:0:0:0:b_60l16-3o6a.wav
329,192,14209,1,0,0:0:0:0:b_60l16-3o7d.wav
402,192,14209,1,0,0:0:0:0:b_60l16-3o7a.wav
182,192,15009,1,0,0:0:0:0:b_60l16-3o6a.wav
329,192,15009,1,0,0:0:0:0:b_60l16-3o7d.wav
402,192,15009,1,0,0:0:0:0:b_60l16-3o7a.wav
256,192,15796,1,0,0:0:0:0:b_70l64-25o6a.wav
329,192,15859,1,0,0:0:0:0:b_70l16-7o7d.wav
475,192,15900,1,0,0:0:0:0:b_70l384-181o7fp.wav
36,192,15984,1,0,0:0:0:0:b_44l32o4a.wav
182,192,16109,1,0,0:0:0:0:b_48l32o4b.wav
329,192,16234,1,0,0:0:0:0:b_50l32o5d.wav
109,192,16359,1,0,0:0:0:0:b_51l32o5e.wav
256,192,16474,1,0,0:0:0:0:b_52l32o5fp.wav
402,192,16590,1,0,0:0:0:0:b_54l32o5a.wav
182,192,16705,1,0,0:0:0:0:b_55l32o5b.wav
329,192,16820,1,0,0:0:0:0:b_56l32o6d.wav
475,192,16927,1,0,0:0:0:0:b_58l32o6e.wav
109,192,17035,1,0,0:0:0:0:b_59l32o6fp.wav
256,192,17142,1,0,0:0:0:0:b_60l32o6a.wav
402,192,17249,1,0,0:0:0:0:b_62l32o6b.wav
182,192,17349,1,0,0:0:0:0:b_63l32o7d.wav
329,192,17449,1,0,0:0:0:0:b_65l32o7e.wav
475,192,17549,1,0,0:0:0:0:b_66l64o7fp.wav
182,192,17649,1,0,0:0:0:0:b_66l64o7a.wav
402,192,17732,1,0,0:0:0:0:b_66l384-7o7b.wav
182,192,17816,1,0,0:0:0:0:b_66l64o7a.wav
402,192,17899,1,0,0:0:0:0:b_66l384-7o7b.wav
182,192,17982,1,0,0:0:0:0:b_66l64o7a.wav
402,192,18057,1,0,0:0:0:0:b_65l384-7o7b.wav
182,192,18132,1,0,0:0:0:0:b_65l64o7a.wav
402,192,18207,1,0,0:0:0:0:b_64l384-7o7b.wav
182,192,18282,1,0,0:0:0:0:b_64l64o7a.wav
402,192,18350,1,0,0:0:0:0:b_63l384-7o7b.wav
182,192,18419,1,0,0:0:0:0:b_62l64o7a.wav
402,192,18487,1,0,0:0:0:0:b_62l384-7o7b.wav
182,192,18555,1,0,0:0:0:0:b_61l64o7a.wav
402,192,18617,1,0,0:0:0:0:b_61l384-7o7b.wav
182,192,18680,1,0,0:0:0:0:b_60l64o7a.wav
402,192,18742,1,0,0:0:0:0:b_59l384-7o7b.wav
182,192,18805,1,0,0:0:0:0:b_59l64o7a.wav
402,192,18867,1,0,0:0:0:0:b_58l384-7o7b.wav
182,192,18930,1,0,0:0:0:0:b_58l64o7a.wav
402,192,18992,1,0,0:0:0:0:b_57l384-7o7b.wav
182,192,19055,1,0,0:0:0:0:b_56l64o7a.wav
402,192,19123,1,0,0:0:0:0:b_56l384-7o7b.wav
182,192,19191,1,0,0:0:0:0:b_55l64o7a.wav
402,192,19259,1,0,0:0:0:0:b_55l384-7o7b.wav
182,192,19328,1,0,0:0:0:0:b_54l64o7a.wav
402,192,19411,1,0,0:0:0:0:b_53l384-7o7b.wav
182,192,19494,1,0,0:0:0:0:b_53l16o7a.wav
109,192,20161,1,0,0:0:0:0:b_74l16o6gp.wav
329,192,20411,1,0,0:0:0:0:b_46l16o7gp.wav
475,192,20411,1,0,0:0:0:0:b_46l16o8gp.wav
36,192,20625,1,0,0:0:0:0:b_73l16o6fp.wav
256,192,20792,1,0,0:0:0:0:b_46l16o7fp.wav
402,192,20792,1,0,0:0:0:0:b_46l16o8fp.wav
109,192,20935,1,0,0:0:0:0:b_74l16o5b.wav
182,192,21078,1,0,0:0:0:0:b_47l16o6b.wav
329,192,21078,1,0,0:0:0:0:b_47l16o7b.wav
36,192,21221,1,0,0:0:0:0:b_74l16o6cp.wav
256,192,21363,1,0,0:0:0:0:b_47l16o7cp.wav
402,192,21363,1,0,0:0:0:0:b_47l16o8cp.wav
109,192,21506,1,0,0:0:0:0:b_75l16o6fp.wav
402,192,21643,1,0,0:0:0:0:b_48l16o7fp.wav
475,192,21643,1,0,0:0:0:0:b_48l16o8fp.wav
36,192,21779,1,0,0:0:0:0:b_76l16o6e.wav
329,192,21915,1,0,0:0:0:0:b_49l16o7e.wav
402,192,21915,1,0,0:0:0:0:b_49l16o8e.wav
109,192,22052,1,0,0:0:0:0:b_76l16o5a.wav
256,192,22188,1,0,0:0:0:0:b_49l16o6a.wav
329,192,22188,1,0,0:0:0:0:b_49l16o7a.wav
36,192,22324,1,0,0:0:0:0:b_77l16o5b.wav
329,192,22461,1,0,0:0:0:0:b_50l16o6b.wav
402,192,22461,1,0,0:0:0:0:b_50l16o7b.wav
109,192,22597,1,0,0:0:0:0:b_78l16o6e.wav
329,192,22740,1,0,0:0:0:0:b_50l16o7e.wav
475,192,22740,1,0,0:0:0:0:b_50l16o8e.wav
36,192,22883,1,0,0:0:0:0:b_78l16o6d.wav
256,192,23026,1,0,0:0:0:0:b_51l16o7d.wav
402,192,23026,1,0,0:0:0:0:b_51l16o8d.wav
109,192,23169,1,0,0:0:0:0:b_79l16o5fp.wav
182,192,23319,1,0,0:0:0:0:b_51l16o6fp.wav
329,192,23319,1,0,0:0:0:0:b_51l16o7fp.wav
36,192,23469,1,0,0:0:0:0:b_80l16o5gp.wav
256,192,23619,1,0,0:0:0:0:b_52l16o6gp.wav
402,192,23619,1,0,0:0:0:0:b_52l16o7gp.wav
109,192,23769,1,0,0:0:0:0:b_80l16o6cp.wav
402,192,23919,1,0,0:0:0:0:b_53l16o7cp.wav
475,192,23919,1,0,0:0:0:0:b_53l16o8cp.wav
36,192,24076,1,0,0:0:0:0:b_81l16o5b.wav
329,192,24234,1,0,0:0:0:0:b_53l16o6b.wav
402,192,24234,1,0,0:0:0:0:b_53l16o7b.wav
109,192,24392,1,0,0:0:0:0:b_82l16o5e.wav
256,192,24580,1,0,0:0:0:0:b_54l16o6e.wav
329,192,24580,1,0,0:0:0:0:b_54l16o7e.wav
36,192,24767,1,0,0:0:0:0:b_82l16o5fp.wav
329,192,24982,1,0,0:0:0:0:b_54l16o6fp.wav
402,192,24982,1,0,0:0:0:0:b_54l16o7fp.wav
182,192,25282,1,0,0:0:0:0:b_47l2o7gp.wav
256,192,25282,1,0,0:0:0:0:b_47l2o8gp.wav
36,192,25282,1,0,0:0:0:0:b_77l2o5gp.wav
36,192,26815,1,0,0:0:0:0:b_73l384-187o5fp.wav
109,192,26882,1,0,0:0:0:0:b_73l384-181o5gp.wav
182,192,26915,1,0,0:0:0:0:b_73l24-11o6cp.wav
256,192,26965,1,0,0:0:0:0:b_60l192-85o6e.wav
329,192,27015,1,0,0:0:0:0:b_60l96-41o6fp.wav
402,192,27048,1,0,0:0:0:0:b_60l128-53o6gp.wav
475,192,27115,1,0,0:0:0:0:b_60l128-51o7cp.wav
182,192,28382,1,0,0:0:0:0:b_58l2o5a.wav
329,192,28382,1,0,0:0:0:0:b_58l2o6cp.wav
36,192,28382,1,0,0:0:0:0:b_73l8-3o2a.wav
475,192,28382,1,0,0:0:0:0:b_58l2o6a.wav
109,192,29440,1,0,0:0:0:0:b_64l8o4e.wav
256,192,29440,1,0,0:0:0:0:b_51l32-3o4a.wav
329,192,29793,1,0,0:0:0:0:b_64l8o4fp.wav
475,192,29793,1,0,0:0:0:0:b_51l16-3o4a.wav
109,192,30127,1,0,0:0:0:0:b_64l8o4e.wav
329,192,30460,1,0,0:0:0:0:b_64l8o4fp.wav
475,192,30460,1,0,0:0:0:0:b_50l16-3o4a.wav
109,192,30793,1,0,0:0:0:0:b_64l8o4e.wav
182,192,31127,1,0,0:0:0:0:b_49l8-3o5cp.wav
402,192,31127,1,0,0:0:0:0:b_49l8-3o4a.wav
36,192,31127,1,0,0:0:0:0:b_82l8-3o3a.wav
256,192,32127,1,0,0:0:0:0:b_64l8o4e.wav
402,192,32127,1,0,0:0:0:0:b_48l32-3o4a.wav
182,192,32460,1,0,0:0:0:0:b_48l16-3o4a.wav
36,192,32460,1,0,0:0:0:0:b_63l8o4fp.wav
329,192,32793,1,0,0:0:0:0:b_63l8o4e.wav
182,192,33127,1,0,0:0:0:0:b_47l16-3o4a.wav
36,192,33127,1,0,0:0:0:0:b_62l8o4fp.wav
329,192,33460,1,0,0:0:0:0:b_62l8o4e.wav
182,192,33793,1,0,0:0:0:0:b_57l8-3o3a.wav
402,192,33793,1,0,0:0:0:0:b_83l8-3o5e.wav
182,192,34793,1,0,0:0:0:0:b_86l8o5fp.wav
36,192,34793,1,0,0:0:0:0:b_59l8o4e.wav
256,192,35127,1,0,0:0:0:0:b_51l4o4a.wav
329,192,35127,1,0,0:0:0:0:b_51l4o5cp.wav
475,192,35127,1,0,0:0:0:0:b_87l8o5a.wav
109,192,35460,1,0,0:0:0:0:b_88l8o5b.wav
182,192,35793,1,0,0:0:0:0:b_59l4o3gp.wav
36,192,35793,1,0,0:0:0:0:b_89l8o6cp.wav
329,192,36127,1,0,0:0:0:0:b_90l8o6e.wav
256,192,36460,1,0,0:0:0:0:b_63l8-3o3fp.wav
402,192,36460,1,0,0:0:0:0:b_92l1o6fp.wav
182,192,37460,1,0,0:0:0:0:b_43l8o5a.wav
36,192,37460,1,0,0:0:0:0:b_43l8o5fp.wav
109,192,37793,1,0,0:0:0:0:b_68l8o4a.wav
256,192,37793,1,0,0:0:0:0:b_43l4o5a.wav
402,192,37793,1,0,0:0:0:0:b_43l4o5fp.wav
36,192,38127,1,0,0:0:0:0:b_68l8o4b.wav
109,192,38460,1,0,0:0:0:0:b_68l8o5cp.wav
475,192,38460,1,0,0:0:0:0:b_43l4o5a.wav
182,192,38793,1,0,0:0:0:0:b_68l8o5e.wav
256,192,39127,1,0,0:0:0:0:b_69l8o4fp.wav
402,192,39127,1,0,0:0:0:0:b_92l8o6fp.wav
329,192,39460,1,0,0:0:0:0:b_64l8o5cp.wav
36,192,39460,1,0,0:0:0:0:b_92l32o6a.wav
182,192,39543,1,0,0:0:0:0:b_92l32o6b.wav
36,192,39627,1,0,0:0:0:0:b_92l16-3o6a.wav
109,192,39793,1,0,0:0:0:0:b_56l4o5fp.wav
256,192,39793,1,0,0:0:0:0:b_56l4o5a.wav
329,192,40127,1,0,0:0:0:0:b_92l8o6fp.wav
182,192,40460,1,0,0:0:0:0:b_64l4o4cp.wav
475,192,40460,1,0,0:0:0:0:b_92l8o6e.wav
329,192,40793,1,0,0:0:0:0:b_92l8o6cp.wav
109,192,41016,1,0,0:0:0:0:b_55l24-7o4b.wav
182,192,41043,1,0,0:0:0:0:b_55l32-9o5cp.wav
256,192,41085,1,0,0:0:0:0:b_55l64-17o5gp.wav
329,192,41127,1,0,0:0:0:0:b_92l4o6e.wav
109,192,41793,1,0,0:0:0:0:b_64l8o4fp.wav
256,192,41793,1,0,0:0:0:0:b_92l8o6fp.wav
182,192,42127,1,0,0:0:0:0:b_64l8o5cp.wav
329,192,42127,1,0,0:0:0:0:b_92l32o6a.wav
475,192,42210,1,0,0:0:0:0:b_92l32o6b.wav
329,192,42293,1,0,0:0:0:0:b_92l16-3o6a.wav
109,192,42460,1,0,0:0:0:0:b_57l4o5fp.wav
256,192,42460,1,0,0:0:0:0:b_57l4o5a.wav
36,192,42793,1,0,0:0:0:0:b_92l8o6fp.wav
329,192,43127,1,0,0:0:0:0:b_92l8o6e.wav
475,192,43127,1,0,0:0:0:0:b_64l4o4cp.wav
256,192,43460,1,0,0:0:0:0:b_92l8o6cp.wav
36,192,43682,1,0,0:0:0:0:b_54l24-7o4b.wav
109,192,43710,1,0,0:0:0:0:b_54l32-9o5cp.wav
182,192,43752,1,0,0:0:0:0:b_54l64-17o5gp.wav
256,192,43793,1,0,0:0:0:0:b_92l4o6e.wav
109,192,44460,1,0,0:0:0:0:b_64l8o4fp.wav
402,192,44460,1,0,0:0:0:0:b_92l8o6fp.wav
182,192,44793,1,0,0:0:0:0:b_64l8o5cp.wav
329,192,44793,1,0,0:0:0:0:b_92l32o6a.wav
36,192,44877,1,0,0:0:0:0:b_92l32o6b.wav
182,192,44960,1,0,0:0:0:0:b_92l16-3o6a.wav
256,192,45127,1,0,0:0:0:0:b_57l4o5fp.wav
402,192,45127,1,0,0:0:0:0:b_57l4o5a.wav
182,192,45460,1,0,0:0:0:0:b_92l8o6fp.wav
329,192,45793,1,0,0:0:0:0:b_50l2o5gp.wav
36,192,45793,1,0,0:0:0:0:b_50l2o5e.wav
475,192,45793,1,0,0:0:0:0:b_92l8o6e.wav
109,192,46127,1,0,0:0:0:0:b_92l8o6cp.wav
182,192,46460,1,0,0:0:0:0:b_92l8o6e.wav
329,192,46460,1,0,0:0:0:0:b_64l4o4b.wav
402,192,46793,1,0,0:0:0:0:b_92l8o6fp.wav
109,192,47127,1,0,0:0:0:0:b_47l2o5cp.wav
329,192,47127,1,0,0:0:0:0:b_92l1o6cp.wav
36,192,47127,1,0,0:0:0:0:b_47l2o4a.wav
182,192,48127,1,0,0:0:0:0:b_66l8o5e.wav
109,192,48460,1,0,0:0:0:0:b_41l2o4a.wav
256,192,48460,1,0,0:0:0:0:b_41l2o5cp.wav
402,192,48460,1,0,0:0:0:0:b_66l8o5fp.wav
475,192,48793,1,0,0:0:0:0:b_66l8o5gp.wav
329,192,49127,1,0,0:0:0:0:b_66l8o5fp.wav
36,192,49127,1,0,0:0:0:0:b_50l4o4e.wav
256,192,49460,1,0,0:0:0:0:b_66l8o5e.wav
182,192,49793,1,0,0:0:0:0:b_91l8o6cp.wav
36,192,49793,1,0,0:0:0:0:b_64l8o4cp.wav
109,192,50127,1,0,0:0:0:0:b_64l8o4gp.wav
256,192,50127,1,0,0:0:0:0:b_91l32o6e.wav
402,192,50210,1,0,0:0:0:0:b_91l32o6fp.wav
256,192,50293,1,0,0:0:0:0:b_91l16-3o6e.wav
182,192,50460,1,0,0:0:0:0:b_57l4o5cp.wav
329,192,50460,1,0,0:0:0:0:b_57l4o5e.wav
109,192,50793,1,0,0:0:0:0:b_91l8o6cp.wav
182,192,51127,1,0,0:0:0:0:b_91l8o5b.wav
36,192,51127,1,0,0:0:0:0:b_64l4o4e.wav
256,192,51460,1,0,0:0:0:0:b_91l8o5a.wav
36,192,51682,1,0,0:0:0:0:b_53l24-7o4b.wav
109,192,51710,1,0,0:0:0:0:b_53l32-9o5e.wav
182,192,51752,1,0,0:0:0:0:b_53l64-17o5fp.wav
256,192,51793,1,0,0:0:0:0:b_91l4o5b.wav
182,192,52460,1,0,0:0:0:0:b_64l8o4cp.wav
329,192,52460,1,0,0:0:0:0:b_91l8o6cp.wav
256,192,52793,1,0,0:0:0:0:b_91l32o6e.wav
402,192,52793,1,0,0:0:0:0:b_64l8o4gp.wav
109,192,52877,1,0,0:0:0:0:b_91l32o6fp.wav
256,192,52960,1,0,0:0:0:0:b_91l16-3o6e.wav
329,192,53127,1,0,0:0:0:0:b_57l4o5cp.wav
475,192,53127,1,0,0:0:0:0:b_57l4o5e.wav
182,192,53460,1,0,0:0:0:0:b_91l8o6cp.wav
109,192,53793,1,0,0:0:0:0:b_92l8o5b.wav
256,192,53793,1,0,0:0:0:0:b_64l4o4e.wav
36,192,54127,1,0,0:0:0:0:b_92l8o5a.wav
109,192,54349,1,0,0:0:0:0:b_54l24-7o4b.wav
182,192,54377,1,0,0:0:0:0:b_54l32-9o5e.wav
256,192,54418,1,0,0:0:0:0:b_54l64-17o5fp.wav
329,192,54460,1,0,0:0:0:0:b_92l4o5b.wav
182,192,55127,1,0,0:0:0:0:b_92l8o6cp.wav
36,192,55127,1,0,0:0:0:0:b_64l8o4cp.wav
109,192,55460,1,0,0:0:0:0:b_64l8o4gp.wav
329,192,55460,1,0,0:0:0:0:b_92l32o6e.wav
475,192,55543,1,0,0:0:0:0:b_92l32o6fp.wav
329,192,55627,1,0,0:0:0:0:b_92l16-3o6e.wav
182,192,55793,1,0,0:0:0:0:b_57l4o5e.wav
36,192,55793,1,0,0:0:0:0:b_57l4o5cp.wav
256,192,56127,1,0,0:0:0:0:b_92l8o6cp.wav
109,192,56460,1,0,0:0:0:0:b_52l4o4e.wav
182,192,56460,1,0,0:0:0:0:b_52l2o5d.wav
329,192,56460,1,0,0:0:0:0:b_92l8o5b.wav
402,192,56793,1,0,0:0:0:0:b_92l8o5gp.wav
256,192,57127,1,0,0:0:0:0:b_92l8o5e.wav
36,192,57127,1,0,0:0:0:0:b_64l4o4fp.wav
109,192,57460,1,0,0:0:0:0:b_92l8o5fp.wav
182,192,57793,1,0,0:0:0:0:b_64l8-3o3a.wav
329,192,57793,1,0,0:0:0:0:b_92l1o5a.wav
256,192,58793,1,0,0:0:0:0:b_64l8o4e.wav
475,192,58793,1,0,0:0:0:0:b_46l32-3o5cp.wav
329,192,59127,1,0,0:0:0:0:b_46l16-3o5cp.wav
36,192,59127,1,0,0:0:0:0:b_46l16-3o4a.wav
402,192,59460,1,0,0:0:0:0:b_64l8o4e.wav
329,192,59793,1,0,0:0:0:0:b_46l16-3o5cp.wav
36,192,59793,1,0,0:0:0:0:b_46l16-3o4a.wav
402,192,60127,1,0,0:0:0:0:b_64l8o4e.wav
109,192,60460,1,0,0:0:0:0:b_64l8o3a.wav
182,192,60460,1,0,0:0:0:0:b_64l8o4d.wav
475,192,60460,1,0,0:0:0:0:b_54l8-3o5d.wav
256,192,60793,1,0,0:0:0:0:b_66l8o4a.wav
329,192,61127,1,0,0:0:0:0:b_68l8o4b.wav
182,192,61460,1,0,0:0:0:0:b_58l32-3o5a.wav
36,192,61460,1,0,0:0:0:0:b_70l8o5fp.wav
182,192,61793,1,0,0:0:0:0:b_67l16-3o6fp.wav
402,192,61793,1,0,0:0:0:0:b_72l8o5a.wav
36,192,61793,1,0,0:0:0:0:b_67l16-3o6d.wav
256,192,62127,1,0,0:0:0:0:b_74l8o5b.wav
182,192,62460,1,0,0:0:0:0:b_67l16-3o6fp.wav
36,192,62460,1,0,0:0:0:0:b_76l8o5a.wav
109,192,62793,1,0,0:0:0:0:b_79l8o5fp.wav
182,192,63127,1,0,0:0:0:0:b_64l8-3o4a.wav
329,192,63127,1,0,0:0:0:0:b_64l8-3o5a.wav
475,192,63127,1,0,0:0:0:0:b_78l8o3a.wav
36,192,63460,1,0,0:0:0:0:b_72l8o4b.wav
109,192,63793,1,0,0:0:0:0:b_71l8o5cp.wav
256,192,64127,1,0,0:0:0:0:b_52l32-3o6e.wav
402,192,64127,1,0,0:0:0:0:b_69l8o5e.wav
182,192,64460,1,0,0:0:0:0:b_66l8o5a.wav
256,192,64460,1,0,0:0:0:0:b_55l16-3o6cp.wav
402,192,64460,1,0,0:0:0:0:b_55l16-3o6e.wav
36,192,64793,1,0,0:0:0:0:b_64l8o5b.wav
329,192,65127,1,0,0:0:0:0:b_55l16-3o6e.wav
475,192,65127,1,0,0:0:0:0:b_61l8o5a.wav
109,192,65460,1,0,0:0:0:0:b_59l8o5e.wav
36,192,65793,1,0,0:0:0:0:b_80l8o6a.wav
109,192,66127,1,0,0:0:0:0:b_80l4o6b.wav
256,192,66127,1,0,0:0:0:0:b_66l8o5a.wav
475,192,66460,1,0,0:0:0:0:b_66l8o6cp.wav
182,192,66793,1,0,0:0:0:0:b_66l8o6e.wav
329,192,66793,1,0,0:0:0:0:b_80l8o7cp.wav
256,192,67127,1,0,0:0:0:0:b_66l8o5gp.wav
402,192,67127,1,0,0:0:0:0:b_80l8o7fp.wav
182,192,67460,1,0,0:0:0:0:b_66l8o5a.wav
329,192,67460,1,0,0:0:0:0:b_80l8o7e.wav
109,192,67793,1,0,0:0:0:0:b_66l8o6cp.wav
256,192,67793,1,0,0:0:0:0:b_80l4o7cp.wav
36,192,68127,1,0,0:0:0:0:b_66l8o6e.wav
329,192,68460,1,0,0:0:0:0:b_80l8-3o7a.wav
475,192,68460,1,0,0:0:0:0:b_66l8o5fp.wav
109,192,68793,1,0,0:0:0:0:b_66l8o5a.wav
256,192,69127,1,0,0:0:0:0:b_66l8o6cp.wav
182,192,69460,1,0,0:0:0:0:b_80l8o7e.wav
36,192,69460,1,0,0:0:0:0:b_66l8o6e.wav
109,192,69793,1,0,0:0:0:0:b_66l8o5e.wav
256,192,69793,1,0,0:0:0:0:b_80l8o7fp.wav
182,192,70127,1,0,0:0:0:0:b_66l8o5a.wav
329,192,70127,1,0,0:0:0:0:b_67l32o6fp.wav
475,192,70210,1,0,0:0:0:0:b_67l32o6gp.wav
329,192,70293,1,0,0:0:0:0:b_67l16o6fp.wav
109,192,70460,1,0,0:0:0:0:b_66l8o6cp.wav
256,192,70460,1,0,0:0:0:0:b_67l8o6e.wav
329,192,70793,1,0,0:0:0:0:b_68l8o6fp.wav
36,192,70793,1,0,0:0:0:0:b_66l8o6e.wav
256,192,71127,1,0,0:0:0:0:b_66l8o5cp.wav
475,192,71127,1,0,0:0:0:0:b_80l8o7a.wav
182,192,71460,1,0,0:0:0:0:b_80l4o7e.wav
36,192,71460,1,0,0:0:0:0:b_66l8o5e.wav
329,192,71793,1,0,0:0:0:0:b_66l8o5fp.wav
109,192,72127,1,0,0:0:0:0:b_66l8o5a.wav
256,192,72127,1,0,0:0:0:0:b_80l8o7gp.wav
182,192,72460,1,0,0:0:0:0:b_66l8o6cp.wav
402,192,72460,1,0,0:0:0:0:b_80l4o7fp.wav
256,192,72793,1,0,0:0:0:0:b_66l8o6e.wav
109,192,73127,1,0,0:0:0:0:b_66l8o6fp.wav
329,192,73127,1,0,0:0:0:0:b_80l4o7e.wav
402,192,73460,1,0,0:0:0:0:b_66l8o6a.wav
182,192,73793,1,0,0:0:0:0:b_52l8-3o5cp.wav
36,192,73793,1,0,0:0:0:0:b_63l32o7cp.wav
475,192,73793,1,0,0:0:0:0:b_52l8-3o6cp.wav
109,192,73877,1,0,0:0:0:0:b_63l32o7e.wav
36,192,73960,1,0,0:0:0:0:b_63l32o7cp.wav
109,192,74043,1,0,0:0:0:0:b_63l32o7e.wav
36,192,74127,1,0,0:0:0:0:b_63l32o7cp.wav
109,192,74210,1,0,0:0:0:0:b_63l32o7e.wav
36,192,74293,1,0,0:0:0:0:b_63l32o7cp.wav
109,192,74377,1,0,0:0:0:0:b_63l32o7e.wav
36,192,74460,1,0,0:0:0:0:b_62l32o7cp.wav
109,192,74543,1,0,0:0:0:0:b_62l32o7e.wav
36,192,74627,1,0,0:0:0:0:b_62l32o7cp.wav
109,192,74710,1,0,0:0:0:0:b_62l32o7e.wav
329,192,74793,1,0,0:0:0:0:b_71l8o6e.wav
36,192,74793,1,0,0:0:0:0:b_62l32o7cp.wav
109,192,74877,1,0,0:0:0:0:b_62l32o7e.wav
36,192,74960,1,0,0:0:0:0:b_62l32o7cp.wav
109,192,75043,1,0,0:0:0:0:b_62l32o7e.wav
402,192,75127,1,0,0:0:0:0:b_71l8o6fp.wav
36,192,75127,1,0,0:0:0:0:b_61l32o7cp.wav
109,192,75210,1,0,0:0:0:0:b_61l32o7e.wav
36,192,75293,1,0,0:0:0:0:b_61l32o7cp.wav
109,192,75377,1,0,0:0:0:0:b_61l32o7e.wav
36,192,75460,1,0,0:0:0:0:b_61l32o7cp.wav
475,192,75460,1,0,0:0:0:0:b_71l8o6gp.wav
109,192,75543,1,0,0:0:0:0:b_61l32o7e.wav
36,192,75627,1,0,0:0:0:0:b_61l32o7cp.wav
109,192,75710,1,0,0:0:0:0:b_61l32o7e.wav
402,192,75793,1,0,0:0:0:0:b_71l8o6fp.wav
36,192,75793,1,0,0:0:0:0:b_61l32o7cp.wav
109,192,75877,1,0,0:0:0:0:b_61l32o7e.wav
36,192,75960,1,0,0:0:0:0:b_61l32o7cp.wav
109,192,76043,1,0,0:0:0:0:b_61l32o7e.wav
329,192,76127,1,0,0:0:0:0:b_71l8o6e.wav
36,192,76127,1,0,0:0:0:0:b_62l8o7cp.wav
109,192,76460,1,0,0:0:0:0:b_54l4o5fp.wav
256,192,76460,1,0,0:0:0:0:b_54l4o5b.wav
402,192,76460,1,0,0:0:0:0:b_84l8o6b.wav
182,192,76793,1,0,0:0:0:0:b_84l8o7cp.wav
329,192,77127,1,0,0:0:0:0:b_84l8o7e.wav
182,192,77460,1,0,0:0:0:0:b_84l8o6b.wav
36,192,77460,1,0,0:0:0:0:b_71l8o5d.wav
109,192,77793,1,0,0:0:0:0:b_71l8-3o6e.wav
256,192,77793,1,0,0:0:0:0:b_71l8-3o7cp.wav
402,192,77793,1,0,0:0:0:0:b_71l8-3o6gp.wav
182,192,78127,1,0,0:0:0:0:b_70l8o5gp.wav
329,192,78460,1,0,0:0:0:0:b_69l4o6cp.wav
475,192,78793,1,0,0:0:0:0:b_84l8o7e.wav
182,192,79127,1,0,0:0:0:0:b_76l8-3o6gp.wav
329,192,79127,1,0,0:0:0:0:b_76l8-3o7cp.wav
36,192,79127,1,0,0:0:0:0:b_72l8o5e.wav
109,192,79460,1,0,0:0:0:0:b_72l8o5gp.wav
256,192,79793,1,0,0:0:0:0:b_72l8o5b.wav
182,192,80127,1,0,0:0:0:0:b_72l8o6cp.wav
402,192,80127,1,0,0:0:0:0:b_84l8o6b.wav
109,192,80460,1,0,0:0:0:0:b_72l8o5fp.wav
329,192,80460,1,0,0:0:0:0:b_78l2o6cp.wav
475,192,80460,1,0,0:0:0:0:b_78l2o6fp.wav
256,192,80793,1,0,0:0:0:0:b_72l8o5a.wav
402,192,81127,1,0,0:0:0:0:b_72l8o5b.wav
475,192,81460,1,0,0:0:0:0:b_72l8o6cp.wav
182,192,81793,1,0,0:0:0:0:b_76l16-3o6a.wav
402,192,81793,1,0,0:0:0:0:b_76l16-3o7e.wav
36,192,81793,1,0,0:0:0:0:b_61l4o5a.wav
329,192,82293,1,0,0:0:0:0:b_84l16o7fp.wav
182,192,82460,1,0,0:0:0:0:b_84l8o7e.wav
109,192,82793,1,0,0:0:0:0:b_61l8-3o5e.wav
256,192,82793,1,0,0:0:0:0:b_61l8-3o5a.wav
402,192,82793,1,0,0:0:0:0:b_75l8o6a.wav
36,192,83127,1,0,0:0:0:0:b_76l8o6a.wav
475,192,83127,1,0,0:0:0:0:b_76l8o7cp.wav
109,192,83460,1,0,0:0:0:0:b_90l8o7e.wav
182,192,83793,1,0,0:0:0:0:b_60l4o6d.wav
329,192,83793,1,0,0:0:0:0:b_76l4o6b.wav
36,192,83793,1,0,0:0:0:0:b_60l4o5fp.wav
475,192,83793,1,0,0:0:0:0:b_76l4o6e.wav
109,192,84418,1,0,0:0:0:0:b_74l64-41o5a.wav
182,192,84460,1,0,0:0:0:0:b_75l2o6cp.wav
256,192,84488,1,0,0:0:0:0:b_75l384-139o6e.wav
329,192,84543,1,0,0:0:0:0:b_75l384-373o6a.wav
402,192,84793,1,0,0:0:0:0:b_73l8o6fp.wav
109,192,85127,1,0,0:0:0:0:b_73l8o6e.wav
402,192,85460,1,0,0:0:0:0:b_73l8o6cp.wav
329,192,85793,1,0,0:0:0:0:b_73l8o5a.wav
256,192,86127,1,0,0:0:0:0:b_73l8o5fp.wav
182,192,86460,1,0,0:0:0:0:b_73l8o5e.wav
109,192,86793,1,0,0:0:0:0:b_73l8o5cp.wav
256,192,87127,1,0,0:0:0:0:b_91l8o4a.wav
36,192,87293,1,0,0:0:0:0:b_63l16o5a.wav
109,192,87460,1,0,0:0:0:0:b_63l16o6cp.wav
329,192,87460,1,0,0:0:0:0:b_91l4o4b.wav
182,192,87627,1,0,0:0:0:0:b_63l16o6e.wav
109,192,87793,1,0,0:0:0:0:b_63l16o6fp.wav
182,192,87960,1,0,0:0:0:0:b_63l16o6a.wav
256,192,88127,1,0,0:0:0:0:b_63l16o7cp.wav
402,192,88127,1,0,0:0:0:0:b_91l8o5cp.wav
182,192,88293,1,0,0:0:0:0:b_63l16o7e.wav
109,192,88460,1,0,0:0:0:0:b_63l16o7fp.wav
475,192,88460,1,0,0:0:0:0:b_91l8o5fp.wav
36,192,88627,1,0,0:0:0:0:b_63l16o7e.wav
256,192,88793,1,0,0:0:0:0:b_63l16o7cp.wav
402,192,88793,1,0,0:0:0:0:b_91l8o5e.wav
182,192,88960,1,0,0:0:0:0:b_63l16o6a.wav
109,192,89127,1,0,0:0:0:0:b_63l16o6fp.wav
329,192,89127,1,0,0:0:0:0:b_91l4o5cp.wav
36,192,89293,1,0,0:0:0:0:b_63l16o6e.wav
109,192,89460,1,0,0:0:0:0:b_63l16o6cp.wav
182,192,89627,1,0,0:0:0:0:b_63l16o5a.wav
256,192,89752,1,0,0:0:0:0:b_77l64-25o4fp.wav
329,192,89793,1,0,0:0:0:0:b_77l8-3o5cp.wav
475,192,89821,1,0,0:0:0:0:b_89l384-139o5a.wav
36,192,89960,1,0,0:0:0:0:b_63l16o6cp.wav
109,192,90127,1,0,0:0:0:0:b_63l16o6e.wav
182,192,90293,1,0,0:0:0:0:b_63l16o6fp.wav
256,192,90460,1,0,0:0:0:0:b_63l16o6a.wav
329,192,90627,1,0,0:0:0:0:b_63l16o7cp.wav
256,192,90793,1,0,0:0:0:0:b_91l8o5e.wav
402,192,90793,1,0,0:0:0:0:b_63l16o7e.wav
475,192,90960,1,0,0:0:0:0:b_63l16o7fp.wav
182,192,91127,1,0,0:0:0:0:b_63l16o7a.wav
402,192,91127,1,0,0:0:0:0:b_91l2o5fp.wav
329,192,91293,1,0,0:0:0:0:b_63l16o7fp.wav
256,192,91460,1,0,0:0:0:0:b_63l16o7e.wav
182,192,91627,1,0,0:0:0:0:b_63l16o7cp.wav
109,192,91793,1,0,0:0:0:0:b_63l16o6a.wav
182,192,91960,1,0,0:0:0:0:b_63l16o6fp.wav
109,192,92127,1,0,0:0:0:0:b_63l16o6e.wav
36,192,92293,1,0,0:0:0:0:b_63l16o6cp.wav
475,192,92460,1,0,0:0:0:0:b_91l8o5a.wav
36,192,92627,1,0,0:0:0:0:b_63l16o6cp.wav
109,192,92793,1,0,0:0:0:0:b_63l16o6e.wav
402,192,92793,1,0,0:0:0:0:b_91l4o5e.wav
182,192,92960,1,0,0:0:0:0:b_63l16o6fp.wav
256,192,93127,1,0,0:0:0:0:b_63l16o6a.wav
329,192,93293,1,0,0:0:0:0:b_63l16o7cp.wav
256,192,93460,1,0,0:0:0:0:b_63l16o7e.wav
475,192,93460,1,0,0:0:0:0:b_91l8o5gp.wav
329,192,93627,1,0,0:0:0:0:b_63l16o7fp.wav
256,192,93793,1,0,0:0:0:0:b_91l4o5fp.wav
402,192,93793,1,0,0:0:0:0:b_63l16o7a.wav
475,192,93960,1,0,0:0:0:0:b_63l16o7fp.wav
402,192,94127,1,0,0:0:0:0:b_63l16o7e.wav
329,192,94293,1,0,0:0:0:0:b_63l16o7cp.wav
256,192,94460,1,0,0:0:0:0:b_63l16o6a.wav
402,192,94460,1,0,0:0:0:0:b_91l4o5e.wav
182,192,94627,1,0,0:0:0:0:b_63l16o6fp.wav
109,192,94793,1,0,0:0:0:0:b_63l16o6e.wav
36,192,94960,1,0,0:0:0:0:b_63l16o6cp.wav
109,192,95127,1,0,0:0:0:0:b_73l1o4gp.wav
329,192,95127,1,0,0:0:0:0:b_73l1o5cp.wav
475,192,95127,1,0,0:0:0:0:b_73l1o4cp.wav
36,192,95293,1,0,0:0:0:0:b_61l16o5gp.wav
109,192,95460,1,0,0:0:0:0:b_59l16o5b.wav
182,192,95627,1,0,0:0:0:0:b_57l16o6cp.wav
109,192,95793,1,0,0:0:0:0:b_56l16o6e.wav
182,192,95960,1,0,0:0:0:0:b_55l16o6gp.wav
256,192,96127,1,0,0:0:0:0:b_55l16o6b.wav
36,192,96127,1,0,0:0:0:0:b_71l8o5e.wav
329,192,96293,1,0,0:0:0:0:b_56l16o7cp.wav
256,192,96460,1,0,0:0:0:0:b_71l8o5fp.wav
402,192,96460,1,0,0:0:0:0:b_56l16o7fp.wav
36,192,96627,1,0,0:0:0:0:b_56l16o6gp.wav
329,192,96793,1,0,0:0:0:0:b_71l8o5gp.wav
475,192,96793,1,0,0:0:0:0:b_56l16o7gp.wav
36,192,96960,1,0,0:0:0:0:b_55l16o6gp.wav
256,192,97127,1,0,0:0:0:0:b_71l8o5fp.wav
402,192,97127,1,0,0:0:0:0:b_55l16o7fp.wav
36,192,97293,1,0,0:0:0:0:b_55l16o6gp.wav
182,192,97460,1,0,0:0:0:0:b_71l8o5e.wav
329,192,97460,1,0,0:0:0:0:b_55l16o7e.wav
36,192,97627,1,0,0:0:0:0:b_55l16o6gp.wav
109,192,97793,1,0,0:0:0:0:b_83l8o6fp.wav
256,192,97793,1,0,0:0:0:0:b_83l8o6b.wav
329,192,97960,1,0,0:0:0:0:b_64l16o5e.wav
182,192,98127,1,0,0:0:0:0:b_91l8o7cp.wav
36,192,98127,1,0,0:0:0:0:b_64l16o5fp.wav
256,192,98293,1,0,0:0:0:0:b_65l16o5b.wav
329,192,98460,1,0,0:0:0:0:b_91l8o7e.wav
182,192,98627,1,0,0:0:0:0:b_66l16o5e.wav
329,192,98793,1,0,0:0:0:0:b_67l16o5fp.wav
475,192,98793,1,0,0:0:0:0:b_91l8o6b.wav
256,192,98960,1,0,0:0:0:0:b_67l16o5b.wav
109,192,99127,1,0,0:0:0:0:b_77l8-3o6e.wav
182,192,99127,1,0,0:0:0:0:b_77l8-3o7cp.wav
402,192,99127,1,0,0:0:0:0:b_77l8-3o6gp.wav
36,192,99293,1,0,0:0:0:0:b_68l16o5cp.wav
109,192,99460,1,0,0:0:0:0:b_69l16o5e.wav
182,192,99627,1,0,0:0:0:0:b_70l16o5gp.wav
256,192,99793,1,0,0:0:0:0:b_70l16o6cp.wav
182,192,99960,1,0,0:0:0:0:b_71l16o5gp.wav
109,192,100127,1,0,0:0:0:0:b_71l16o6cp.wav
256,192,100127,1,0,0:0:0:0:b_87l8o7e.wav
329,192,100293,1,0,0:0:0:0:b_72l16o6e.wav
182,192,100460,1,0,0:0:0:0:b_79l8-3o6gp.wav
402,192,100460,1,0,0:0:0:0:b_79l8-3o7cp.wav
36,192,100460,1,0,0:0:0:0:b_72l16o5b.wav
475,192,100627,1,0,0:0:0:0:b_73l16o6e.wav
402,192,100793,1,0,0:0:0:0:b_74l16o6cp.wav
256,192,100960,1,0,0:0:0:0:b_74l16o5b.wav
329,192,101127,1,0,0:0:0:0:b_75l16o5gp.wav
402,192,101293,1,0,0:0:0:0:b_75l16o5b.wav
109,192,101460,1,0,0:0:0:0:b_91l8o6b.wav
329,192,101460,1,0,0:0:0:0:b_76l16o5gp.wav
182,192,101627,1,0,0:0:0:0:b_76l16o5fp.wav
256,192,101793,1,0,0:0:0:0:b_77l16o5e.wav
36,192,101793,1,0,0:0:0:0:b_83l2o6cp.wav
475,192,101793,1,0,0:0:0:0:b_83l2o6fp.wav
329,192,101960,1,0,0:0:0:0:b_77l16o5a.wav
256,192,102127,1,0,0:0:0:0:b_78l16o5fp.wav
109,192,102293,1,0,0:0:0:0:b_79l16o5e.wav
182,192,102460,1,0,0:0:0:0:b_79l16o5cp.wav
256,192,102627,1,0,0:0:0:0:b_80l16o5e.wav
182,192,102793,1,0,0:0:0:0:b_80l16o5cp.wav
36,192,102960,1,0,0:0:0:0:b_81l16o4fp.wav
109,192,103127,1,0,0:0:0:0:b_98l16-3o6e.wav
256,192,103127,1,0,0:0:0:0:b_98l16-3o7cp.wav
402,192,103127,1,0,0:0:0:0:b_98l16-3o7e.wav
36,192,103293,1,0,0:0:0:0:b_82l16o4fp.wav
109,192,103460,1,0,0:0:0:0:b_82l16o4a.wav
182,192,103627,1,0,0:0:0:0:b_106l16o7fp.wav
329,192,103627,1,0,0:0:0:0:b_82l16o5cp.wav
256,192,103793,1,0,0:0:0:0:b_106l8o7e.wav
402,192,103793,1,0,0:0:0:0:b_106l8o6e.wav
475,192,103793,1,0,0:0:0:0:b_82l16o5e.wav
182,192,103960,1,0,0:0:0:0:b_82l16o5fp.wav
256,192,104127,1,0,0:0:0:0:b_115l8o7cp.wav
36,192,104127,1,0,0:0:0:0:b_82l16o5a.wav
109,192,104293,1,0,0:0:0:0:b_82l16-5o6cp.wav
182,192,104460,1,0,0:0:0:0:b_76l4o5a.wav
329,192,104460,1,0,0:0:0:0:b_99l8o7cp.wav
36,192,104460,1,0,0:0:0:0:b_76l4o5e.wav
402,192,104793,1,0,0:0:0:0:b_102l8o7e.wav
109,192,105127,1,0,0:0:0:0:b_69l4o4e.wav
256,192,105127,1,0,0:0:0:0:b_69l4o4b.wav
475,192,105127,1,0,0:0:0:0:b_69l4o5d.wav
256,192,105793,1,0,0:0:0:0:b_89l16-9o6cp.wav
402,192,105793,1,0,0:0:0:0:b_89l2o5a.wav
36,192,105793,1,0,0:0:0:0:b_81l16o3a.wav
109,192,105960,1,0,0:0:0:0:b_80l16o4e.wav
182,192,106127,1,0,0:0:0:0:b_79l16o4fp.wav
256,192,106293,1,0,0:0:0:0:b_78l16o4a.wav
109,192,106460,1,0,0:0:0:0:b_77l16o5cp.wav
182,192,106627,1,0,0:0:0:0:b_77l16o5e.wav
256,192,106793,1,0,0:0:0:0:b_76l16o5fp.wav
329,192,106960,1,0,0:0:0:0:b_75l16o5a.wav
182,192,107127,1,0,0:0:0:0:b_74l16o6cp.wav
256,192,107293,1,0,0:0:0:0:b_73l16o6e.wav
329,192,107460,1,0,0:0:0:0:b_72l16o6fp.wav
402,192,107627,1,0,0:0:0:0:b_71l16o6a.wav
256,192,107793,1,0,0:0:0:0:b_70l16o7cp.wav
329,192,107960,1,0,0:0:0:0:b_70l16o7e.wav
402,192,108127,1,0,0:0:0:0:b_69l16o7fp.wav
475,192,108293,1,0,0:0:0:0:b_68l16o7a.wav
256,192,108460,1,0,0:0:0:0:b_67l8-3o4fp.wav
402,192,108460,1,0,0:0:0:0:b_71l32o4a.wav
36,192,108460,1,0,0:0:0:0:b_67l8-3o4d.wav
109,192,108548,1,0,0:0:0:0:b_71l32o4b.wav
36,192,108636,1,0,0:0:0:0:b_71l32o4a.wav
109,192,108725,1,0,0:0:0:0:b_70l32o4b.wav
36,192,108813,1,0,0:0:0:0:b_70l32o4a.wav
109,192,108901,1,0,0:0:0:0:b_70l32o4b.wav
36,192,108989,1,0,0:0:0:0:b_69l32o4a.wav
109,192,109078,1,0,0:0:0:0:b_69l32o4b.wav
36,192,109166,1,0,0:0:0:0:b_69l32o4a.wav
109,192,109254,1,0,0:0:0:0:b_68l32o4b.wav
36,192,109342,1,0,0:0:0:0:b_68l16o4a.wav
182,192,109519,1,0,0:0:0:0:b_59l8o5d.wav
329,192,109519,1,0,0:0:0:0:b_59l8o5a.wav
182,192,109872,1,0,0:0:0:0:b_59l4o5fp.wav
329,192,109872,1,0,0:0:0:0:b_59l4o5a.wav
36,192,109872,1,0,0:0:0:0:b_59l4o5d.wav
109,192,110538,1,0,0:0:0:0:b_59l4o5d.wav
256,192,110538,1,0,0:0:0:0:b_59l4o5fp.wav
402,192,110538,1,0,0:0:0:0:b_59l4o5a.wav
182,192,111205,1,0,0:0:0:0:b_66l8-3o4e.wav
329,192,111205,1,0,0:0:0:0:b_65l32o4a.wav
36,192,111205,1,0,0:0:0:0:b_66l8-3o3a.wav
109,192,111293,1,0,0:0:0:0:b_65l32o4b.wav
36,192,111382,1,0,0:0:0:0:b_64l32o4a.wav
109,192,111470,1,0,0:0:0:0:b_63l32o4b.wav
36,192,111558,1,0,0:0:0:0:b_61l32o4a.wav
109,192,111646,1,0,0:0:0:0:b_60l32o4b.wav
36,192,111735,1,0,0:0:0:0:b_60l32o4a.wav
109,192,111823,1,0,0:0:0:0:b_59l32o4b.wav
36,192,111911,1,0,0:0:0:0:b_57l32o4a.wav
109,192,111999,1,0,0:0:0:0:b_56l32o4b.wav
36,192,112087,1,0,0:0:0:0:b_55l16o4a.wav
182,192,112264,1,0,0:0:0:0:b_59l8o5e.wav
329,192,112264,1,0,0:0:0:0:b_59l8o5a.wav
182,192,112617,1,0,0:0:0:0:b_59l4o5cp.wav
329,192,112617,1,0,0:0:0:0:b_59l4o5e.wav
475,192,112617,1,0,0:0:0:0:b_59l4o5a.wav
109,192,113284,1,0,0:0:0:0:b_59l4o5cp.wav
256,192,113284,1,0,0:0:0:0:b_59l4o5e.wav
402,192,113284,1,0,0:0:0:0:b_59l4o5a.wav
36,192,113839,1,0,0:0:0:0:b_67l24-25o4b.wav
109,192,113867,1,0,0:0:0:0:b_67l32-33o5d.wav
182,192,113909,1,0,0:0:0:0:b_67l384-389o5fp.wav
256,192,113950,1,0,0:0:0:0:b_67l1o5b.wav
329,192,113950,1,0,0:0:0:0:b_74l1o6fp.wav
475,192,113950,1,0,0:0:0:0:b_74l8o6b.wav
182,192,114284,1,0,0:0:0:0:b_74l8o7cp.wav
36,192,114617,1,0,0:0:0:0:b_74l16o6b.wav
182,192,114784,1,0,0:0:0:0:b_73l16o7cp.wav
329,192,114950,1,0,0:0:0:0:b_73l8o7e.wav
182,192,115284,1,0,0:0:0:0:b_73l2o6b.wav
109,192,116617,1,0,0:0:0:0:b_47l16o3e.wav
256,192,116617,1,0,0:0:0:0:b_65l8-3o4b.wav
402,192,116617,1,0,0:0:0:0:b_65l8-3o5e.wav
36,192,116784,1,0,0:0:0:0:b_47l16o3b.wav
182,192,116950,1,0,0:0:0:0:b_47l16o4e.wav
329,192,117117,1,0,0:0:0:0:b_47l16o3b.wav
182,192,117284,1,0,0:0:0:0:b_47l16o4e.wav
36,192,117450,1,0,0:0:0:0:b_47l16o3b.wav
182,192,117617,1,0,0:0:0:0:b_47l16o4fp.wav
402,192,117617,1,0,0:0:0:0:b_74l8o5fp.wav
329,192,117784,1,0,0:0:0:0:b_47l16o3b.wav
109,192,117950,1,0,0:0:0:0:b_47l16o3fp.wav
256,192,117950,1,0,0:0:0:0:b_66l2o4a.wav
475,192,117950,1,0,0:0:0:0:b_66l2o5fp.wav
329,192,118117,1,0,0:0:0:0:b_47l16o4cp.wav
182,192,118284,1,0,0:0:0:0:b_47l16o4fp.wav
329,192,118450,1,0,0:0:0:0:b_47l16o4cp.wav
475,192,118617,1,0,0:0:0:0:b_47l16o4fp.wav
329,192,118784,1,0,0:0:0:0:b_47l16o4cp.wav
36,192,118950,1,0,0:0:0:0:b_47l16o3fp.wav
182,192,119117,1,0,0:0:0:0:b_48l16o4cp.wav
256,192,119284,1,0,0:0:0:0:b_66l8o6b.wav
329,192,119284,1,0,0:0:0:0:b_66l8-3o6fp.wav
475,192,119284,1,0,0:0:0:0:b_50l8o4b.wav
109,192,119617,1,0,0:0:0:0:b_73l8o7cp.wav
36,192,119617,1,0,0:0:0:0:b_59l8o6cp.wav
182,192,119950,1,0,0:0:0:0:b_59l16o6e.wav
329,192,119950,1,0,0:0:0:0:b_73l16o7e.wav
109,192,120117,1,0,0:0:0:0:b_59l16o6fp.wav
402,192,120117,1,0,0:0:0:0:b_73l16o7fp.wav
36,192,120284,1,0,0:0:0:0:b_59l16o6fp.wav
475,192,120284,1,0,0:0:0:0:b_73l16o7e.wav
109,192,120450,1,0,0:0:0:0:b_59l16o6cp.wav
402,192,120450,1,0,0:0:0:0:b_73l16o7cp.wav
182,192,120617,1,0,0:0:0:0:b_59l2o5b.wav
329,192,120617,1,0,0:0:0:0:b_73l2o6b.wav
109,192,121950,1,0,0:0:0:0:b_49l16o3gp.wav
329,192,121950,1,0,0:0:0:0:b_63l8-3o5dp.wav
475,192,121950,1,0,0:0:0:0:b_63l8-3o5gp.wav
256,192,122117,1,0,0:0:0:0:b_49l16o4dp.wav
109,192,122284,1,0,0:0:0:0:b_49l16o4gp.wav
256,192,122450,1,0,0:0:0:0:b_49l16o4dp.wav
109,192,122617,1,0,0:0:0:0:b_49l16o4gp.wav
256,192,122784,1,0,0:0:0:0:b_49l16o4dp.wav
109,192,122950,1,0,0:0:0:0:b_49l16o4fp.wav
36,192,122950,1,0,0:0:0:0:b_72l8o5fp.wav
256,192,123117,1,0,0:0:0:0:b_49l16o4dp.wav
182,192,123284,1,0,0:0:0:0:b_65l96-19o4a.wav
329,192,123284,1,0,0:0:0:0:b_65l4o5cp.wav
475,192,123284,1,0,0:0:0:0:b_65l3o5fp.wav
36,192,123422,1,0,0:0:0:0:b_55l384-19o4cp.wav
109,192,123547,1,0,0:0:0:0:b_57l384-19o4fp.wav
182,192,123672,1,0,0:0:0:0:b_60l384-19o4a.wav
256,192,123811,1,0,0:0:0:0:b_62l96-5o5cp.wav
109,192,123950,1,0,0:0:0:0:b_65l24o5e.wav
182,192,124061,1,0,0:0:0:0:b_67l24o5fp.wav
256,192,124172,1,0,0:0:0:0:b_69l24o5a.wav
329,192,124284,1,0,0:0:0:0:b_72l24o6cp.wav
402,192,124395,1,0,0:0:0:0:b_74l24o6e.wav
475,192,124506,1,0,0:0:0:0:b_76l24o6fp.wav
36,192,124617,1,0,0:0:0:0:b_81l16o6gp.wav
402,192,124775,1,0,0:0:0:0:b_48l16o7gp.wav
475,192,124775,1,0,0:0:0:0:b_48l16o7dp.wav
109,192,124933,1,0,0:0:0:0:b_81l16o6fp.wav
329,192,125091,1,0,0:0:0:0:b_48l16o7cp.wav
402,192,125091,1,0,0:0:0:0:b_48l16o7fp.wav
36,192,125248,1,0,0:0:0:0:b_81l16o5b.wav
256,192,125406,1,0,0:0:0:0:b_48l16o6fp.wav
329,192,125406,1,0,0:0:0:0:b_48l16o6b.wav
109,192,125564,1,0,0:0:0:0:b_81l16o6cp.wav
329,192,125722,1,0,0:0:0:0:b_48l16o6gp.wav
402,192,125722,1,0,0:0:0:0:b_48l16o7cp.wav
36,192,125880,1,0,0:0:0:0:b_81l16o6fp.wav
329,192,126038,1,0,0:0:0:0:b_48l16o7cp.wav
475,192,126038,1,0,0:0:0:0:b_48l16o7fp.wav
109,192,126196,1,0,0:0:0:0:b_81l16o6e.wav
256,192,126354,1,0,0:0:0:0:b_48l16o6b.wav
402,192,126354,1,0,0:0:0:0:b_48l16o7e.wav
36,192,126512,1,0,0:0:0:0:b_81l16o5a.wav
182,192,126669,1,0,0:0:0:0:b_48l16o6e.wav
329,192,126669,1,0,0:0:0:0:b_48l16o6a.wav
109,192,126827,1,0,0:0:0:0:b_81l16o5b.wav
256,192,126985,1,0,0:0:0:0:b_48l16o6fp.wav
402,192,126985,1,0,0:0:0:0:b_48l16o6b.wav
36,192,127143,1,0,0:0:0:0:b_80l16o6e.wav
402,192,127301,1,0,0:0:0:0:b_49l16o6b.wav
475,192,127301,1,0,0:0:0:0:b_49l16o7e.wav
109,192,127459,1,0,0:0:0:0:b_80l16o6d.wav
329,192,127617,1,0,0:0:0:0:b_49l16o6a.wav
402,192,127617,1,0,0:0:0:0:b_49l16o7d.wav
36,192,127775,1,0,0:0:0:0:b_80l16o5fp.wav
256,192,127933,1,0,0:0:0:0:b_49l16o6cp.wav
329,192,127933,1,0,0:0:0:0:b_49l16o6fp.wav
109,192,128091,1,0,0:0:0:0:b_80l16o5gp.wav
329,192,128248,1,0,0:0:0:0:b_49l16o6dp.wav
402,192,128248,1,0,0:0:0:0:b_49l16o6gp.wav
475,192,128406,1,0,0:0:0:0:b_80l16o5fp.wav
182,192,128564,1,0,0:0:0:0:b_49l16o6cp.wav
36,192,128564,1,0,0:0:0:0:b_49l16o6fp.wav
402,192,128722,1,0,0:0:0:0:b_80l16o5e.wav
109,192,128880,1,0,0:0:0:0:b_49l16o6e.wav
256,192,128880,1,0,0:0:0:0:b_49l16o5b.wav
475,192,129038,1,0,0:0:0:0:b_80l16o4fp.wav
182,192,129196,1,0,0:0:0:0:b_49l16o5fp.wav
256,192,129196,1,0,0:0:0:0:b_49l16o6fp.wav
36,192,129196,1,0,0:0:0:0:b_49l16o6cp.wav
402,192,129354,1,0,0:0:0:0:b_80l16o4e.wav
109,192,129512,1,0,0:0:0:0:b_49l16o5b.wav
256,192,129512,1,0,0:0:0:0:b_49l16o5e.wav
329,192,129512,1,0,0:0:0:0:b_49l16o6e.wav
402,192,129669,1,0,0:0:0:0:b_72l8-3o3cp.wav
329,192,129714,1,0,0:0:0:0:b_72l384-139o3gp.wav
256,192,129758,1,0,0:0:0:0:b_72l384-133o4cp.wav
182,192,129802,1,0,0:0:0:0:b_72l3o4e.wav
109,192,129846,1,0,0:0:0:0:b_72l192-61o5gp.wav
36,192,129890,1,0,0:0:0:0:b_72l96-29o6cp.wav
475,192,129934,1,0,0:0:0:0:b_36l48o6gp.wav
402,192,129993,1,0,0:0:0:0:b_36l48o6a.wav
475,192,130052,1,0,0:0:0:0:b_36l48o6gp.wav
402,192,130111,1,0,0:0:0:0:b_36l48o6a.wav
475,192,130169,1,0,0:0:0:0:b_36l48o6gp.wav
402,192,130228,1,0,0:0:0:0:b_36l48o6a.wav
475,192,130287,1,0,0:0:0:0:b_36l48o6gp.wav
402,192,130346,1,0,0:0:0:0:b_36l48o6a.wav
475,192,130405,1,0,0:0:0:0:b_37l48o6gp.wav
402,192,130464,1,0,0:0:0:0:b_37l48o6a.wav
475,192,130522,1,0,0:0:0:0:b_37l48o6gp.wav
402,192,130581,1,0,0:0:0:0:b_37l48o6a.wav
475,192,130640,1,0,0:0:0:0:b_37l48o6gp.wav
402,192,130684,1,0,0:0:0:0:b_37l48o6a.wav
182,192,130728,1,0,0:0:0:0:b_64l8o6e.wav
36,192,130728,1,0,0:0:0:0:b_64l8o6cp.wav
475,192,130728,1,0,0:0:0:0:b_64l8o5gp.wav
402,192,130772,1,0,0:0:0:0:b_37l48o6gp.wav
475,192,130817,1,0,0:0:0:0:b_37l48o6a.wav
402,192,130875,1,0,0:0:0:0:b_37l48o6gp.wav
475,192,130934,1,0,0:0:0:0:b_38l48o6a.wav
402,192,130993,1,0,0:0:0:0:b_38l48o6gp.wav
475,192,131037,1,0,0:0:0:0:b_38l48o6a.wav
182,192,131081,1,0,0:0:0:0:b_65l4o6e.wav
36,192,131081,1,0,0:0:0:0:b_65l4o6cp.wav
402,192,131125,1,0,0:0:0:0:b_38l48o6gp.wav
475,192,131169,1,0,0:0:0:0:b_38l48o6a.wav
402,192,131228,1,0,0:0:0:0:b_38l48o6gp.wav
475,192,131287,1,0,0:0:0:0:b_38l48o6a.wav
402,192,131346,1,0,0:0:0:0:b_38l48o6gp.wav
475,192,131405,1,0,0:0:0:0:b_38l48o6a.wav
402,192,131464,1,0,0:0:0:0:b_39l48o6gp.wav
475,192,131522,1,0,0:0:0:0:b_39l48o6a.wav
402,192,131581,1,0,0:0:0:0:b_39l48o6gp.wav
475,192,131640,1,0,0:0:0:0:b_39l48o6a.wav
402,192,131699,1,0,0:0:0:0:b_39l48o6gp.wav
475,192,131743,1,0,0:0:0:0:b_39l48o6a.wav
182,192,131787,1,0,0:0:0:0:b_67l4o6e.wav
36,192,131787,1,0,0:0:0:0:b_67l4o6cp.wav
402,192,131831,1,0,0:0:0:0:b_39l48o6gp.wav
475,192,131875,1,0,0:0:0:0:b_39l48o6a.wav
402,192,131934,1,0,0:0:0:0:b_39l48o6gp.wav
475,192,131993,1,0,0:0:0:0:b_40l48o6a.wav
402,192,132052,1,0,0:0:0:0:b_40l48o6gp.wav
475,192,132111,1,0,0:0:0:0:b_40l48o6a.wav
402,192,132169,1,0,0:0:0:0:b_40l48o6gp.wav
475,192,132228,1,0,0:0:0:0:b_40l48o6a.wav
402,192,132287,1,0,0:0:0:0:b_40l48o6gp.wav
475,192,132346,1,0,0:0:0:0:b_40l48o6a.wav
402,192,132405,1,0,0:0:0:0:b_40l48o6gp.wav
475,192,132464,1,0,0:0:0:0:b_40l48o6a.wav
109,192,132493,1,0,0:0:0:0:b_76l8-3o3e.wav
182,192,132522,1,0,0:0:0:0:b_76l384-139o3b.wav
402,192,132522,1,0,0:0:0:0:b_41l48o6gp.wav
475,192,132581,1,0,0:0:0:0:b_41l48o6a.wav
402,192,132640,1,0,0:0:0:0:b_41l48o6gp.wav
475,192,132699,1,0,0:0:0:0:b_41l48o6a.wav
402,192,132758,1,0,0:0:0:0:b_41l48o6gp.wav
475,192,132817,1,0,0:0:0:0:b_41l48o6a.wav
402,192,132875,1,0,0:0:0:0:b_41l48o6gp.wav
475,192,132934,1,0,0:0:0:0:b_41l48o6a.wav
402,192,132993,1,0,0:0:0:0:b_41l48o6gp.wav
475,192,133052,1,0,0:0:0:0:b_42l48o6a.wav
402,192,133111,1,0,0:0:0:0:b_42l48o6gp.wav
475,192,133169,1,0,0:0:0:0:b_42l48o6a.wav
402,192,133228,1,0,0:0:0:0:b_42l48o6gp.wav
475,192,133287,1,0,0:0:0:0:b_42l48o6a.wav
402,192,133346,1,0,0:0:0:0:b_42l48o6gp.wav
475,192,133405,1,0,0:0:0:0:b_42l48o6a.wav
402,192,133464,1,0,0:0:0:0:b_42l48o6gp.wav
475,192,133508,1,0,0:0:0:0:b_42l48o6a.wav
109,192,133552,1,0,0:0:0:0:b_70l8o6e.wav
36,192,133552,1,0,0:0:0:0:b_70l8o5b.wav
402,192,133596,1,0,0:0:0:0:b_43l48o6gp.wav
475,192,133640,1,0,0:0:0:0:b_43l48o6a.wav
402,192,133699,1,0,0:0:0:0:b_43l48o6gp.wav
475,192,133758,1,0,0:0:0:0:b_43l48o6a.wav
402,192,133817,1,0,0:0:0:0:b_43l48o6gp.wav
475,192,133861,1,0,0:0:0:0:b_43l48o6a.wav
109,192,133905,1,0,0:0:0:0:b_72l4o6e.wav
36,192,133905,1,0,0:0:0:0:b_72l4o5b.wav
402,192,133955,1,0,0:0:0:0:b_43l48o6gp.wav
475,192,134005,1,0,0:0:0:0:b_43l48o6a.wav
402,192,134071,1,0,0:0:0:0:b_43l48o6gp.wav
475,192,134138,1,0,0:0:0:0:b_44l48o6a.wav
402,192,134205,1,0,0:0:0:0:b_44l48o6gp.wav
475,192,134271,1,0,0:0:0:0:b_44l48o6a.wav
402,192,134340,1,0,0:0:0:0:b_44l48o6gp.wav
475,192,134412,1,0,0:0:0:0:b_44l48o6a.wav
402,192,134483,1,0,0:0:0:0:b_44l48o6gp.wav
475,192,134555,1,0,0:0:0:0:b_44l48o6a.wav
402,192,134626,1,0,0:0:0:0:b_44l48o6gp.wav
475,192,134680,1,0,0:0:0:0:b_44l48o6a.wav
109,192,134733,1,0,0:0:0:0:b_75l4o6e.wav
36,192,134733,1,0,0:0:0:0:b_75l4o5b.wav
402,192,134791,1,0,0:0:0:0:b_45l48o6gp.wav
475,192,134868,1,0,0:0:0:0:b_45l48o6a.wav
402,192,134945,1,0,0:0:0:0:b_45l48o6gp.wav
475,192,135022,1,0,0:0:0:0:b_45l48o6a.wav
402,192,135099,1,0,0:0:0:0:b_45l48o6gp.wav
475,192,135176,1,0,0:0:0:0:b_45l48o6a.wav
402,192,135257,1,0,0:0:0:0:b_45l48o6gp.wav
475,192,135341,1,0,0:0:0:0:b_45l48o6a.wav
402,192,135424,1,0,0:0:0:0:b_45l16o6gp.wav
182,192,135820,1,0,0:0:0:0:b_86l8-3o5a.wav
329,192,135820,1,0,0:0:0:0:b_86l8-3o6cp.wav
36,192,135820,1,0,0:0:0:0:b_77l4o2a.wav
475,192,135820,1,0,0:0:0:0:b_86l8-3o6e.wav
182,192,136487,1,0,0:0:0:0:b_85l384-19o4e.wav
329,192,136625,1,0,0:0:0:0:b_85l384-19o4fp.wav
109,192,136750,1,0,0:0:0:0:b_85l384-19o4a.wav
256,192,136820,1,0,0:0:0:0:b_95l8o5fp.wav
475,192,136820,1,0,0:0:0:0:b_95l8o6fp.wav
402,192,136875,1,0,0:0:0:0:b_85l384-19o4b.wav
182,192,137014,1,0,0:0:0:0:b_85l96-5o5cp.wav
256,192,137153,1,0,0:0:0:0:b_96l8o5a.wav
402,192,137153,1,0,0:0:0:0:b_96l8o6a.wav
36,192,137153,1,0,0:0:0:0:b_85l4o5e.wav
109,192,137487,1,0,0:0:0:0:b_97l8o5b.wav
329,192,137487,1,0,0:0:0:0:b_97l8o6b.wav
182,192,137820,1,0,0:0:0:0:b_79l4o3gp.wav
402,192,137820,1,0,0:0:0:0:b_97l8o7cp.wav
36,192,137820,1,0,0:0:0:0:b_79l4o2gp.wav
329,192,138153,1,0,0:0:0:0:b_98l8o6e.wav
475,192,138153,1,0,0:0:0:0:b_98l8o7e.wav
109,192,138487,1,0,0:0:0:0:b_82l1o2fp.wav
256,192,138487,1,0,0:0:0:0:b_91l8-7o6a.wav
402,192,138487,1,0,0:0:0:0:b_91l1o7fp.wav
36,192,139153,1,0,0:0:0:0:b_75l16o4fp.wav
109,192,139320,1,0,0:0:0:0:b_76l16o4a.wav
256,192,139487,1,0,0:0:0:0:b_77l16o5cp.wav
402,192,139487,1,0,0:0:0:0:b_82l8o3fp.wav
182,192,139653,1,0,0:0:0:0:b_77l16o5e.wav
329,192,139820,1,0,0:0:0:0:b_83l8o4a.wav
36,192,139820,1,0,0:0:0:0:b_83l8o3a.wav
475,192,139820,1,0,0:0:0:0:b_78l16o5fp.wav
182,192,139987,1,0,0:0:0:0:b_79l16o5a.wav
109,192,140153,1,0,0:0:0:0:b_86l8o3b.wav
256,192,140153,1,0,0:0:0:0:b_80l16o6cp.wav
402,192,140320,1,0,0:0:0:0:b_81l16o6e.wav
182,192,140487,1,0,0:0:0:0:b_89l8o4cp.wav
329,192,140487,1,0,0:0:0:0:b_82l16o6fp.wav
475,192,140653,1,0,0:0:0:0:b_83l16o6a.wav
256,192,140820,1,0,0:0:0:0:b_91l8o4e.wav
402,192,140820,1,0,0:0:0:0:b_83l16o7cp.wav
182,192,140987,1,0,0:0:0:0:b_84l16o7e.wav
329,192,141153,1,0,0:0:0:0:b_86l384-19o3a.wav
36,192,141153,1,0,0:0:0:0:b_86l384-19o3d.wav
475,192,141153,1,0,0:0:0:0:b_93l8o7fp.wav
182,192,141292,1,0,0:0:0:0:b_86l384-19o4d.wav
256,192,141417,1,0,0:0:0:0:b_86l384-19o4fp.wav
329,192,141487,1,0,0:0:0:0:b_105l4o7a.wav
402,192,141487,1,0,0:0:0:0:b_105l4o6a.wav
109,192,141542,1,0,0:0:0:0:b_86l384-19o4a.wav
256,192,141681,1,0,0:0:0:0:b_86l384-19o5d.wav
475,192,141820,1,0,0:0:0:0:b_86l4o5fp.wav
256,192,142153,1,0,0:0:0:0:b_104l8o7fp.wav
36,192,142153,1,0,0:0:0:0:b_104l8o6fp.wav
182,192,142487,1,0,0:0:0:0:b_96l8o6e.wav
329,192,142487,1,0,0:0:0:0:b_96l8o7e.wav
475,192,142487,1,0,0:0:0:0:b_96l8o6gp.wav
109,192,142820,1,0,0:0:0:0:b_103l8o6cp.wav
256,192,142820,1,0,0:0:0:0:b_103l8o7cp.wav
329,192,143153,1,0,0:0:0:0:b_95l4o7e.wav
36,192,143153,1,0,0:0:0:0:b_95l4o6e.wav
475,192,143153,1,0,0:0:0:0:b_73l4o5e.wav
109,192,143820,1,0,0:0:0:0:b_91l8o6fp.wav
256,192,143820,1,0,0:0:0:0:b_91l8o6a.wav
402,192,143820,1,0,0:0:0:0:b_91l8o7d.wav
36,192,143959,1,0,0:0:0:0:b_86l384-19o4d.wav
182,192,144084,1,0,0:0:0:0:b_86l384-19o4fp.wav
329,192,144153,1,0,0:0:0:0:b_100l4o6a.wav
475,192,144153,1,0,0:0:0:0:b_100l4o7a.wav
109,192,144209,1,0,0:0:0:0:b_87l384-19o4a.wav
256,192,144348,1,0,0:0:0:0:b_87l384-19o5d.wav
402,192,144487,1,0,0:0:0:0:b_87l4o5fp.wav
329,192,144820,1,0,0:0:0:0:b_100l8o6fp.wav
475,192,144820,1,0,0:0:0:0:b_100l8o7fp.wav
109,192,145153,1,0,0:0:0:0:b_85l4o4cp.wav
182,192,145153,1,0,0:0:0:0:b_91l8o6e.wav
36,192,145153,1,0,0:0:0:0:b_85l4o3cp.wav
256,192,145487,1,0,0:0:0:0:b_101l8o6cp.wav
402,192,145487,1,0,0:0:0:0:b_101l8o7cp.wav
109,192,145820,1,0,0:0:0:0:b_76l4o5e.wav
329,192,145820,1,0,0:0:0:0:b_97l4o7e.wav
36,192,145820,1,0,0:0:0:0:b_76l4o5cp.wav
182,192,146487,1,0,0:0:0:0:b_92l8o6fp.wav
329,192,146487,1,0,0:0:0:0:b_92l8o6a.wav
475,192,146487,1,0,0:0:0:0:b_92l8o7d.wav
109,192,146625,1,0,0:0:0:0:b_86l384-19o4d.wav
256,192,146750,1,0,0:0:0:0:b_86l384-19o4fp.wav
402,192,146820,1,0,0:0:0:0:b_104l4o6a.wav
36,192,146820,1,0,0:0:0:0:b_104l4o7a.wav
182,192,146875,1,0,0:0:0:0:b_86l384-19o4a.wav
329,192,147014,1,0,0:0:0:0:b_86l384-19o5d.wav
475,192,147153,1,0,0:0:0:0:b_86l4o5fp.wav
109,192,147487,1,0,0:0:0:0:b_102l8o6fp.wav
256,192,147487,1,0,0:0:0:0:b_102l8o7fp.wav
182,192,147820,1,0,0:0:0:0:b_91l8o6e.wav
329,192,147820,1,0,0:0:0:0:b_91l8o7e.wav
36,192,147820,1,0,0:0:0:0:b_82l4o3cp.wav
256,192,148153,1,0,0:0:0:0:b_101l8o6cp.wav
475,192,148153,1,0,0:0:0:0:b_101l8o7cp.wav
182,192,148487,1,0,0:0:0:0:b_101l8o6e.wav
402,192,148487,1,0,0:0:0:0:b_101l8o7e.wav
36,192,148487,1,0,0:0:0:0:b_83l4o2b.wav
256,192,148820,1,0,0:0:0:0:b_101l8o6fp.wav
329,192,148820,1,0,0:0:0:0:b_101l8o7fp.wav
109,192,149153,1,0,0:0:0:0:b_82l1o3a.wav
402,192,149153,1,0,0:0:0:0:b_89l4o6cp.wav
36,192,149153,1,0,0:0:0:0:b_82l1o2a.wav
475,192,149153,1,0,0:0:0:0:b_89l4o7cp.wav
182,192,149487,1,0,0:0:0:0:b_82l16o5cp.wav
329,192,149653,1,0,0:0:0:0:b_82l16o5e.wav
475,192,149820,1,0,0:0:0:0:b_82l16o5fp.wav
36,192,149987,1,0,0:0:0:0:b_82l16o5a.wav
109,192,150153,1,0,0:0:0:0:b_82l16o6cp.wav
256,192,150153,1,0,0:0:0:0:b_85l8o4e.wav
329,192,150320,1,0,0:0:0:0:b_82l16o6e.wav
182,192,150487,1,0,0:0:0:0:b_85l8o5fp.wav
402,192,150487,1,0,0:0:0:0:b_82l16o6fp.wav
36,192,150487,1,0,0:0:0:0:b_85l8o4fp.wav
256,192,150653,1,0,0:0:0:0:b_82l16o6a.wav
329,192,150820,1,0,0:0:0:0:b_85l8o5gp.wav
475,192,150820,1,0,0:0:0:0:b_85l8o4gp.wav
256,192,150987,1,0,0:0:0:0:b_82l16o7e.wav
182,192,151153,1,0,0:0:0:0:b_85l8o5fp.wav
402,192,151153,1,0,0:0:0:0:b_85l8o4fp.wav
109,192,151320,1,0,0:0:0:0:b_82l16o7e.wav
256,192,151487,1,0,0:0:0:0:b_85l8o5e.wav
36,192,151487,1,0,0:0:0:0:b_85l8o4e.wav
182,192,151653,1,0,0:0:0:0:b_82l16o6a.wav
329,192,151820,1,0,0:0:0:0:b_91l8o6e.wav
36,192,151820,1,0,0:0:0:0:b_87l384-19o3cp.wav
475,192,151820,1,0,0:0:0:0:b_91l8o6gp.wav
182,192,151959,1,0,0:0:0:0:b_87l384-19o4cp.wav
256,192,152084,1,0,0:0:0:0:b_87l384-19o4e.wav
109,192,152153,1,0,0:0:0:0:b_102l4o6e.wav
402,192,152153,1,0,0:0:0:0:b_102l4o7e.wav
475,192,152209,1,0,0:0:0:0:b_87l384-19o4gp.wav
182,192,152348,1,0,0:0:0:0:b_87l96-5o5cp.wav
329,192,152487,1,0,0:0:0:0:b_87l4o5e.wav
109,192,152820,1,0,0:0:0:0:b_102l8o6cp.wav
256,192,152820,1,0,0:0:0:0:b_102l8o7cp.wav
182,192,153153,1,0,0:0:0:0:b_87l4o4d.wav
329,192,153153,1,0,0:0:0:0:b_92l8o6fp.wav
36,192,153153,1,0,0:0:0:0:b_87l4o3d.wav
256,192,153487,1,0,0:0:0:0:b_102l8o6a.wav
402,192,153487,1,0,0:0:0:0:b_102l8o5a.wav
182,192,153820,1,0,0:0:0:0:b_78l4o5d.wav
36,192,153820,1,0,0:0:0:0:b_78l4o4fp.wav
475,192,153820,1,0,0:0:0:0:b_102l4o6b.wav
109,192,154487,1,0,0:0:0:0:b_88l384-19o3cp.wav
256,192,154487,1,0,0:0:0:0:b_88l384-19o3gp.wav
402,192,154487,1,0,0:0:0:0:b_92l8o6cp.wav
36,192,154625,1,0,0:0:0:0:b_88l384-19o4cp.wav
182,192,154750,1,0,0:0:0:0:b_88l384-19o4e.wav
256,192,154820,1,0,0:0:0:0:b_102l4o7e.wav
475,192,154820,1,0,0:0:0:0:b_102l4o6e.wav
109,192,154875,1,0,0:0:0:0:b_88l384-19o4gp.wav
329,192,155014,1,0,0:0:0:0:b_88l96-5o5cp.wav
402,192,155153,1,0,0:0:0:0:b_88l4o5e.wav
182,192,155487,1,0,0:0:0:0:b_102l8o6cp.wav
329,192,155487,1,0,0:0:0:0:b_102l8o7cp.wav
256,192,155820,1,0,0:0:0:0:b_92l8o6fp.wav
402,192,155820,1,0,0:0:0:0:b_87l4o4d.wav
36,192,155820,1,0,0:0:0:0:b_87l4o3d.wav
182,192,156153,1,0,0:0:0:0:b_102l8o5a.wav
329,192,156153,1,0,0:0:0:0:b_102l8o6a.wav
256,192,156487,1,0,0:0:0:0:b_77l4o4b.wav
36,192,156487,1,0,0:0:0:0:b_77l4o4fp.wav
475,192,156487,1,0,0:0:0:0:b_77l4o5d.wav
182,192,157153,1,0,0:0:0:0:b_87l384-19o3cp.wav
329,192,157153,1,0,0:0:0:0:b_92l8o6cp.wav
475,192,157153,1,0,0:0:0:0:b_87l384-19o3gp.wav
36,192,157292,1,0,0:0:0:0:b_87l384-19o4cp.wav
182,192,157417,1,0,0:0:0:0:b_87l384-19o4e.wav
329,192,157487,1,0,0:0:0:0:b_102l4o6e.wav
475,192,157487,1,0,0:0:0:0:b_102l4o7e.wav
109,192,157542,1,0,0:0:0:0:b_87l384-19o4gp.wav
256,192,157681,1,0,0:0:0:0:b_87l96-5o5cp.wav
402,192,157820,1,0,0:0:0:0:b_87l4o5e.wav
182,192,158153,1,0,0:0:0:0:b_102l8o6cp.wav
329,192,158153,1,0,0:0:0:0:b_102l8o7cp.wav
109,192,158487,1,0,0:0:0:0:b_83l4o3e.wav
256,192,158487,1,0,0:0:0:0:b_83l4o4e.wav
475,192,158487,1,0,0:0:0:0:b_96l8o6b.wav
329,192,158820,1,0,0:0:0:0:b_102l8o5gp.wav
402,192,158820,1,0,0:0:0:0:b_102l8o6gp.wav
182,192,159153,1,0,0:0:0:0:b_83l4o4fp.wav
256,192,159153,1,0,0:0:0:0:b_102l8o6e.wav
36,192,159153,1,0,0:0:0:0:b_83l4o3fp.wav
109,192,159487,1,0,0:0:0:0:b_102l8o5fp.wav
402,192,159487,1,0,0:0:0:0:b_102l8o6fp.wav
182,192,159820,1,0,0:0:0:0:b_84l8-3o3a.wav
329,192,159820,1,0,0:0:0:0:b_92l2o5a.wav
36,192,159820,1,0,0:0:0:0:b_84l8-3o2a.wav
475,192,159820,1,0,0:0:0:0:b_92l2o6cp.wav
36,192,160153,1,0,0:0:0:0:b_72l16o4a.wav
182,192,160320,1,0,0:0:0:0:b_72l16o5cp.wav
329,192,160487,1,0,0:0:0:0:b_72l16o5e.wav
475,192,160653,1,0,0:0:0:0:b_71l16o5fp.wav
109,192,160820,1,0,0:0:0:0:b_81l8o4e.wav
329,192,160820,1,0,0:0:0:0:b_71l16o5e.wav
182,192,160987,1,0,0:0:0:0:b_71l16o5cp.wav
256,192,161153,1,0,0:0:0:0:b_70l16o4a.wav
402,192,161153,1,0,0:0:0:0:b_81l8o4fp.wav
36,192,161153,1,0,0:0:0:0:b_81l8o3a.wav
182,192,161320,1,0,0:0:0:0:b_70l16o5cp.wav
329,192,161487,1,0,0:0:0:0:b_81l8o4e.wav
475,192,161487,1,0,0:0:0:0:b_70l16o5e.wav
256,192,161653,1,0,0:0:0:0:b_69l16o5fp.wav
182,192,161820,1,0,0:0:0:0:b_69l16o5a.wav
36,192,161820,1,0,0:0:0:0:b_81l8o3a.wav
256,192,161987,1,0,0:0:0:0:b_68l16o6cp.wav
109,192,162153,1,0,0:0:0:0:b_81l8o4e.wav
329,192,162153,1,0,0:0:0:0:b_68l16o6e.wav
402,192,162320,1,0,0:0:0:0:b_68l16o6fp.wav
36,192,162487,1,0,0:0:0:0:b_83l8-3o3a.wav
475,192,162487,1,0,0:0:0:0:b_63l32o6a.wav
182,192,162514,1,0,0:0:0:0:b_83l384-139o4d.wav
402,192,162570,1,0,0:0:0:0:b_64l32o6b.wav
475,192,162653,1,0,0:0:0:0:b_65l32o6a.wav
402,192,162737,1,0,0:0:0:0:b_66l32o6b.wav
475,192,162820,1,0,0:0:0:0:b_67l32o6a.wav
402,192,162903,1,0,0:0:0:0:b_68l32o6b.wav
475,192,162987,1,0,0:0:0:0:b_69l32o6a.wav
402,192,163070,1,0,0:0:0:0:b_70l32o6b.wav
475,192,163153,1,0,0:0:0:0:b_71l32o6a.wav
402,192,163237,1,0,0:0:0:0:b_71l32o6b.wav
475,192,163320,1,0,0:0:0:0:b_72l16o6a.wav
109,192,163487,1,0,0:0:0:0:b_85l32-3o5a.wav
256,192,163487,1,0,0:0:0:0:b_85l32-3o6d.wav
402,192,163653,1,0,0:0:0:0:b_72l16o7fp.wav
182,192,163820,1,0,0:0:0:0:b_86l16-3o6d.wav
36,192,163820,1,0,0:0:0:0:b_86l16-3o5a.wav
475,192,163820,1,0,0:0:0:0:b_86l16-3o6fp.wav
329,192,163959,1,0,0:0:0:0:b_72l384-19o7b.wav
256,192,164084,1,0,0:0:0:0:b_72l384-19o7a.wav
182,192,164209,1,0,0:0:0:0:b_71l384-19o7fp.wav
109,192,164348,1,0,0:0:0:0:b_70l96-5o7d.wav
329,192,164487,1,0,0:0:0:0:b_68l384-19o6a.wav
36,192,164487,1,0,0:0:0:0:b_83l16-3o5a.wav
475,192,164487,1,0,0:0:0:0:b_83l16-3o6fp.wav
402,192,164625,1,0,0:0:0:0:b_66l384-19o6b.wav
329,192,164750,1,0,0:0:0:0:b_65l384-19o6a.wav
256,192,164875,1,0,0:0:0:0:b_63l128-5o6fp.wav
182,192,165014,1,0,0:0:0:0:b_62l96-5o6d.wav
36,192,165153,1,0,0:0:0:0:b_79l8-3o3a.wav
475,192,165153,1,0,0:0:0:0:b_57l32o6a.wav
109,192,165181,1,0,0:0:0:0:b_79l384-139o4e.wav
402,192,165237,1,0,0:0:0:0:b_58l32o6b.wav
475,192,165320,1,0,0:0:0:0:b_59l32o6a.wav
402,192,165403,1,0,0:0:0:0:b_60l32o6b.wav
475,192,165487,1,0,0:0:0:0:b_61l32o6a.wav
402,192,165570,1,0,0:0:0:0:b_62l32o6b.wav
475,192,165653,1,0,0:0:0:0:b_63l32o6a.wav
402,192,165737,1,0,0:0:0:0:b_64l32o6b.wav
475,192,165820,1,0,0:0:0:0:b_65l32o6a.wav
402,192,165903,1,0,0:0:0:0:b_65l32o6b.wav
475,192,165987,1,0,0:0:0:0:b_66l16o6a.wav
182,192,166153,1,0,0:0:0:0:b_81l32-3o6cp.wav
36,192,166153,1,0,0:0:0:0:b_81l32-3o5a.wav
329,192,166320,1,0,0:0:0:0:b_68l16o7fp.wav
256,192,166487,1,0,0:0:0:0:b_68l384-19o7a.wav
402,192,166487,1,0,0:0:0:0:b_82l16-3o6cp.wav
36,192,166487,1,0,0:0:0:0:b_82l16-3o5a.wav
475,192,166625,1,0,0:0:0:0:b_68l384-19o7b.wav
329,192,166750,1,0,0:0:0:0:b_68l384-19o7a.wav
256,192,166875,1,0,0:0:0:0:b_66l384-19o7fp.wav
182,192,167014,1,0,0:0:0:0:b_64l96-5o7e.wav
256,192,167153,1,0,0:0:0:0:b_62l384-19o6a.wav
402,192,167153,1,0,0:0:0:0:b_76l16-3o6cp.wav
36,192,167153,1,0,0:0:0:0:b_76l16-3o5a.wav
329,192,167292,1,0,0:0:0:0:b_60l384-19o6b.wav
256,192,167417,1,0,0:0:0:0:b_58l384-19o6a.wav
182,192,167542,1,0,0:0:0:0:b_56l384-19o6fp.wav
109,192,167681,1,0,0:0:0:0:b_54l96-5o6e.wav
36,192,167820,1,0,0:0:0:0:b_50l32o5a.wav
475,192,167820,1,0,0:0:0:0:b_70l8-3o3a.wav
329,192,167849,1,0,0:0:0:0:b_70l384-139o4d.wav
109,192,167908,1,0,0:0:0:0:b_51l32o5b.wav
36,192,167996,1,0,0:0:0:0:b_52l32o5a.wav
109,192,168085,1,0,0:0:0:0:b_53l32o5b.wav
36,192,168173,1,0,0:0:0:0:b_54l32o5a.wav
109,192,168261,1,0,0:0:0:0:b_54l32o5b.wav
36,192,168349,1,0,0:0:0:0:b_55l32o5a.wav
109,192,168438,1,0,0:0:0:0:b_56l32o5b.wav
36,192,168526,1,0,0:0:0:0:b_57l32o5a.wav
109,192,168614,1,0,0:0:0:0:b_58l32o5b.wav
36,192,168702,1,0,0:0:0:0:b_59l16o5a.wav
182,192,168879,1,0,0:0:0:0:b_73l32-3o5fp.wav
329,192,168879,1,0,0:0:0:0:b_60l16o6e.wav
402,192,169055,1,0,0:0:0:0:b_62l16o6fp.wav
256,192,169232,1,0,0:0:0:0:b_74l16-3o5d.wav
36,192,169232,1,0,0:0:0:0:b_74l16-3o4a.wav
475,192,169232,1,0,0:0:0:0:b_74l16-3o5fp.wav
329,192,169379,1,0,0:0:0:0:b_63l384-19o6b.wav
256,192,169511,1,0,0:0:0:0:b_61l384-19o6a.wav
182,192,169643,1,0,0:0:0:0:b_58l384-19o6fp.wav
109,192,169790,1,0,0:0:0:0:b_56l96-5o6d.wav
402,192,169938,1,0,0:0:0:0:b_54l384-19o5a.wav
36,192,169938,1,0,0:0:0:0:b_71l16-3o5fp.wav
475,192,169938,1,0,0:0:0:0:b_71l16-3o5d.wav
256,192,170085,1,0,0:0:0:0:b_52l384-19o5b.wav
329,192,170217,1,0,0:0:0:0:b_50l384-19o5a.wav
182,192,170349,1,0,0:0:0:0:b_47l128-5o5fp.wav
109,192,170496,1,0,0:0:0:0:b_45l96-5o5d.wav
402,192,170643,1,0,0:0:0:0:b_65l8-3o3a.wav
36,192,170643,1,0,0:0:0:0:b_43l32o5a.wav
329,192,170675,1,0,0:0:0:0:b_65l384-139o4e.wav
109,192,170737,1,0,0:0:0:0:b_42l32o5b.wav
36,192,170831,1,0,0:0:0:0:b_44l32o5a.wav
109,192,170925,1,0,0:0:0:0:b_44l32o5b.wav
36,192,171018,1,0,0:0:0:0:b_46l32o5a.wav
109,192,171112,1,0,0:0:0:0:b_47l32o5b.wav
36,192,171206,1,0,0:0:0:0:b_47l32o5a.wav
109,192,171300,1,0,0:0:0:0:b_48l32o5b.wav
36,192,171393,1,0,0:0:0:0:b_50l32o5a.wav
109,192,171487,1,0,0:0:0:0:b_51l32o5b.wav
36,192,171581,1,0,0:0:0:0:b_51l16o5a.wav
182,192,171768,1,0,0:0:0:0:b_64l32-3o5e.wav
329,192,171768,1,0,0:0:0:0:b_54l16o6e.wav
256,192,171956,1,0,0:0:0:0:b_55l16o6fp.wav
182,192,172143,1,0,0:0:0:0:b_66l16-3o5e.wav
36,192,172143,1,0,0:0:0:0:b_66l16-3o4a.wav
475,192,172143,1,0,0:0:0:0:b_60l384-19o6a.wav
402,192,172310,1,0,0:0:0:0:b_57l384-19o6b.wav
329,192,172460,1,0,0:0:0:0:b_54l384-19o6a.wav
256,192,172610,1,0,0:0:0:0:b_51l384-19o6fp.wav
182,192,172777,1,0,0:0:0:0:b_48l96-5o6e.wav
109,192,172943,1,0,0:0:0:0:b_55l16-3o5cp.wav
256,192,172943,1,0,0:0:0:0:b_45l384-19o5a.wav
402,192,172943,1,0,0:0:0:0:b_55l16-3o5e.wav
329,192,173136,1,0,0:0:0:0:b_42l384-19o5b.wav
256,192,173333,1,0,0:0:0:0:b_39l384-19o5a.wav
182,192,173558,1,0,0:0:0:0:b_36l384-19o5fp.wav
36,192,173864,1,0,0:0:0:0:b_33l96-5o5e.wav
182,192,174280,1,0,0:0:0:0:b_60l8-3o5e.wav
329,192,174280,1,0,0:0:0:0:b_45l8-3o6e.wav
256,192,175632,1,0,0:0:0:0:b_57l32-3o6e.wav
36,192,175632,1,0,0:0:0:0:b_59l32-3o5a.wav
475,192,175632,1,0,0:0:0:0:b_57l32-3o6a.wav
256,192,176060,1,0,0:0:0:0:b_57l16-3o6e.wav
36,192,176060,1,0,0:0:0:0:b_59l16-3o5a.wav
475,192,176060,1,0,0:0:0:0:b_57l16-3o6a.wav
256,192,176918,1,0,0:0:0:0:b_59l16-3o6e.wav
36,192,176918,1,0,0:0:0:0:b_59l16-3o5a.wav
475,192,176918,1,0,0:0:0:0:b_59l16-3o6a.wav
109,192,177748,1,0,0:0:0:0:b_66l64-25o6e.wav
256,192,177810,1,0,0:0:0:0:b_66l16-7o6a.wav
402,192,177852,1,0,0:0:0:0:b_66l384-181o7cp.wav
36,192,177935,1,0,0:0:0:0:b_47l32o4e.wav
109,192,178060,1,0,0:0:0:0:b_47l32o4fp.wav
182,192,178185,1,0,0:0:0:0:b_48l32o4a.wav
109,192,178310,1,0,0:0:0:0:b_50l32o4b.wav
182,192,178426,1,0,0:0:0:0:b_51l32o5cp.wav
256,192,178541,1,0,0:0:0:0:b_53l32o5e.wav
182,192,178657,1,0,0:0:0:0:b_55l32o5fp.wav
256,192,178772,1,0,0:0:0:0:b_56l32o5a.wav
329,192,178879,1,0,0:0:0:0:b_58l32o5b.wav
256,192,178986,1,0,0:0:0:0:b_59l32o6cp.wav
329,192,179093,1,0,0:0:0:0:b_61l32o6e.wav
402,192,179201,1,0,0:0:0:0:b_63l32o6fp.wav
329,192,179301,1,0,0:0:0:0:b_64l32o6a.wav
402,192,179401,1,0,0:0:0:0:b_66l32o6b.wav
475,192,179501,1,0,0:0:0:0:b_67l64o7cp.wav
182,192,179601,1,0,0:0:0:0:b_68l64o7e.wav
329,192,179684,1,0,0:0:0:0:b_68l384-7o7fp.wav
182,192,179767,1,0,0:0:0:0:b_68l64o7e.wav
329,192,179851,1,0,0:0:0:0:b_68l384-7o7fp.wav
182,192,179934,1,0,0:0:0:0:b_66l64o7e.wav
329,192,180009,1,0,0:0:0:0:b_65l384-7o7fp.wav
182,192,180084,1,0,0:0:0:0:b_65l64o7e.wav
329,192,180159,1,0,0:0:0:0:b_64l384-7o7fp.wav
182,192,180234,1,0,0:0:0:0:b_63l64o7e.wav
329,192,180302,1,0,0:0:0:0:b_63l384-7o7fp.wav
182,192,180370,1,0,0:0:0:0:b_62l64o7e.wav
329,192,180438,1,0,0:0:0:0:b_62l384-7o7fp.wav
182,192,180507,1,0,0:0:0:0:b_61l64o7e.wav
329,192,180569,1,0,0:0:0:0:b_60l384-7o7fp.wav
182,192,180632,1,0,0:0:0:0:b_60l64o7e.wav
329,192,180694,1,0,0:0:0:0:b_59l384-7o7fp.wav
182,192,180757,1,0,0:0:0:0:b_58l64o7e.wav
329,192,180819,1,0,0:0:0:0:b_58l384-7o7fp.wav
182,192,180882,1,0,0:0:0:0:b_57l64o7e.wav
329,192,180944,1,0,0:0:0:0:b_57l384-7o7fp.wav
182,192,181007,1,0,0:0:0:0:b_56l64o7e.wav
329,192,181075,1,0,0:0:0:0:b_55l384-7o7fp.wav
182,192,181143,1,0,0:0:0:0:b_55l64o7e.wav
329,192,181211,1,0,0:0:0:0:b_54l384-7o7fp.wav
182,192,181279,1,0,0:0:0:0:b_53l64o7e.wav
329,192,181373,1,0,0:0:0:0:b_53l384-7o7fp.wav
182,192,181467,1,0,0:0:0:0:b_52l16o7e.wav
36,192,183154,1,0,0:0:0:0:b_72l8-3o5a.wav
475,192,183154,1,0,0:0:0:0:b_75l8-3o6a.wav
109,192,184554,1,0,0:0:0:0:b_60l32-3o6fp.wav
256,192,184554,1,0,0:0:0:0:b_60l32-3o6a.wav
402,192,184554,1,0,0:0:0:0:b_60l32-3o7d.wav
109,192,184954,1,0,0:0:0:0:b_60l16-3o6fp.wav
256,192,184954,1,0,0:0:0:0:b_60l16-3o6a.wav
402,192,184954,1,0,0:0:0:0:b_60l16-3o7d.wav
109,192,185754,1,0,0:0:0:0:b_60l16-3o6fp.wav
256,192,185754,1,0,0:0:0:0:b_60l16-3o6a.wav
402,192,185754,1,0,0:0:0:0:b_60l16-3o7d.wav
256,192,186542,1,0,0:0:0:0:b_69l64-25o6a.wav
329,192,186604,1,0,0:0:0:0:b_69l16-7o7d.wav
475,192,186646,1,0,0:0:0:0:b_69l384-181o7fp.wav
36,192,186729,1,0,0:0:0:0:b_44l32o4a.wav
182,192,186854,1,0,0:0:0:0:b_48l32o4b.wav
329,192,186979,1,0,0:0:0:0:b_50l32o5d.wav
109,192,187104,1,0,0:0:0:0:b_51l32o5e.wav
256,192,187220,1,0,0:0:0:0:b_52l32o5fp.wav
402,192,187335,1,0,0:0:0:0:b_54l32o5a.wav
182,192,187451,1,0,0:0:0:0:b_55l32o5b.wav
329,192,187566,1,0,0:0:0:0:b_56l32o6d.wav
475,192,187673,1,0,0:0:0:0:b_58l32o6e.wav
109,192,187780,1,0,0:0:0:0:b_59l32o6fp.wav
256,192,187887,1,0,0:0:0:0:b_60l32o6a.wav
402,192,187994,1,0,0:0:0:0:b_62l32o6b.wav
182,192,188094,1,0,0:0:0:0:b_63l32o7d.wav
329,192,188194,1,0,0:0:0:0:b_65l32o7e.wav
475,192,188294,1,0,0:0:0:0:b_66l64o7fp.wav
109,192,188394,1,0,0:0:0:0:b_66l64o7a.wav
402,192,188478,1,0,0:0:0:0:b_66l384-7o7b.wav
109,192,188561,1,0,0:0:0:0:b_66l64o7a.wav
402,192,188644,1,0,0:0:0:0:b_66l384-7o7b.wav
109,192,188728,1,0,0:0:0:0:b_66l64o7a.wav
402,192,188803,1,0,0:0:0:0:b_65l384-7o7b.wav
109,192,188878,1,0,0:0:0:0:b_65l64o7a.wav
402,192,188953,1,0,0:0:0:0:b_64l384-7o7b.wav
109,192,189028,1,0,0:0:0:0:b_64l64o7a.wav
402,192,189096,1,0,0:0:0:0:b_63l384-7o7b.wav
109,192,189164,1,0,0:0:0:0:b_62l64o7a.wav
402,192,189232,1,0,0:0:0:0:b_62l384-7o7b.wav
109,192,189301,1,0,0:0:0:0:b_61l64o7a.wav
402,192,189363,1,0,0:0:0:0:b_61l384-7o7b.wav
109,192,189426,1,0,0:0:0:0:b_60l64o7a.wav
402,192,189488,1,0,0:0:0:0:b_59l384-7o7b.wav
109,192,189551,1,0,0:0:0:0:b_59l64o7a.wav
402,192,189613,1,0,0:0:0:0:b_58l384-7o7b.wav
109,192,189676,1,0,0:0:0:0:b_58l64o7a.wav
402,192,189738,1,0,0:0:0:0:b_57l384-7o7b.wav
109,192,189801,1,0,0:0:0:0:b_56l64o7a.wav
402,192,189869,1,0,0:0:0:0:b_56l384-7o7b.wav
109,192,189937,1,0,0:0:0:0:b_55l64o7a.wav
402,192,190005,1,0,0:0:0:0:b_55l384-7o7b.wav
109,192,190073,1,0,0:0:0:0:b_54l64o7a.wav
402,192,190167,1,0,0:0:0:0:b_53l384-7o7b.wav
109,192,190261,1,0,0:0:0:0:b_53l16o7a.wav
475,192,190948,1,0,0:0:0:0:b_71l16o6gp.wav
182,192,191198,1,0,0:0:0:0:b_48l16o7gp.wav
329,192,191198,1,0,0:0:0:0:b_48l16o8gp.wav
402,192,191413,1,0,0:0:0:0:b_71l16o6fp.wav
109,192,191579,1,0,0:0:0:0:b_48l16o7fp.wav
256,192,191579,1,0,0:0:0:0:b_48l16o8fp.wav
475,192,191722,1,0,0:0:0:0:b_72l16o5b.wav
182,192,191865,1,0,0:0:0:0:b_48l16o7b.wav
36,192,191865,1,0,0:0:0:0:b_48l16o6b.wav
402,192,192008,1,0,0:0:0:0:b_73l16o6cp.wav
109,192,192151,1,0,0:0:0:0:b_48l16o7cp.wav
256,192,192151,1,0,0:0:0:0:b_48l16o8cp.wav
475,192,192294,1,0,0:0:0:0:b_74l16o6fp.wav
182,192,192430,1,0,0:0:0:0:b_48l16o7fp.wav
256,192,192430,1,0,0:0:0:0:b_48l16o8fp.wav
402,192,192566,1,0,0:0:0:0:b_74l16o6e.wav
109,192,192703,1,0,0:0:0:0:b_49l16o7e.wav
182,192,192703,1,0,0:0:0:0:b_49l16o8e.wav
475,192,192839,1,0,0:0:0:0:b_75l16o5a.wav
109,192,192975,1,0,0:0:0:0:b_49l16o7a.wav
36,192,192975,1,0,0:0:0:0:b_49l16o6a.wav
402,192,193112,1,0,0:0:0:0:b_76l16o5b.wav
109,192,193248,1,0,0:0:0:0:b_49l16o6b.wav
182,192,193248,1,0,0:0:0:0:b_49l16o7b.wav
475,192,193384,1,0,0:0:0:0:b_76l16o6e.wav
182,192,193527,1,0,0:0:0:0:b_49l16o7e.wav
329,192,193527,1,0,0:0:0:0:b_49l16o8e.wav
402,192,193670,1,0,0:0:0:0:b_77l16o6d.wav
109,192,193813,1,0,0:0:0:0:b_49l16o7d.wav
256,192,193813,1,0,0:0:0:0:b_49l16o8d.wav
475,192,193956,1,0,0:0:0:0:b_78l16o5fp.wav
182,192,194106,1,0,0:0:0:0:b_49l16o7fp.wav
36,192,194106,1,0,0:0:0:0:b_49l16o6fp.wav
402,192,194256,1,0,0:0:0:0:b_78l16o5gp.wav
109,192,194406,1,0,0:0:0:0:b_50l16o6gp.wav
256,192,194406,1,0,0:0:0:0:b_50l16o7gp.wav
475,192,194556,1,0,0:0:0:0:b_79l16o6cp.wav
182,192,194706,1,0,0:0:0:0:b_50l16o7cp.wav
256,192,194706,1,0,0:0:0:0:b_50l16o8cp.wav
402,192,194864,1,0,0:0:0:0:b_80l16o5b.wav
109,192,195022,1,0,0:0:0:0:b_50l16o6b.wav
182,192,195022,1,0,0:0:0:0:b_50l16o7b.wav
475,192,195180,1,0,0:0:0:0:b_80l16o5e.wav
109,192,195367,1,0,0:0:0:0:b_50l16o7e.wav
36,192,195367,1,0,0:0:0:0:b_50l16o6e.wav
402,192,195555,1,0,0:0:0:0:b_81l16o5fp.wav
109,192,195769,1,0,0:0:0:0:b_50l16o6fp.wav
182,192,195769,1,0,0:0:0:0:b_50l16o7fp.wav
329,192,196069,1,0,0:0:0:0:b_44l2o7gp.wav
36,192,196069,1,0,0:0:0:0:b_76l2o5gp.wav
475,192,196069,1,0,0:0:0:0:b_44l2o8gp.wav
475,192,197602,1,0,0:0:0:0:b_72l384-187o5fp.wav
402,192,197669,1,0,0:0:0:0:b_72l384-181o5gp.wav
329,192,197702,1,0,0:0:0:0:b_72l24-11o6cp.wav
256,192,197752,1,0,0:0:0:0:b_61l192-85o6e.wav
182,192,197802,1,0,0:0:0:0:b_61l96-41o6fp.wav
109,192,197835,1,0,0:0:0:0:b_61l128-53o6gp.wav
36,192,197902,1,0,0:0:0:0:b_61l128-51o7cp.wav
182,192,199169,1,0,0:0:0:0:b_60l8-3o5a.wav
329,192,199169,1,0,0:0:0:0:b_60l8-3o6a.wav
36,192,199169,1,0,0:0:0:0:b_60l8-3o4a.wav
475,192,199169,1,0,0:0:0:0:b_60l8-3o5e.wav
109,192,200369,1,0,0:0:0:0:b_66l32-3o5a.wav
256,192,200369,1,0,0:0:0:0:b_53l32-3o6cp.wav
402,192,200369,1,0,0:0:0:0:b_53l32-3o6e.wav
109,192,200769,1,0,0:0:0:0:b_66l16-3o5a.wav
256,192,200769,1,0,0:0:0:0:b_53l16-3o6cp.wav
402,192,200769,1,0,0:0:0:0:b_53l16-3o6e.wav
109,192,201569,1,0,0:0:0:0:b_66l16-3o5a.wav
256,192,201569,1,0,0:0:0:0:b_53l16-3o6cp.wav
402,192,201569,1,0,0:0:0:0:b_53l16-3o6e.wav
109,192,202426,1,0,0:0:0:0:b_57l8-3o7a.wav
182,192,202426,1,0,0:0:0:0:b_53l8-3o6cp.wav
256,192,202426,1,0,0:0:0:0:b_57l8-3o6a.wav
36,192,202426,1,0,0:0:0:0:b_53l8-3o5e.wav
329,192,203745,1,0,0:0:0:0:b_47l32-3o6e.wav
402,192,203745,1,0,0:0:0:0:b_47l32-3o6a.wav
475,192,203745,1,0,0:0:0:0:b_59l32-3o7cp.wav
329,192,204206,1,0,0:0:0:0:b_47l16-3o6e.wav
402,192,204206,1,0,0:0:0:0:b_47l16-3o6a.wav
475,192,204206,1,0,0:0:0:0:b_59l16-3o7cp.wav
329,192,205206,1,0,0:0:0:0:b_48l16-3o6e.wav
402,192,205206,1,0,0:0:0:0:b_48l16-3o6a.wav
475,192,205206,1,0,0:0:0:0:b_59l16-3o7cp.wav
36,192,206406,1,0,0:0:0:0:b_50l1o5a.wav
109,192,206448,1,0,0:0:0:0:b_50l384-379o5b.wav
182,192,206531,1,0,0:0:0:0:b_51l384-373o6cp.wav
256,192,206573,1,0,0:0:0:0:b_51l24-23o6e.wav
329,192,206635,1,0,0:0:0:0:b_51l192-181o6a.wav
182,192,206698,1,0,0:0:0:0:b_51l96-89o6b.wav
256,192,206740,1,0,0:0:0:0:b_51l128-117o7cp.wav
329,192,206823,1,0,0:0:0:0:b_51l128-115o7e.wav
402,192,206865,1,0,0:0:0:0:b_51l96-85o7a.wav
475,192,206927,1,0,0:0:0:0:b_51l192-167o8a.wav
