osu file format v14

[General]
AudioFilename: track.mp3
AudioLeadIn: 0
PreviewTime: 52389
Countdown: 0
SampleSet: Soft
StackLeniency: 0.7
Mode: 0
LetterboxInBreaks: 0
WidescreenStoryboard: 1
SamplesMatchPlaybackRate: 1

[Editor]
DistanceSpacing: 1.2
BeatDivisor: 3
GridSize: 4
TimelineZoom: 2.7

[Metadata]
Title:I'm an Albatraoz
TitleUnicode:I'm an Albatraoz
Artist:AronChupa
ArtistUnicode:AronChupa
Creator:Kazuya
Version:Normal
Source:
Tags:krfawy kazuya-sama single just dance 2016
BeatmapID:696223
BeatmapSetID:310680

[Difficulty]
HPDrainRate:4
CircleSize:3
OverallDifficulty:4
ApproachRate:5
SliderMultiplier:1.5
SliderTickRate:1

[Events]
//Background and Video events
0,0,"bg.jpg",0,0
Video,0,"video.avi"
//Break Periods
//Storyboard Layer 0 (Background)
//Storyboard Layer 1 (Fail)
//Storyboard Layer 2 (Pass)
//Storyboard Layer 3 (Foreground)
//Storyboard Sound Samples

[TimingPoints]
1764,468.75,4,2,1,30,1,0
9264,-100,4,2,1,30,0,0
26139,-100,4,1,1,70,0,0
31764,-100,4,2,1,70,0,0
52389,-100,4,1,1,70,0,1
58014,-100,4,2,1,70,0,0
59889,-100,4,1,1,70,0,1
65514,-100,4,2,1,70,0,0
82389,-100,4,1,1,70,0,1
88014,-100,4,1,1,70,0,0
89889,-100,4,1,1,70,0,1
95514,-100,4,2,1,70,0,0
97389,-100,4,2,1,50,0,0
129264,-100,4,1,1,70,0,1
134889,-100,4,1,1,70,0,0
136764,-100,4,1,1,70,0,1
142389,-100,4,2,1,70,0,0

[Colours]
Combo1 : 222,199,33
Combo2 : 137,65,108
Combo3 : 92,132,180
Combo4 : 81,185,125

[HitObjects]
256,192,7389,12,0,9264,0:0:0:0:
184,112,11139,6,0,P|108:92|52:132,2,150
256,208,12389,2,0,L|256:276,1,50
416,340,13014,1,0,0:0:0:0:
444,224,13326,2,0,L|456:168,1,50
376,84,13795,2,0,L|365:132,1,50
332,248,14264,2,0,P|304:247|260:256,1,50
108,296,14889,5,0,0:0:0:0:
24,137,15357,2,0,P|68:113|184:133,1,150
264,188,16139,2,0,P|293:192|328:192,1,50
480,124,16764,1,0,0:0:0:0:
468,244,17076,2,0,L|461:303,1,50
352,340,17545,2,0,L|346:290,1,50
328,172,18014,1,0,0:0:0:0:
328,172,18170,2,0,P|248:180|184:144,1,150
16,96,19107,6,0,L|28:256,1,150
140,288,19889,2,0,L|148:224,1,50
256,96,20514,1,0,0:0:0:0:
360,156,20826,2,0,P|367:180|368:208,1,50
260,256,21295,2,0,P|254:280|240:305,1,50
124,284,21764,2,0,P|106:302|82:316,1,50
4,228,22232,1,0,0:0:0:0:
256,192,22389,12,8,24264,0:0:0:0:
200,236,26139,6,0,P|156:172|164:88,1,150
324,32,27076,2,0,P|368:96|360:180,1,150
264,315,28014,2,0,P|196:300|104:303,2,150
436,368,29420,1,0,0:0:0:0:
476,192,29889,6,0,L|488:32,1,150
316,96,30826,2,0,P|248:76|180:116,1,150
72,256,31764,1,2,2:0:0:0:
176,316,32076,2,0,L|180:372,1,50,2|10,2:0|0:0,0:0:0:0:
280,300,32545,2,0,L|284:244,1,50,2|2,2:0|0:0,0:0:0:0:
296,71,33170,1,8,0:0:0:0:
136,156,33639,6,0,P|72:124|-4:136,2,150,0|2|0,0:0|0:0|0:0,0:0:0:0:
256,291,35045,1,2,0:0:0:0:
376,156,35514,2,0,P|440:124|516:136,2,150,0|2|0,0:0|0:0|0:0,0:0:0:0:
96,275,37389,6,0,P|72:203|100:135,1,150,0|2,0:0|0:0,0:0:0:0:
256,49,38326,1,0,0:0:0:0:
356,116,38639,2,0,L|360:172,1,50,0|2,0:0|0:0,0:0:0:0:
371,285,39107,1,0,0:0:0:0:
371,285,39264,2,0,P|448:268|508:300,2,150,0|2|0,0:0|0:0|0:0,0:0:0:0:
204,352,40670,1,2,0:0:0:0:
44,268,41139,5,0,0:0:0:0:
116,104,41607,2,0,P|166:114|216:112,1,100,2|0,0:0|0:0,0:0:0:0:
271,91,42076,2,0,P|339:75|419:91,1,150,0|2,0:0|0:0,0:0:0:0:
416,271,43014,2,0,P|348:287|268:271,1,150,0|2,0:0|0:0,0:0:0:0:
100,212,43951,2,0,L|113:367,1,150,0|2,0:0|0:0,0:0:0:0:
270,272,44889,5,0,0:0:0:0:
436,204,45357,2,0,L|444:100,1,100,2|0,0:0|0:0,0:0:0:0:
449,44,45826,2,0,P|384:68|300:56,1,150,0|2,0:0|0:0,0:0:0:0:
128,28,46764,2,0,P|120:76|128:132,1,100
160,176,47232,2,0,P|166:225|158:274,1,100,2|0,0:0|0:0,0:0:0:0:
124,324,47701,2,0,P|172:300|280:320,1,150,0|2,0:0|0:0,0:0:0:0:
440,356,48639,5,2,0:0:0:0:
492,184,49107,1,2,0:0:0:0:
348,76,49576,2,0,L|248:80,1,100,2|0,0:0|0:0,0:0:0:0:
200,116,50045,2,0,L|100:120,1,100,2|0,0:0|0:0,0:0:0:0:
49,152,50514,2,0,P|21:208|49:288,1,150,2|2,0:0|0:0,0:0:0:0:
212,360,51451,2,0,L|364:348,1,150,2|8,0:0|1:0,0:0:0:0:
452,192,52389,6,0,L|302:180,1,150,4|8,0:0|1:0,0:0:0:0:
156,76,53326,1,0,0:0:0:0:
48,128,53639,2,0,L|52:184,1,50,0|8,0:0|0:0,0:0:0:0:
152,328,54264,1,0,0:0:0:0:
256,268,54576,2,0,L|260:208,1,50,0|8,0:0|0:0,0:0:0:0:
372,176,55045,2,0,L|376:236,1,50
492,256,55514,2,0,L|496:196,1,50,0|8,0:0|0:0,0:0:0:0:
500,86,55982,1,0,0:0:0:0:
500,86,56139,6,0,P|428:96|348:80,1,150,4|8,0:0|0:0,0:0:0:0:
184,20,57076,1,0,0:0:0:0:
88,92,57389,2,0,L|84:152,1,50,0|8,0:0|0:0,0:0:0:0:
79,262,57857,1,0,0:0:0:0:
79,262,58014,2,0,P|151:276|220:244,1,150,2|2,0:0|0:0,0:0:0:0:
380,167,58951,2,0,L|422:322,1,150,2|8,0:0|1:0,0:0:0:0:
452,136,59889,6,0,P|384:154|292:140,1,150,4|8,0:0|0:0,0:0:0:0:
148,60,60826,1,0,0:0:0:0:
56,136,61139,2,0,L|60:192,1,50,0|8,0:0|0:0,0:0:0:0:
192,308,61764,2,0,P|232:284|292:296,1,100
337,317,62232,2,0,P|334:242|348:168,1,150,8|0,0:0|0:0,0:0:0:0:
271,76,63014,2,0,P|242:81|207:80,1,50,0|8,0:0|0:0,0:0:0:0:
109,39,63482,1,0,0:0:0:0:
109,39,63639,6,0,L|101:195,1,150,4|8,0:0|0:0,0:0:0:0:
216,328,64576,1,0,0:0:0:0:
320,268,64889,2,0,P|344:264|372:268,1,50,0|8,0:0|0:0,0:0:0:0:
453,353,65357,1,0,0:0:0:0:
453,353,65514,2,0,L|469:197,1,150,2|2,0:0|0:0,0:0:0:0:
324,96,66451,2,0,P|260:120|168:104,1,150,2|8,0:0|1:0,0:0:0:0:
8,56,67389,6,0,L|20:212,1,150,0|2,0:0|0:0,0:0:0:0:
176,296,68326,2,0,P|240:272|332:292,1,150,0|2,0:0|0:0,0:0:0:0:
484,356,69264,1,0,0:0:0:0:
476,236,69576,2,0,L|472:172,1,50,0|2,0:0|0:0,0:0:0:0:
360,144,70045,2,0,L|356:193,1,50
240,164,70514,2,0,L|236:114,1,50,0|2,0:0|0:0,0:0:0:0:
63,68,71139,6,0,P|43:128|63:216,1,150,0|2,0:0|0:0,0:0:0:0:
136,304,71920,2,0,L|200:312,1,50
288,248,72389,2,0,L|352:256,1,50,0|2,0:0|0:0,0:0:0:0:
504,184,73014,1,0,0:0:0:0:
408,112,73326,2,0,P|383:112|352:108,1,50,0|2,0:0|0:0,0:0:0:0:
244,72,73795,2,0,P|219:68|194:69,1,50
80,104,74264,2,0,L|76:160,1,50,0|2,0:0|0:0,0:0:0:0:
64,333,74889,6,0,P|132:353|208:321,1,150,0|2,0:0|0:0,0:0:0:0:
316,184,75826,1,0,0:0:0:0:
164,88,76295,1,2,0:0:0:0:
20,196,76764,2,0,B|0:264|0:264|12:348,2,150
164,88,78170,1,8,1:0:0:0:
308,196,78639,5,2,0:0:0:0:
472,124,79107,1,2,0:0:0:0:
456,304,79576,2,0,P|408:308|356:304,1,100,2|2,0:0|0:0,0:0:0:0:
308,268,80045,2,0,P|258:264|208:268,1,100,2|2,0:0|0:0,0:0:0:0:
160,304,80514,2,0,P|80:316|12:300,1,150,2|2,0:0|0:0,0:0:0:0:
20,120,81451,2,0,P|93:107|166:123,1,150,2|8,0:0|1:0,0:0:0:0:
316,224,82389,6,0,L|324:68,2,150,4|8|0,0:0|0:0|0:0,0:0:0:0:
256,328,83639,2,0,P|224:324|188:332,1,50,0|8,0:0|0:0,0:0:0:0:
28,344,84264,2,0,L|24:188,1,150,0|8,0:0|0:0,0:0:0:0:
104,104,85045,2,0,L|112:44,1,50
216,112,85514,2,0,L|224:172,1,50,0|8,0:0|0:0,0:0:0:0:
240,280,85982,1,0,0:0:0:0:
240,280,86139,6,0,P|304:252|384:260,1,150,4|8,0:0|0:0,0:0:0:0:
494,304,86920,2,0,L|502:240,1,50
435,153,87389,2,0,L|443:89,1,50,0|8,0:0|0:0,0:0:0:0:
348,28,87857,1,0,0:0:0:0:
348,28,88014,6,0,L|184:36,1,150,2|2,2:0|2:0,0:0:0:0:
108,192,88951,2,0,L|257:199,1,150,2|8,2:0|0:0,0:0:0:0:
340,360,89889,6,0,L|190:367,2,150,4|8|0,0:0|0:0|0:0,0:0:0:0:
444,300,91139,2,0,L|448:244,1,50,0|8,0:0|0:0,0:0:0:0:
368,88,91764,2,0,P|316:96|256:80,1,100
217,59,92232,2,0,P|145:39|65:47,1,150,8|0,0:0|0:0,0:0:0:0:
0,144,93014,2,0,L|4:204,1,50,0|8,0:0|0:0,0:0:0:0:
132,316,93639,6,0,P|180:300|232:312,1,100,4|0,0:0|0:0,0:0:0:0:
279,340,94107,2,0,P|360:352|428:344,1,150,8|0,0:0|0:0,0:0:0:0:
500,248,94889,2,0,L|508:188,1,50,0|8,0:0|0:0,0:0:0:0:
392,60,95514,5,2,2:0:0:0:
296,132,95826,2,0,L|288:192,1,50,2|2,2:0|2:0,0:0:0:0:
273,301,96295,1,2,2:0:0:0:
273,301,96451,2,0,B|204:332|204:332|128:316,1,150,2|0,0:0|0:0,0:0:0:0:
28,168,97389,6,0,B|97:137|97:137|173:153,1,150
333,228,98326,2,0,L|325:72,2,150
224,372,99732,1,0,0:0:0:0:
56,308,100201,1,0,0:0:0:0:
4,136,100670,1,0,0:0:0:0:
148,28,101139,6,0,L|304:40,1,150,0|2,0:0|0:0,0:0:0:0:
388,196,102076,2,0,L|232:208,1,150,0|2,0:0|0:0,0:0:0:0:
64,160,103014,2,0,P|56:92|112:36,2,150,0|2|0,0:0|0:0|0:0,0:0:0:0:
140,324,104420,1,2,0:0:0:0:
292,228,104889,5,0,0:0:0:0:
460,292,105357,2,0,L|472:140,1,150,2|0,0:0|0:0,0:0:0:0:
380,64,106139,2,0,P|352:72|320:72,1,50,0|2,0:0|0:0,0:0:0:0:
152,56,106764,1,0,0:0:0:0:
48,116,107076,2,0,L|44:176,1,50,0|2,0:0|0:0,0:0:0:0:
136,244,107545,2,0,L|136:184,1,50
236,128,108014,2,0,L|240:188,1,50,0|2,0:0|0:0,0:0:0:0:
244,358,108639,5,0,0:0:0:0:
412,296,109107,2,0,P|436:220|412:156,1,150,2|0,0:0|0:0,0:0:0:0:
320,80,109889,2,0,P|289:79|264:76,1,50,0|2,0:0|0:0,0:0:0:0:
98,24,110514,2,0,P|86:72|98:124,1,100
130,170,110982,2,0,P|140:218|128:266,1,100,2|0,0:0|0:0,0:0:0:0:
104,322,111451,2,0,P|171:310|252:324,1,150,0|2,0:0|0:0,0:0:0:0:
427,368,112389,5,0,0:0:0:0:
361,201,112857,2,0,P|294:204|221:161,1,150,2|0,0:0|0:0,0:0:0:0:
110,125,113639,2,0,L|102:201,1,50,0|2,0:0|0:0,0:0:0:0:
87,354,114264,1,0,0:0:0:0:
256,288,114732,2,0,P|296:268|360:280,1,100,2|0,0:0|0:0,0:0:0:0:
400,307,115201,2,0,L|388:152,1,150,0|2,0:0|0:0,0:0:0:0:
256,34,116139,5,8,0:0:0:0:
36,352,118014,5,8,0:0:0:0:
476,352,119889,5,8,0:0:0:0:
256,192,120826,12,4,125514,0:0:0:0:
159,336,127389,6,0,P|207:344|259:336,1,100
315,320,127857,2,0,P|364:312|413:320,1,100
465,352,128326,2,0,L|477:188,1,150
356,68,129264,6,0,P|288:100|212:92,1,150,4|8,0:0|0:0,0:0:0:0:
40,52,130201,1,0,0:0:0:0:
44,172,130514,2,0,L|48:232,1,50,0|8,0:0|0:0,0:0:0:0:
180,344,131139,2,0,P|240:320|340:336,1,150,0|8,0:0|0:0,0:0:0:0:
437,367,131920,2,0,L|445:303,1,50
372,220,132389,2,0,L|380:156,1,50,0|8,0:0|0:0,0:0:0:0:
332,60,132857,1,0,0:0:0:0:
332,60,133014,6,0,P|256:44|184:60,1,150,4|8,0:0|0:0,0:0:0:0:
40,164,133951,1,0,0:0:0:0:
112,260,134264,2,0,P|140:264|164:276,1,50,0|8,0:0|0:0,0:0:0:0:
268,324,134732,1,0,0:0:0:0:
268,324,134889,6,0,L|432:316,1,150,2|2,2:0|2:0,0:0:0:0:
492,152,135826,2,0,L|332:160,1,150,2|2,2:0|2:0,0:0:0:0:
200,48,136764,6,0,P|128:44|68:96,1,150,4|8,0:0|0:0,0:0:0:0:
8,260,137701,1,0,0:0:0:0:
104,332,138014,2,0,L|160:328,1,50,0|8,0:0|0:0,0:0:0:0:
328,284,138639,2,0,P|316:232|332:184,1,100
363,139,139107,2,0,P|279:147|215:115,1,150,8|0,0:0|0:0,0:0:0:0:
107,80,139889,2,0,L|99:140,1,50,0|8,0:0|0:0,0:0:0:0:
84,309,140514,5,8,0:0:0:0:
256,256,140982,1,8,0:0:0:0:
428,309,141451,1,8,0:0:0:0:
500,144,141920,1,8,0:0:0:0:
348,48,142389,6,0,L|236:52,1,100,2|2,0:0|0:0,0:0:0:0:
208,96,142857,2,0,L|96:100,1,100,2|2,0:0|0:0,0:0:0:0:
53,124,143326,2,0,P|33:196|53:272,1,150,2|8,0:0|1:0,0:0:0:0:
