osu file format v14

[General]
AudioFilename: track.mp3
AudioLeadIn: 0
PreviewTime: 52389
Countdown: 0
SampleSet: Normal
StackLeniency: 0.5
Mode: 0
LetterboxInBreaks: 0
WidescreenStoryboard: 1
SamplesMatchPlaybackRate: 1

[Editor]
DistanceSpacing: 1.6
BeatDivisor: 3
GridSize: 4
TimelineZoom: 3.1

[Metadata]
Title:I'm an Albatraoz
TitleUnicode:I'm an Albatraoz
Artist:AronChupa
ArtistUnicode:AronChupa
Creator:Kazuya
Version:Krfawy's Hard
Source:
Tags:krfawy kazuya-sama single just dance 2016
BeatmapID:696112
BeatmapSetID:310680

[Difficulty]
HPDrainRate:5
CircleSize:4
OverallDifficulty:6
ApproachRate:7
SliderMultiplier:2
SliderTickRate:1

[Events]
//Background and Video events
0,0,"bg.jpg",0,0
Video,0,"video.avi"
//Break Periods
2,24464,25239
2,116339,117114
2,118214,118989
2,125714,126489
//Storyboard Layer 0 (Background)
//Storyboard Layer 1 (Fail)
//Storyboard Layer 2 (Pass)
//Storyboard Layer 3 (Foreground)
//Storyboard Sound Samples

[TimingPoints]
1764,468.75,4,2,1,30,1,0
9264,-133.333333333333,4,2,1,30,0,0
26139,-133.333333333333,4,1,1,70,0,0
31764,-133.333333333333,4,2,1,70,0,0
52389,-100,4,1,1,70,0,1
58014,-133.333333333333,4,2,1,70,0,0
59889,-100,4,1,1,70,0,1
65514,-133.333333333333,4,2,1,70,0,0
82389,-100,4,1,1,70,0,1
88014,-133.333333333333,4,2,1,70,0,0
89889,-100,4,1,1,70,0,1
95514,-100,4,2,1,70,0,0
97389,-133.333333333333,4,2,1,70,0,0
129264,-100,4,1,1,70,0,1
134889,-133.333333333333,4,2,1,70,0,0
136764,-100,4,1,1,70,0,1
142389,-100,4,2,1,70,0,0

[Colours]
Combo1 : 222,199,33
Combo2 : 137,65,108
Combo3 : 92,132,180
Combo4 : 81,185,125

[HitObjects]
256,192,7389,12,0,9264,0:0:0:0:
148,176,10670,6,0,P|161:154|182:135,2,50.0000019073487
145,241,11139,6,0,B|146:256|140:270|140:270|216:271|237:213,1,150.000005722046
267,21,12076,2,0,P|267:60|307:112,1,100.000003814697
361,132,12545,2,0,P|389:198|376:273,1,150.000005722046
266,342,13326,1,0,0:0:0:0:
266,342,13482,2,0,L|159:346,1,100.000003814697
100,348,13951,2,0,B|86:324|86:324|85:252,1,100.000003814697
103,189,14420,2,0,P|169:220|239:199,1,150.000005722046
434,185,15357,6,0,P|410:229|407:279,1,100.000003814697
424,342,15826,2,0,P|380:318|330:315,1,100.000003814697
292,368,16295,2,0,L|317:216,1,150.000005722046
336,90,17076,1,0,0:0:0:0:
336,90,17232,2,0,P|298:61|250:69,1,100.000003814697
201,114,17701,2,0,B|169:147|169:147|116:153,1,100.000003814697
56,180,18170,2,0,B|35:187|35:187|13:205,2,50.0000019073487
109,217,18639,6,0,B|143:222|166:257|166:257|165:241|171:230,1,100.000003814697
236,216,19107,2,0,B|280:230|280:230|326:244|381:226,1,150.000005722046
429,104,19889,2,0,P|405:98|380:97,1,50.0000019073487
213,198,20514,2,0,B|182:216|182:216|118:216,1,100.000003814697
52,217,20982,2,0,P|28:260|27:310,1,100.000003814697
62,365,21451,2,0,B|126:365|126:365|156:346,1,100.000003814697
195,293,21920,2,0,B|194:276|194:276|207:250|207:250|220:224|212:197,1,100.000003814697
190,134,22389,5,0,0:0:0:0:
256,192,22545,12,8,24264,0:0:0:0:
64,325,26139,6,0,B|60:313|52:307|52:307|90:323|128:313,1,100.000003814697,4|0,0:1|0:0,0:0:0:0:
199,277,26607,2,0,P|227:239|216:181,1,100.000003814697
187,115,27076,2,0,P|225:143|283:132,1,100.000003814697
342,92,27545,2,0,B|319:136|319:136|342:180,1,100.000003814697
361,256,28014,6,0,P|402:229|422:184,1,100.000003814697
439,106,28482,2,0,B|445:102|458:101|458:101|416:80|408:43,1,100.000003814697
334,9,28951,2,0,P|288:26|238:24,1,100.000003814697
166,58,29420,2,0,B|148:78|148:78|152:150,1,100.000003814697
168,229,29889,6,0,B|169:245|169:245|156:288|114:303,1,100.000003814697
42,267,30357,2,0,B|34:217|15:223|8:173,1,100.000003814697
13,93,30826,2,0,P|38:134|84:150,1,100.000003814697
164,136,31295,2,0,B|211:140|211:140|256:164,1,100.000003814697
316,219,31764,5,2,0:0:0:0:
276,373,32076,1,0,0:0:0:0:
276,373,32232,1,8,0:0:0:0:
122,333,32545,1,0,0:0:0:0:
122,333,32701,2,0,P|91:266|115:196,1,150.000005722046,0|4,0:0|0:3,0:0:0:0:
133,187,33639,6,0,B|165:182|165:182|198:178|228:200,1,100.000003814697
270,268,34107,2,0,P|226:276|173:256,1,100.000003814697,2|0,0:0|0:0,0:0:0:0:
147,185,34576,2,0,L|230:99,1,100.000003814697
293,91,35045,2,0,P|336:115|358:158,1,100.000003814697,2|0,0:0|0:0,0:0:0:0:
369,235,35514,2,0,P|394:191|437:169,1,100.000003814697
449,249,35982,2,0,P|425:292|382:315,1,100.000003814697,2|0,0:0|0:0,0:0:0:0:
256,306,36451,5,0,0:0:0:0:
236,310,37389,6,0,P|186:311|138:297,1,100.000003814697
86,236,37857,2,0,P|84:186|98:138,1,100.000003814697,2|0,0:0|0:0,0:0:0:0:
151,78,38326,2,0,B|181:86|181:86|223:140,1,100.000003814697
256,213,38795,2,0,B|275:231|299:233|299:233|325:234|343:253,1,100.000003814697,2|0,0:0|0:0,0:0:0:0:
389,320,39264,2,0,P|342:333|295:319,1,100.000003814697
299,189,39732,2,0,P|346:175|393:189,1,100.000003814697,2|0,0:0|0:0,0:0:0:0:
443,252,40201,2,0,L|475:107,1,100.000003814697
485,76,40670,1,2,0:0:0:0:
325,73,40982,5,0,0:0:0:0:
325,73,41139,2,0,P|278:87|231:73,1,100.000003814697
165,26,41607,2,0,P|151:73|165:120,1,100.000003814697,2|0,0:0|0:0,0:0:0:0:
214,184,42076,2,0,P|228:231|214:278,1,100.000003814697
145,321,42545,2,0,B|105:332|66:313|66:313|34:315|34:315|2:297,2,150.000005722046,2|0|2,0:0|0:0|0:0,0:0:0:0:
350,195,43951,2,0,P|352:80|232:77,1,250.000009536744
218,147,44889,6,0,B|256:153|293:134|293:134|285:141|282:153,1,100.000003814697
241,222,45357,2,0,P|224:268|224:318,1,100.000003814697,2|0,0:0|0:0,0:0:0:0:
297,352,45826,2,0,P|222:343|147:346,1,150.000005722046,0|2,0:0|0:0,0:0:0:0:
68,359,46451,1,0,0:0:0:0:
68,359,46607,1,0,0:0:0:0:
68,359,46764,2,0,P|27:331|11:285,1,100.000003814697
17,205,47232,2,0,P|44:164|90:148,1,100.000003814697,2|0,0:0|0:0,0:0:0:0:
170,147,47701,2,0,B|172:165|165:178|165:178|206:133|264:122,1,150.000005722046,0|2,0:0|0:0,0:0:0:0:
425,128,48482,5,0,0:0:0:0:
391,200,48639,2,0,B|377:246|395:295|395:295|382:271|359:259,1,150.000005722046,2|0,0:0|0:0,0:0:0:0:
121,184,49576,2,0,B|134:137|116:88|116:88|129:112|152:124,1,150.000005722046,2|0,0:0|0:0,0:0:0:0:
298,189,50357,1,0,0:0:0:0:
338,119,50514,6,0,P|339:86|296:39,1,100.000003814697,2|0,0:0|0:0,0:0:0:0:
216,38,50982,2,0,P|178:70|174:119,1,100.000003814697,2|0,0:0|0:0,0:0:0:0:
179,198,51451,2,0,P|199:244|203:294,1,100.000003814697,2|0,0:0|0:0,0:0:0:0:
183,372,51920,1,4,0:0:0:0:
329,12,52389,6,0,L|321:154,1,133.333333333333,4|0,0:0|0:0,0:0:0:0:
330,251,52857,2,0,P|390:224|424:167,1,133.333333333333,8|0,0:0|0:0,0:0:0:0:
312,39,53326,2,0,P|252:65|218:122,1,133.333333333333
226,229,53795,2,0,B|247:246|238:288|195:282|186:256|186:256|181:240|163:229,1,133.333333333333,8|0,0:0|0:0,0:0:0:0:
77,164,54264,2,0,P|54:208|75:291,1,133.333333333333
178,301,54732,2,0,B|192:301|208:321|208:321|199:265|225:230,1,133.333333333333,8|0,0:0|0:0,0:0:0:0:
319,177,55201,2,0,B|383:183|383:183|436:227,1,133.333333333333
343,279,55670,2,0,B|279:272|279:272|226:229,1,133.333333333333,8|0,0:0|0:0,0:0:0:0:
128,101,56139,6,0,B|113:160|154:198|154:198|148:213|148:225,1,133.333333333333,4|0,0:0|0:0,0:0:0:0:
78,273,56607,2,0,B|106:311|153:309|153:309|198:306,1,133.333333333333,8|0,0:0|0:0,0:0:0:0:
314,307,57076,2,0,B|351:309|380:326|380:326|409:342|440:340,1,133.333333333333
503,253,57545,2,0,P|473:195|417:161,1,133.333333333333,8|0,0:0|0:0,0:0:0:0:
339,185,58014,6,0,P|314:218|258:234,1,100.000003814697,2|0,0:0|0:0,0:0:0:0:
188,197,58482,2,0,P|147:205|109:249,1,100.000003814697,8|0,0:0|0:0,0:0:0:0:
134,324,58951,2,0,P|182:332|226:310,1,100.000003814697,2|0,0:0|0:0,0:0:0:0:
259,234,59420,1,8,0:0:0:0:
430,20,59889,6,0,L|438:162,1,133.333333333333,4|0,0:0|0:0,0:0:0:0:
451,257,60357,2,0,P|386:246|342:197,1,133.333333333333,8|0,0:0|0:0,0:0:0:0:
306,96,60826,2,0,B|286:61|228:41|228:41|233:58|232:77,1,133.333333333333
250,181,61295,2,0,P|246:247|203:296,1,133.333333333333,8|0,0:0|0:0,0:0:0:0:
40,228,61764,6,0,P|44:163|87:114,1,133.333333333333
190,89,62232,2,0,P|213:65|228:35,2,66.6666666666667,8|0|0,0:0|0:0|0:0,0:0:0:0:
87,114,62701,2,0,P|137:181|182:195,1,133.333333333333
330,194,63170,2,0,B|346:197|377:180|377:180|408:163|424:167|424:167|406:181|406:194,1,133.333333333333,8|0,0:0|0:0,0:0:0:0:
350,286,63639,6,0,B|335:298|335:298|226:330,1,133.333333333333,4|0,0:0|0:0,0:0:0:0:
129,285,64107,2,0,P|172:237|237:223,1,133.333333333333,8|0,0:0|0:0,0:0:0:0:
334,268,64576,2,0,B|401:278|401:278|465:264,1,133.333333333333
465,119,65045,2,0,B|401:106|401:106|334:116,1,133.333333333333,8|0,0:0|0:0,0:0:0:0:
264,155,65514,6,0,P|199:151|157:114,1,100.000003814697,2|0,0:0|0:0,0:0:0:0:
122,69,65982,2,0,P|118:133|81:175,1,100.000003814697,2|0,0:0|0:0,0:0:0:0:
36,211,66451,2,0,P|100:214|142:251,1,100.000003814697,2|0,0:0|0:0,0:0:0:0:
178,297,66920,1,4,0:0:0:0:
334,87,67389,6,0,B|350:119|350:119|335:181,1,100.000003814697
334,260,67857,2,0,P|382:247|409:207,1,100.000003814697,2|0,0:0|0:0,0:0:0:0:
336,102,68326,2,0,P|288:115|261:155,1,100.000003814697
215,266,68795,2,0,P|180:301|133:316,1,100.000003814697,2|0,0:0|0:0,0:0:0:0:
72,263,69264,6,0,P|79:214|109:174,1,100.000003814697
181,141,69732,2,0,B|201:133|232:146|224:152|255:165|275:157,1,100.000003814697,2|0,0:0|0:0,0:0:0:0:
395,148,70201,2,0,P|441:168|468:209,1,100.000003814697
381,324,70670,2,0,P|335:304|308:263,1,100.000003814697,2|0,0:0|0:0,0:0:0:0:
319,182,71139,6,0,P|294:163|265:154,2,50.0000019073487
308,264,71607,2,0,P|280:304|235:324,1,100.000003814697,2|0,0:0|0:0,0:0:0:0:
156,307,72076,2,0,P|120:273|108:225,1,100.000003814697
133,148,72545,2,0,B|170:123|217:138|217:138|275:156,2,150.000005722046,2|0|2,0:0|0:0|0:0,0:0:0:0:
156,307,73795,1,0,0:0:0:0:
156,307,73951,1,0,0:0:0:0:
355,307,74264,1,0,0:0:0:0:
355,307,74420,2,0,P|371:258|366:208,1,100.000003814697,2|0,0:0|0:0,0:0:0:0:
340,133,74889,6,0,B|370:120|376:72|376:72|382:25|412:10,2,150.000005722046,0|2|0,0:0|0:0|0:0,0:0:0:0:
266,165,75982,2,0,P|242:164|217:160,2,50.0000019073487,0|0|2,0:0|0:0|0:0,0:0:0:0:
333,210,76451,1,0,0:0:0:0:
318,288,76607,1,0,0:0:0:0:
238,298,76764,6,0,B|213:297|213:297|196:286|196:286|167:284|148:264,1,100.000003814697
86,210,77232,2,0,P|67:165|77:117,1,100.000003814697
147,78,77701,2,0,B|195:115|195:115|234:145|235:190,1,150.000005722046,0|2,0:0|1:2,0:0:0:0:
219,269,78326,1,0,1:0:0:0:
290,309,78482,1,0,1:0:0:0:
349,252,78639,6,0,P|413:217|484:234,1,150.000005722046,2|0,0:0|0:0,0:0:0:0:
163,131,79576,2,0,P|98:165|26:148,1,150.000005722046,2|0,0:0|0:0,0:0:0:0:
153,50,80357,1,0,0:0:0:0:
226,81,80514,6,0,P|288:99|340:79,1,100.000003814697,2|0,0:0|0:0,0:0:0:0:
389,48,80982,2,0,P|370:109|391:161,1,100.000003814697,2|0,0:0|0:0,0:0:0:0:
421,211,81451,2,0,P|359:191|307:212,1,100.000003814697,2|0,0:0|0:0,0:0:0:0:
258,243,81920,1,4,0:0:0:0:
511,46,82389,6,0,P|449:24|388:47,1,133.333333333333,4|0,0:0|0:0,0:0:0:0:
307,117,82857,2,0,P|245:140|184:118,1,133.333333333333,8|0,0:0|0:0,0:0:0:0:
118,33,83326,2,0,P|141:94|119:155,1,133.333333333333
47,235,83795,2,0,P|24:296|47:357,1,133.333333333333,8|0,0:0|0:0,0:0:0:0:
177,357,84264,6,0,P|199:295|176:234,1,133.333333333333
113,148,84732,2,0,B|174:125|174:125|199:60,1,133.333333333333,8|0,0:0|0:0,0:0:0:0:
313,61,85201,2,0,B|265:185,1,133.333333333333
262,291,85670,2,0,P|285:230|344:202,1,133.333333333333,8|0,0:0|0:0,0:0:0:0:
448,276,86139,6,0,B|441:296|441:296|417:306|377:323|377:323|367:302|351:290,1,133.333333333333,4|0,0:0|0:0,0:0:0:0:
418,208,86607,2,0,P|443:148|422:86,1,133.333333333333,8|0,0:0|0:0,0:0:0:0:
316,69,87076,2,0,B|256:97|256:97|196:69,1,133.333333333333
90,86,87545,2,0,B|100:124|100:124|137:172|137:172|146:202,1,133.333333333333,8|0,0:0|0:0,0:0:0:0:
158,283,88014,6,0,P|110:276|75:242,1,100.000003814697,2|0,0:0|0:0,0:0:0:0:
133,124,88482,2,0,P|181:130|216:164,1,100.000003814697,8|0,0:0|0:0,0:0:0:0:
247,253,88951,2,0,P|309:273|361:252,1,100.000003814697,2|0,0:0|0:0,0:0:0:0:
410,221,89420,1,8,0:0:0:0:
102,163,89889,6,0,B|86:203|86:203|110:243|158:251,1,133.333333333333,4|0,0:0|0:0,0:0:0:0:
264,263,90357,2,0,B|287:237|287:237|312:142,1,133.333333333333,8|0,0:0|0:0,0:0:0:0:
308,35,90826,2,0,P|247:58|211:112,1,133.333333333333
181,215,91295,2,0,B|170:203|170:203|184:129|127:81|127:81|106:88|81:83,2,200,8|0|8,0:0|0:0|0:0,0:0:0:0:
224,312,92389,1,0,0:0:0:0:
331,301,92545,1,0,0:0:0:0:
353,197,92701,2,0,P|361:127|333:71,1,133.333333333333
157,99,93170,2,0,P|148:168|176:224,1,133.333333333333,8|0,0:0|0:0,0:0:0:0:
258,291,93639,6,0,B|288:298|320:287|320:287|352:276|388:280,1,133.333333333333,4|0,0:0|0:0,0:0:0:0:
494,280,94107,2,0,P|487:312|474:342,2,66.6666666666667,8|0|0,0:0|0:0|0:0,0:0:0:0:
436,190,94576,2,0,B|406:167|392:136|392:136|377:107|350:90,1,133.333333333333
247,59,95045,2,0,B|144:47|144:47|92:60,1,133.333333333333,8|0,0:0|0:0,0:0:0:0:
33,122,95514,6,0,P|35:188|69:245,1,133.333333333333,2|0,0:0|0:0,0:0:0:0:
162,297,95982,2,0,B|193:307|193:307|220:301|220:301|257:311|290:295,1,133.333333333333,2|0,0:0|0:0,0:0:0:0:
369,221,96451,1,2,0:0:0:0:
369,221,97389,6,0,B|367:108|367:108|375:66,1,150.000005722046
138,71,98326,2,0,B|145:108|145:108|143:221,1,150.000005722046
361,320,99264,2,0,P|436:293|466:228,2,150.000005722046
150,317,100670,2,0,B|130:300|113:244|152:202|152:202|161:175,1,150.000005722046
15,162,101607,5,2,0:0:0:0:
15,162,102076,1,0,0:0:0:0:
15,162,102545,1,2,0:0:0:0:
252,193,103014,2,0,B|360:206|360:206|405:193,2,150.000005722046,0|2|0,0:0|0:0|0:0,0:0:0:0:
95,159,104264,1,0,0:0:0:0:
58,88,104420,2,0,P|33:81|11:70,2,50.0000019073487,2|0|0,0:0|0:0|0:0,0:0:0:0:
137,88,104889,6,0,P|210:72|284:86,1,150.000005722046,0|2,0:0|0:0,0:0:0:0:
374,295,105826,2,0,P|325:306|276:299,1,100.000003814697
218,243,106295,2,0,B|195:210|217:172|217:172|260:164|283:197,2,150.000005722046,2|0|2,0:0|0:0|0:0,0:0:0:0:
341,36,107701,2,0,P|294:18|244:15,1,100.000003814697
173,51,108170,2,0,B|139:167|139:167|157:215,1,150.000005722046,2|0,0:0|0:0,0:0:0:0:
256,314,108951,5,0,0:0:0:0:
256,314,109107,2,0,P|362:317|399:292,1,150.000005722046,2|0,0:0|0:0,0:0:0:0:
469,151,109889,1,0,0:0:0:0:
469,151,110045,1,2,0:0:0:0:
255,39,110514,2,0,P|206:32|158:43,1,100.000003814697
102,100,110982,2,0,B|44:148|44:148|20:152,1,100.000003814697,2|0,0:0|0:0,0:0:0:0:
13,72,111451,2,0,L|135:188,1,150.000005722046,0|2,0:0|0:0,0:0:0:0:
184,225,112076,1,0,0:0:0:0:
184,225,112232,1,0,0:0:0:0:
184,225,112389,6,0,B|235:238|235:238|283:233,1,100.000003814697
354,198,112857,2,0,P|389:134|362:66,2,150.000005722046,2|0|2,0:0|0:0|0:0,0:0:0:0:
158,198,114264,2,0,P|122:134|149:66,2,150.000005722046,0|2|0,0:0|0:0|0:0,0:0:0:0:
256,266,115670,1,2,0:0:0:0:
256,266,116139,5,4,0:0:0:0:
256,266,118014,5,4,0:0:0:0:
256,266,119889,5,4,0:0:0:0:
125,215,120826,6,0,B|141:244|186:254|186:254|222:249|222:249|256:266,1,150.000005722046,2|0,0:0|0:0,0:0:0:0:
366,178,121764,6,0,B|333:177|302:211|302:211|288:245|288:245|257:266,1,150.000005722046,2|0,0:0|0:0,0:0:0:0:
345,377,122701,6,0,B|345:343|311:312|311:312|277:299|277:299|257:267,1,150.000005722046,2|0,0:0|0:0,0:0:0:0:
130,216,123639,5,2,0:0:0:0:
178,368,124107,1,2,0:0:0:0:
338,368,124576,1,2,0:0:0:0:
388,214,125045,1,2,0:0:0:0:
258,120,125514,5,4,0:0:0:0:
264,155,127389,6,0,P|199:151|157:114,1,100.000003814697,2|0,0:0|0:0,0:0:0:0:
122,69,127857,2,0,P|118:133|81:175,1,100.000003814697,2|0,0:0|0:0,0:0:0:0:
36,211,128326,1,2,0:0:0:0:
475,181,129264,6,0,B|440:192|410:181|410:181|396:186|396:186|389:162|366:147,1,133.333333333333,4|0,0:0|0:0,0:0:0:0:
267,102,129732,2,0,P|202:109|176:176,1,133.333333333333,8|0,0:0|0:0,0:0:0:0:
205,289,130201,2,0,B|268:283|268:283|316:279|332:260,1,133.333333333333
365,147,130670,2,0,P|398:90|457:62,1,133.333333333333,8|0,0:0|0:0,0:0:0:0:
365,147,131139,6,0,P|299:146|245:109,1,133.333333333333
192,17,131607,2,0,B|103:34|103:34|72:63,1,133.333333333333,8|0,0:0|0:0,0:0:0:0:
13,153,132076,2,0,P|13:218|46:276,1,133.333333333333
141,325,132545,2,0,B|193:325|193:325|221:317|221:317|273:317,1,133.333333333333,8|0,0:0|0:0,0:0:0:0:
378,298,133014,6,0,P|333:249|317:185,1,133.333333333333,4|0,0:0|0:0,0:0:0:0:
327,79,133482,2,0,B|350:66|374:53|374:53|453:39,1,133.333333333333,8|0,0:0|0:0,0:0:0:0:
479,142,133951,2,0,B|426:151|426:151|429:165|429:165|426:187|439:203|439:203|458:217,1,133.333333333333
504,315,134420,2,0,P|445:261|384:282,1,133.333333333333,8|0,0:0|0:0,0:0:0:0:
329,313,134889,6,0,B|320:336|320:336|286:340|253:368,1,100.000003814697,2|0,0:0|0:0,0:0:0:0:
173,367,135357,2,0,P|121:355|81:323,1,100.000003814697,8|0,0:0|0:0,0:0:0:0:
57,251,135826,2,0,B|89:182|89:182|82:109,1,150.000005722046,2|8,0:0|0:0,0:0:0:0:
82,109,136607,1,0,1:0:0:0:
81,109,136764,6,0,P|133:68|199:69,1,133.333333333333,4|0,0:0|0:0,0:0:0:0:
295,114,137232,2,0,B|327:116|327:116|352:102|352:102|390:103|418:79,1,133.333333333333,8|0,0:0|0:0,0:0:0:0:
507,17,137701,2,0,P|466:61|487:145,1,133.333333333333
449,233,138170,2,0,B|395:266|395:266|355:324,1,133.333333333333,8|0,0:0|0:0,0:0:0:0:
260,373,138639,6,0,B|167:363|167:363|134:331,1,133.333333333333
174,235,139107,2,0,P|137:228|108:232,2,66.6666666666667,8|8|0,0:0|0:0|0:0,0:0:0:0:
282,247,139576,2,0,P|361:253|411:221,1,133.333333333333
454,127,140045,2,0,P|375:121|325:153,1,133.333333333333,8|0,0:0|0:0,0:0:0:0:
282,247,140514,6,0,B|249:255|249:255|149:257,1,133.333333333333,4|0,0:0|0:0,0:0:0:0:
42,250,140982,2,0,P|42:284|55:314,2,66.6666666666667,8|8|0,0:0|0:0|0:0,0:0:0:0:
48,145,141451,2,0,P|47:111|34:81,2,66.6666666666667,8|8|0,0:0|0:0|0:0,0:0:0:0:
154,150,141920,2,0,P|187:149|217:136,2,66.6666666666667,8|8|0,0:0|0:0|0:0,0:0:0:0:
48,145,142389,5,2,0:0:0:0:
256,192,142506,12,4,143795,0:0:0:0:
