osu file format v9

[General]
AudioFilename: Armin van buuren.mp3
AudioLeadIn: 0
PreviewTime: -1
Countdown: 1
SampleSet: Normal
StackLeniency: 0.7
Mode: 0
LetterboxInBreaks: 1

[Editor]
DistanceSpacing: 0.8
BeatDivisor: 4
GridSize: 8

[Metadata]
Title:In & Out Of Love
Artist:Armin van Buuren feat. Sharon den Adel
Creator:RIP95
Version:Normal
Source:
Tags:DesuEagle - Sekai -

[Difficulty]
HPDrainRate:4
CircleSize:4
OverallDifficulty:4
ApproachRate:5
SliderMultiplier:1
SliderTickRate:1

[Events]
//Background and Video events
0,0,"Armin Van Buuren 9 1024x768 Club Music Wallpaper.jpg"
//Break Periods
2,16230,28608
2,58452,71719
//Storyboard Layer 0 (Background)
//Storyboard Layer 1 (Fail)
//Storyboard Layer 2 (Pass)
//Storyboard Layer 3 (Foreground)
//Storyboard Sound Samples
//Background Colour Transformations
3,100,163,162,255

[TimingPoints]
475,444.444444444444,4,1,0,100,1,0
16406,-133.333333333333,4,1,0,100,0,0
30184,-100,4,1,0,100,0,1
38184,-100,4,1,0,100,0,0
44406,-100,4,1,0,100,0,1
57740,-100,4,1,0,100,0,0
72876,-100,4,1,0,100,0,0
87073,-100,4,1,0,100,0,0
106628,-100,4,1,0,100,0,1
154628,-100,4,1,0,100,0,0

[Colours]
Combo1 : 0,0,255
Combo2 : 0,0,0
Combo3 : 255,0,0

[HitObjects]
104,64,1808,1,0
184,64,2252,1,0
264,64,2697,1,0
344,64,3141,1,0
416,64,3585,1,0
440,136,4030,1,0
440,208,4474,5,0
432,280,4919,1,0
360,316,5363,5,0
312,256,5808,1,0
240,232,6252,1,0
168,224,6697,5,0
115,284,7141,1,0
60,234,7586,1,0
40,168,8030,5,0
64,91,8474,1,0
144,92,8919,5,0
223,91,9363,2,0,B|335:91,1,100
392,64,10252,1,0
392,136,10697,2,0,B|392:256,1,100
357,308,11586,1,0
276,307,12030,1,0
200,296,12474,5,0
164,224,12919,1,0
93,186,13363,1,0
96,112,13808,2,0,B|248:112,1,150
285,111,14697,2,0,B|285:263,1,150
325,261,15586,2,0,B|365:261,1,25
410,261,16030,1,0
56,184,29808,6,0,B|88:184,1,18.7499994412065
57,126,30252,1,0
58,46,30697,5,0
138,48,31141,1,0
217,49,31585,2,0,B|337:49,1,100
397,50,32474,1,0
448,111,32919,2,0,B|448:223,1,100
443,290,33808,5,0
372,327,34252,1,0
304,284,34697,1,0
233,321,35141,2,0,B|169:313,1,50
152,289,35585,2,0,B|104:241|104:193,1,100
91,165,36252,2,0,B|99:141|155:85|219:101|219:101,1,150
241,132,37141,2,0,B|289:164|337:164|377:84,1,150
441,72,38252,5,0
440,151,38697,1,0
438,231,39141,5,0
387,292,39585,5,0
323,340,40030,6,0,B|251:340,1,50
234,329,40474,2,0,B|194:289,1,50
159,300,40919,1,0
159,220,41363,1,0
239,220,41808,1,0
311,187,42252,1,0
367,129,42697,5,0
312,70,43141,1,0
232,70,43585,5,0
232,150,44030,1,0
230,229,44474,2,0,B|126:229,2,100
310,228,45808,1,0
313,307,46252,6,0,B|417:307,2,100
232,308,47585,1,0
177,249,48030,6,0,B|177:353,2,100
175,168,49363,1,0
248,135,49808,5,0
249,75,50141,1,0
308,75,50474,1,0
342,124,50808,2,0,B|342:164,3,25
410,190,51585,5,0
436,243,51919,1,0
376,244,52252,1,0
404,318,52697,1,0
364,318,52919,1,0
48,344,53363,6,0,B|160:344,2,100
48,263,54697,1,0
152,104,55141,6,0,B|32:104,2,100
152,184,56474,1,0
232,183,56919,2,0,B|232:295,1,100
271,280,57585,1,0
391,278,58252,1,0
464,184,72919,6,0,B|344:184,2,100
465,103,74252,1,0
419,37,74697,5,0
358,35,75030,1,0
298,35,75363,1,0
329,86,75697,2,0,B|329:126,3,25
401,144,76474,5,0
345,200,76808,1,0
289,256,77141,1,0
225,207,77585,1,0
224,327,78252,5,0
164,324,78585,2,0,B|92:284,1,75
144,222,79363,1,0
144,104,80030,5,0
84,100,80363,2,0,B|84:188,2,75
224,80,81808,1,0
296,80,82141,2,0,B|392:80,2,75
424,128,83585,1,0
424,192,83919,6,0,B|424:288,2,75
296,248,85363,1,0
216,248,85697,2,0,B|128:248,2,75
96,176,87141,5,0
128,104,87585,1,0
208,104,88030,2,0,B|328:104,1,100
456,104,88919,1,0
456,192,89363,1,0
352,168,89808,6,0,B|296:64,1,100
224,80,90697,2,0,B|160:160,1,100
208,224,91585,2,0,B|320:224,1,100
256,288,92474,5,0
336,304,92919,1,0
424,304,93363,1,0
424,224,93808,1,0
424,144,94252,1,0
424,64,94697,5,0
344,40,95141,2,0,B|264:40|264:40|248:72,1,100
312,120,96030,1,0
312,200,96474,1,0
256,256,96919,5,0
192,304,97363,1,0
128,344,97808,2,0,B|72:288|72:288|88:256,1,100
136,208,98697,2,0,B|192:160|192:160|184:128,1,100
104,144,99585,6,0,B|96:40,1,93.7499972060323
144,40,100252,2,0,B|248:48,1,93.7499972060323
280,56,100919,2,0,B|320:152,1,100
352,224,101808,1,0
256,192,103141,12,0,106252
72,64,106697,5,0
152,64,107141,1,0
232,64,107585,1,0
312,64,108030,1,0
392,64,108474,5,0
440,128,108919,2,0,B|280:128,1,150
288,168,109808,2,0,B|288:240|288:240|200:240,1,150
168,240,110697,2,0,B|88:240|88:240|144:184,1,150
160,160,111585,6,0,B|168:88|168:88|88:120,1,150
64,96,112474,1,0
128,48,112919,1,0
208,48,113363,1,0
288,48,113808,5,0
368,48,114252,2,0,B|440:48|440:48|440:120,1,125
440,160,115141,1,0
440,240,115585,1,0
384,296,116030,6,0,B|312:296|312:296|360:232,1,150
360,192,116919,2,0,B|368:104|368:104|296:104,1,150
264,104,117808,2,0,B|176:128|176:128|200:184,1,150
216,216,118697,2,0,B|152:272|152:272|136:256,1,100
144,200,119585,5,0
144,120,120030,1,0
72,160,120474,1,0
72,240,120919,1,0
136,288,121363,5,0
168,216,121808,2,0,B|280:216,1,100
232,288,122697,2,0,B|328:288|328:288|336:312,1,100
376,224,123585,2,0,B|464:224|464:224|464:200,1,100
472,128,124474,5,0
424,64,124919,1,0
344,64,125363,1,0
280,112,125808,1,0
344,152,126252,5,0
408,200,126697,1,0
408,280,127141,2,0,B|248:280,1,150
216,288,128030,2,0,B|144:296|144:296|192:224,1,150
208,200,128919,6,0,B|232:120|232:120|152:144,1,150
128,144,129808,1,0
128,64,130252,1,0
208,64,130697,1,0
288,56,131141,5,0
368,56,131585,1,0
448,56,132030,2,0,B|448:128|448:128|424:160,1,100
438,230,132919,2,0,B|422:310|422:310|454:334,1,100
357,312,133808,5,0
277,314,134252,1,0
231,248,134697,1,0
305,217,135141,1,0
328,144,135585,5,0
376,96,136030,2,0,B|432:48|432:48|448:80,1,100
456,176,136919,2,0,B|384:224|384:224|376:192,1,100
343,140,137808,1,0
275,96,138252,5,0
195,84,138697,1,0
114,80,139141,1,0
48,128,139585,2,0,B|40:208|40:208|80:208,1,100
112,168,140474,6,0,B|184:168|184:168|184:216,1,100
144,240,141363,2,0,B|112:304|112:304|160:304,1,100
216,304,142252,1,0
296,312,142697,1,0
376,320,143141,5,0
456,328,143585,1,0
460,248,144030,2,0,B|460:136,1,100
457,67,144919,1,0
377,58,145363,5,0
337,72,145586,1,0
289,56,145808,1,0
209,58,146252,1,0
129,58,146697,5,0
56,96,147141,2,0,B|48:168|48:168|128:168,1,150
168,128,148030,2,0,B|248:136|248:136|200:200,1,150
173,215,148919,1,0
132,283,149363,5,0
207,310,149808,1,0
280,336,150252,1,0
360,336,150697,1,0
440,336,151141,5,0
464,264,151586,2,0,B|473:176|473:176|403:214,1,150
384,152,152474,2,0,B|448:120|448:120|448:40,1,150
384,40,153363,2,0,B|232:40,1,150
176,40,154252,5,0
48,88,154697,2,0,B|120:168,1,100
172,218,155586,2,0,B|212:178,1,56.2499983236194
256,120,156252,2,0,B|336:184,1,100
400,192,156919,6,0,B|440:152,1,50
463,128,157363,1,0
406,71,157808,1,0
326,59,158252,1,0
246,55,158697,5,0
165,52,159141,1,0
88,75,159586,2,0,B|64:139|64:139|96:155,1,100
161,194,160474,2,0,B|257:242,1,93.7499972060323
257,151,161363,1,0
256,192,161808,12,0,165363
64,48,166697,6,0,B|64:112,1,50
160,48,167586,2,0,B|160:112,1,50
256,48,168474,2,0,B|256:120,1,50
256,192,169363,12,0,171586
48,192,172474,5,0
96,136,172919,1,0
144,80,173363,1,0
224,77,173808,2,0,B|272:117,1,50
