osu file format v9

[General]
AudioFilename: Armin Van Buuren - Youtopia.mp3
AudioLeadIn: 0
PreviewTime: 91165
Countdown: 0
SampleSet: Soft
StackLeniency: 0.7
Mode: 0
LetterboxInBreaks: 0

[Editor]
Bookmarks: 45811
DistanceSpacing: 1
BeatDivisor: 4
GridSize: 8

[Metadata]
Title:Youtopia
Artist:Armin Van Buuren ft. Adam Young
Creator:JauiPlaY
Version:Normal
Source:
Tags:mirage owl city scorpiour

[Difficulty]
HPDrainRate:2
CircleSize:3
OverallDifficulty:2
ApproachRate:3
SliderMultiplier:1.2
SliderTickRate:1

[Events]
//Background and Video events
0,0,"bg3.jpg"
//Break Periods
2,91359,104837
//Storyboard Layer 0 (Background)
//Storyboard Layer 1 (Fail)
//Storyboard Layer 2 (Pass)
//Storyboard Layer 3 (Foreground)
//Storyboard Sound Samples
//Background Colour Transformations
3,100,0,0,0

[TimingPoints]
30687,472.44094488189,4,2,1,80,1,0
76041,-100,4,2,1,80,0,1
76159,-100,4,2,1,80,0,0
91159,-100,4,2,1,80,0,1
91277,-100,4,2,0,90,0,0
121395,-100,4,2,1,100,0,1
121513,-100,4,2,2,100,0,1
136395,-100,4,2,1,100,0,0
136513,-100,4,2,1,100,0,1
136631,-100,4,2,2,100,0,1
151513,-100,4,2,1,100,0,0
151631,-100,4,2,1,100,0,1
151749,-100,4,2,1,100,0,0
166749,-100,4,2,1,100,0,1
166868,-100,4,2,1,100,0,0
181868,-100,4,2,1,100,0,1
181986,-100,4,2,1,100,0,0

[Colours]
Combo1 : 187,255,47
Combo2 : 214,172,255
Combo3 : 151,203,255
Combo4 : 253,159,159

[HitObjects]
256,72,45096,2,0,B|256:140|256:140|248:148|248:148|264:148|264:148|256:156|256:156|256:228,1,180,0|4
256,348,46277,1,8
368,304,46749,2,0,B|428:324,2,60,0|0|8
436,204,47694,2,0,B|476:124,2,90,2|8|8
372,104,48875,2,0,B|338:96|334:62,1,60,0|8
264,160,49584,6,0,B|208:200|152:160,2,120,2|8|0
208,56,51001,1,8
88,56,51474,2,0,B|32:128,2,90,2|8|8
152,160,52655,2,0,B|168:216,1,60,0|8
72,288,53364,6,0,B|140:293|157:359,1,120,2|8
272,312,54309,1,0
328,312,54545,1,0
384,312,54781,1,8
448,208,55253,2,0,B|471:167|463:121,2,90,2|8|8
340,152,56435,2,0,B|318:178|286:167,1,60,0|8
212,72,57143,6,0,B|156:32|100:72,2,120,2|8|0
156,180,58561,1,8
80,272,59033,2,0,B|144:336,4,90,2|8|8|0|8
180,208,60923,6,0,B|228:196|244:148|244:148|272:156,1,120,2|8
356,56,61868,2,0,B|416:36,2,60,0|0|8
424,156,62812,2,0,B|464:236,2,90,2|8|8
352,252,63994,2,0,B|353:286|321:298,1,60,0|8
252,200,64702,6,0,B|261:131|199:101,2,120,2|8|0
132,200,66120,1,8
184,308,66592,2,0,B|68:308,2,90,2|8|8
236,340,67537,2,0,B|300:340,2,60,0|8|8
320,252,68482,6,0,B|325:220|325:220|368:229|408:205,1,120,2|8
392,84,69427,2,0,B|444:48,2,60,0|0|8
272,64,70372,2,0,B|250:129|181:129,1,120,2|8
68,100,71316,2,0,B|32:52,2,60,0|0|8
84,220,72261,5,2
158,316,72734,1,8
277,328,73206,1,0
370,250,73679,1,8
256,192,74151,12,4,76041
196,216,76513,6,0,B|176:240|176:240|180:288|136:312,2,120,8|0|8
256,320,77931,1,2
316,216,78403,2,0,B|336:240|336:240|332:288|376:312,2,120,8|0|8
312,96,79820,6,0,B|288:80|256:72|256:72|224:80|200:96,1,120,2|8
256,200,80765,2,0,B|256:264,2,60,0|0|8
144,256,81710,2,0,B|127:299|86:323,2,90,2|8|8
56,176,82891,2,0,B|88:120,1,60,8|8
208,112,83600,6,0,B|236:49|305:56,1,120,2|8
424,88,84545,2,0,B|480:64,2,60,0|0|8
408,208,85490,2,0,B|360:224|344:272|344:272|360:296,1,120,2|8
240,320,86435,2,0,B|184:360,2,60,0|0|8
144,248,87379,5,2
176,130,87852,1,8
282,74,88324,1,0
398,112,88797,1,8
256,192,89269,12,4,91159
256,192,106277,6,0,B|256:280,2,90,0|2|2
368,240,107458,2,0,B|408:288,1,60,2|2
448,176,108167,2,0,B|475:138|474:91,2,90,0|2|2
376,80,109348,2,0,B|366:47|331:45,1,60,2|2
296,160,110057,6,0,B|216:208,2,90,0|2|2
192,96,111238,1,2
192,96,111474,1,2
120,192,111946,5,0
176,296,112419,1,2
288,336,112891,1,0
400,296,113364,1,2
368,184,113836,6,0,B|322:190|280:167,2,90,0|2|2
448,96,115017,2,0,B|504:64,2,60,2|2|0
392,72,115726,2,0,B|280:32,1,120,0|2
160,32,116671,2,0,B|46:72,1,120,0|2
256,192,117616,12,0,119505
256,252,120450,6,0,B|256:340,2,90,0|2|2
256,192,121395,6,0,B|286:156|332:148,2,90,4|8|10
348,268,122576,1,0
348,268,122812,1,10
464,248,123285,2,0,B|448:340,2,90,2|8|10
396,152,124466,2,0,B|363:141|363:106,1,60,0|10
248,72,125175,6,0,B|202:84|159:65,2,90,2|8|10
176,168,126356,2,0,B|244:188,2,60,0|10|0
176,168,127064,2,0,B|129:162|90:188,2,90,2|8|10
156,288,128246,2,0,B|168:352,1,60,8|10
284,324,128954,6,0,B|340:316|340:316|372:332,2,90,2|8|10
340,216,130135,2,0,B|356:192|356:192|388:180,1,60,0|10
464,92,130844,2,0,B|376:60,1,90,2|8
304,112,131553,2,0,B|278:72|233:58,1,90,10|0
160,108,132261,2,0,B|100:120,1,60,10|0
100,120,132734,6,0,B|108:166|84:206,2,90,2|8|10
192,200,133915,2,0,B|208:264,1,60,0|10
256,192,134624,12,0,136041
264,192,136513,6,0,B|234:228|188:236,2,90,4|8|10
168,120,137694,1,0
168,120,137931,1,10
48,136,138403,2,0,B|64:44,2,90,2|8|10
116,232,139584,2,0,B|149:243|149:278,1,60,0|10
264,312,140293,6,0,B|310:300|353:319,2,90,2|8|10
336,216,141474,2,0,B|268:196,2,60,0|10|0
336,216,142183,2,0,B|383:222|422:196,2,90,2|8|10
356,96,143364,2,0,B|344:32,1,60,8|10
228,60,144072,6,0,B|172:68|172:68|140:52,2,90,2|8|10
172,168,145253,2,0,B|156:192|156:192|124:204,1,60,0|10
48,292,145962,2,0,B|136:324,1,90,2|8
208,272,146671,2,0,B|233:311|278:325,1,90,10|0
352,276,147379,2,0,B|412:264,1,60,10|0
412,264,147852,6,0,B|403:217|427:177,2,90,2|8|10
320,184,149033,2,0,B|304:120,1,60,0|10
256,192,149742,12,0,151159
256,192,151631,6,0,B|256:256,3,60,6|0|8|0
336,340,152812,2,0,B|380:300,1,60,0|8
472,224,153521,2,0,B|443:220|413:206|413:206|394:179|386:152,1,120,2|8
280,96,154466,2,0,B|272:70|253:43|253:43|223:29|194:25,1,120,0|8
104,104,155411,6,0,B|56:68,2,60,2|0|8
104,104,156120,2,0,B|73:165|122:214,1,120
121,213,156828,1,8
228,272,157301,5,2
336,220,157773,1,8
284,112,158246,1,0
176,164,158718,1,8
228,272,159190,6,0,B|255:310|254:357,2,90,2|8|8
336,220,160372,2,0,B|368:168,1,60,0|8
484,148,161080,2,0,B|479:78|412:62,2,120,2|8|0
448,264,162498,1,8
372,356,162970,6,0,B|284:372,2,90,2|8|8
296,264,164151,2,0,B|288:200,1,60,0|8
272,84,164860,2,0,B|310:111|357:110,2,90,2|8|8
212,100,165805,2,0,B|152:104,2,60,0|8|8
144,200,166749,6,0,B|118:208|91:227|91:227|77:256|72:286,1,120,6|8
188,320,167694,2,0,B|148:368,2,60,0|0|8
240,216,168639,1,2
344,152,169112,2,0,B|319:176|335:208,1,60,8|0
312,328,169820,1,0
312,328,170057,1,8
432,300,170529,6,0,B|456:360,2,60,2|0|8
488,272,171238,2,0,B|519:211|470:162,1,120
429,118,171946,1,8
308,132,172419,5,2
200,184,172891,1,8
252,292,173364,1,0
360,240,173836,1,8
308,132,174309,6,0,B|281:94|282:47,2,90,2|8|8
200,184,175490,2,0,B|168:236,1,60,0|8
52,256,176198,2,0,B|54:325|121:342,2,120,2|8|0
88,140,177616,1,8
256,192,178088,12,0,179978
228,272,180450,5,2
336,220,180923,5,2
284,112,181395,5,2
176,164,181868,5,6
