osu file format v9

[General]
AudioFilename: Armin Van Buuren - Youtopia.mp3
AudioLeadIn: 0
PreviewTime: 91165
Countdown: 0
SampleSet: Soft
StackLeniency: 0.7
Mode: 0
LetterboxInBreaks: 0

[Editor]
Bookmarks: 45102
DistanceSpacing: 1.1
BeatDivisor: 4
GridSize: 4

[Metadata]
Title:Youtopia
Artist:Armin Van Buuren ft. Adam Young
Creator:JauiPlaY
Version:Insane
Source:
Tags:mirage owl city scorpiour

[Difficulty]
HPDrainRate:6
CircleSize:5
OverallDifficulty:7
ApproachRate:8
SliderMultiplier:1.5
SliderTickRate:1

[Events]
//Background and Video events
0,0,"bg2.jpg"
//Break Periods
2,91365,105527
//Storyboard Layer 0 (Background)
//Storyboard Layer 1 (Fail)
//Storyboard Layer 2 (Pass)
//Storyboard Layer 3 (Foreground)
//Storyboard Sound Samples
//Background Colour Transformations
3,100,0,0,0

[TimingPoints]
30687,472.44094488189,4,2,1,90,1,0
74151,-100,4,2,1,100,0,0
76041,-100,4,2,1,90,0,1
76159,-100,4,2,1,90,0,0
91159,-100,4,2,1,90,0,1
91277,-100,4,2,1,90,0,0
106277,-125,4,2,1,80,0,0
110057,-125,4,2,1,90,0,0
113836,-125,4,2,1,100,0,0
117616,-125,4,1,0,20,0,0
118561,-125,4,1,0,30,0,0
119505,-125,4,1,0,40,0,0
120450,-100,4,1,0,50,0,0
120923,-100,4,1,0,55,0,0
121395,-100,4,2,1,100,0,1
121513,-83.3333333333333,4,2,2,100,0,1
127064,-66.6666666666667,4,2,2,100,0,1
128954,-83.3333333333333,4,2,2,100,0,1
134624,-83.3333333333333,4,1,0,75,0,1
135568,-83.3333333333333,4,1,0,85,0,1
136041,-83.3333333333333,4,1,0,95,0,1
136395,-83.3333333333333,4,1,0,95,0,0
136513,-83.3333333333333,4,2,1,100,0,1
136631,-83.3333333333333,4,2,2,100,0,1
147852,-66.6666666666667,4,2,2,100,0,1
151513,-83.3333333333333,4,2,2,100,0,0
151631,-83.3333333333333,4,2,1,100,0,1
151749,-100,4,2,2,100,0,0
166749,-100,4,2,1,100,0,1
166868,-100,4,2,2,100,0,0
181868,-100,4,2,1,100,0,1
181986,-100,4,2,2,100,0,0

[Colours]
Combo1 : 187,255,47
Combo2 : 214,172,255
Combo3 : 151,203,255
Combo4 : 253,159,159

[HitObjects]
256,192,45096,2,0,B|256:268,1,75
300,328,45568,1,0
364,288,45805,2,0,B|416:328|468:288,1,112.5,6|0
414,227,46277,2,0,B|393:193|404:156,1,75,8|2
340,104,46749,1,0
348,96,46868,1,0
464,100,47104,1,0
456,92,47222,1,10
256,68,47694,6,0,B|196:40|154:91,1,112.5,2|0
132,120,48167,2,0,B|60:140,1,75,8|2
64,232,48639,1,0
56,240,48757,2,0,B|72:312,1,75
84,316,49112,1,10
280,320,49584,6,0,B|220:292|178:343,1,112.5,2|0
240,280,50057,2,0,B|316:272,1,75,8|2
384,300,50529,2,0,B|396:336,2,37.5
420,236,51001,2,0,B|452:212|468:172|452:132|420:108,1,150,10|2
356,68,51710,5,0
320,80,51828,1,0
292,104,51946,2,0,B|303:141|281:175,1,75,8|2
208,296,52419,2,0,B|197:259|218:224,1,75,0|8
352,300,52891,2,0,B|289:279|293:212,1,112.5,10|0
221,182,53364,6,0,B|185:126|122:146,1,112.5,2|0
64,96,53836,2,0,B|29:78|19:39,1,75,8|2
56,204,54309,2,0,B|40:240,1,37.5
60,272,54545,2,0,B|80:306|118:314,1,75,0|10
268,332,55253,6,0,B|207:312|171:368,1,112.5,2|0
200,264,55726,2,0,B|220:188,1,75,8|2
300,84,56198,1,0
300,84,56316,2,0,B|280:160,1,75
168,148,56671,2,0,B|108:104,1,75,10|0
88,112,57025,1,0
68,120,57143,6,0,B|107:124|141:151|147:194|131:230,1,150,2|8
212,272,57852,1,2
280,332,58088,2,0,B|320:328,1,37.5
400,288,58442,1,0
400,288,58561,2,0,B|408:228|408:228|384:180|416:144,1,150,10|2
286,54,59387,5,0
286,54,59505,1,8
200,88,59742,2,0,B|184:131|184:131|156:137,1,75,2|0
119,142,60096,1,0
90,164,60214,2,0,B|63:193|69:231,1,75,8|10
164,348,60923,5,2
184,316,61041,1,0
216,296,61159,2,0,B|288:316,1,75,0|8
240,192,61631,2,0,B|316:200,1,75,2|0
208,84,62104,2,0,B|284:68,1,75,0|10
424,120,62812,5,2
424,120,62931,1,0
424,120,63049,2,0,B|416:196,1,75,0|8
416,352,63521,2,0,B|378:336|368:297,1,75,2|0
232,200,63994,2,0,B|269:215|279:254,1,75,0|10
232,344,64466,2,0,B|200:364,1,37.5
168,344,64702,6,0,B|103:344|86:279,1,112.5,2|0
86,280,65175,1,8
196,248,65411,1,2
24,348,65647,1,0
16,340,65765,1,0
23,149,66001,1,0
31,141,66120,1,10
92,96,66356,1,0
172,84,66592,6,0,B|216:108|268:92|268:92|276:104,1,112.5,2|0
275,103,67064,1,8
320,172,67301,1,2
392,144,67537,2,0,B|417:136|417:136|426:109|454:114,1,75,0|8
400,332,68009,2,0,B|374:339|374:339|365:366|337:361,1,75,10|0
318,351,68364,1,0
296,348,68482,6,0,B|285:283|347:256,1,112.5,2|0
384,196,68954,2,0,B|308:188,1,75,8|2
236,212,69427,1,0
236,212,69545,2,0,B|229:251|193:269,1,75
193,270,69899,1,10
140,216,70135,1,0
180,116,70372,5,2
354,174,70608,1,0
296,349,70844,1,8
121,290,71080,1,2
140,216,71316,1,0
140,216,71435,1,0
140,216,71553,2,0,B|64:224,1,75,0|10
76,124,72025,2,0,B|44:104,1,37.5
40,68,72261,6,0,B|98:37|143:88,1,112.5,2|0
192,148,72734,2,0,B|235:196|293:166,1,112.5,8|0
312,244,73206,2,0,B|334:281,2,37.5
276,324,73679,2,0,B|248:352|208:348|208:348|192:312,1,112.5,10|0
192,312,74151,5,2
351,289,74505,1,2
378,131,74860,1,2
236,56,75214,1,2
121,168,75568,1,2
116,188,75686,1,0
110,207,75805,1,0
104,226,75923,1,0
98,245,76041,6,0,B|89:266|70:270|70:270|104:291|113:327,1,112.5,6|0
200,336,76513,2,0,B|222:370|261:373,1,75,8|2
372,256,76986,2,0,B|384:292,2,37.5
488,212,77458,2,0,B|454:156|392:175,1,112.5,10|0
452,140,77931,6,0,B|340:128,1,112.5,2|0
272,52,78403,2,0,B|345:59,1,75,8|2
288,184,78875,2,0,B|268:216,1,37.5
228,236,79112,2,0,B|188:246|156:221,1,75,0|10
204,144,79584,1,0
204,144,79702,1,0
204,144,79820,6,0,B|192:108|192:108|204:72,1,75,2|0
308,240,80293,2,0,B|320:276|320:276|308:312,1,75,8|2
204,312,80765,2,0,B|192:276|192:276|204:240,1,75
308,72,81238,2,0,B|320:108|320:108|308:144,1,75,10|0
203,72,81710,5,2
203,72,81828,1,0
308,144,82064,1,0
308,144,82183,1,8
203,240,82419,1,2
203,240,82537,1,0
308,311,82773,1,0
308,311,82891,1,8
196,316,83127,2,0,B|156:308|124:279|121:236|139:200,1,150,10|2
140,88,83954,6,0,B|112:116,1,37.5,0|8
48,240,84309,1,2
48,240,84545,1,0
48,240,84663,2,0,B|32:202|52:166,1,75
136,192,85017,2,0,B|163:251|227:238,1,112.5,10|0
264,304,85490,6,0,B|319:269|299:207,1,112.5,2|0
376,224,85962,2,0,B|380:262|416:284,1,75,8|2
460,164,86435,2,0,B|428:144,1,37.5
416,108,86671,2,0,B|378:95|365:56,1,75,0|10
292,88,87143,1,0
292,88,87261,1,0
292,88,87379,6,0,B|275:123|235:132,1,75,2|0
220,296,87852,2,0,B|236:260|276:251,1,75,8|2
152,156,88324,2,0,B|187:172|196:212,1,75
360,228,88797,2,0,B|324:211|315:171,1,75,10|0
256,192,89269,12,4,91159
256,172,106277,5,0
192,252,106513,2,0,B|200:280,1,30,2|0
312,280,106868,2,0,B|320:252,1,30,0|2
340,136,107222,1,0
256,172,107458,1,2
172,136,107694,1,2
228,52,107931,2,0,B|256:40|256:40|284:52,1,60
340,136,108403,6,0,B|368:140,1,30,2|0
369,243,108757,2,0,B|340:248,1,30,0|2
372,332,109112,1,0
284,320,109348,2,0,B|256:332|256:332|228:320,1,60,2|2
256,236,109820,1,0
140,332,110057,1,0
172,248,110293,6,0,B|142:243,1,30,2|0
142,140,110647,2,0,B|172:136,1,30,0|2
64,184,111001,2,0,B|48:240,1,60,0|2
256,204,111474,1,2
464,241,111710,2,0,B|448:184,1,60
336,144,112183,6,0,B|314:122,1,30,2|0
197,122,112537,2,0,B|176:144,1,30,0|2
200,248,112891,1,0
221,278,113009,1,0
256,288,113127,1,2
291,278,113246,1,0
312,248,113364,1,2
256,164,113600,1,0
256,36,113836,5,0
316,120,114072,2,0,B|324:92,1,30,2|0
188,92,114427,2,0,B|196:120,1,30,0|2
316,264,114781,2,0,B|324:292,1,30,0|2
188,292,115135,2,0,B|196:264,1,30,2|2
256,348,115490,1,0
436,192,115726,5,0
336,144,115962,2,0,B|308:132,1,30,0|2
176,240,116316,2,0,B|204:252,1,30,2|0
336,240,116671,2,0,B|308:252,1,30,2|0
176,144,117025,2,0,B|204:132,1,30,0|2
76,192,117379,1,2
256,100,117616,5,0
221,107,117734,1,0
191,126,117852,1,0
171,157,117970,1,0
164,192,118088,1,0
172,227,118206,1,0
191,257,118324,1,0
222,277,118442,1,0
256,284,118561,5,0
292,276,118679,1,0
322,257,118797,1,0
342,226,118915,1,0
348,192,119033,1,0
341,156,119151,1,0
322,126,119269,1,0
291,106,119387,1,0
256,100,119505,5,0
256,112,119624,1,0
256,124,119742,1,0
256,136,119860,1,0
256,148,119978,1,0
256,160,120096,1,0
256,172,120214,1,0
256,184,120332,1,0
256,200,120450,6,0,B|256:224,7,18.75
256,236,120923,2,0,B|256:260,8,18.75,0|0|0|0|0|0|0|0|4
356,340,121749,5,0
356,340,121868,2,0,B|326:302|328:255,1,90.0000021457673,8|2
464,216,122340,1,0
464,216,122458,2,0,B|463:262|431:297,1,90.0000021457673,8|0
272,352,122812,2,0,B|208:312|144:352,1,135.000003218651,10|0
64,292,123285,6,0,B|112:288|145:243|136:196,1,135.000003218651,2|0
60,212,123757,2,0,B|85:251|130:265,1,90.0000021457673,8|2
192,136,124230,1,0
192,136,124348,2,0,B|215:94|258:77,1,90.0000021457673,8|0
216,216,124702,2,0,B|239:257|282:274,1,90.0000021457673,10|0
452,328,125175,6,0,B|455:280|416:241|368:244,1,135.000003218651,2|0
376,324,125647,2,0,B|418:303|437:260,1,90.0000021457673,8|2
432,156,126120,1,0
396,152,126238,2,0,B|359:120|352:75,1,90.0000021457673,8|0
264,56,126592,2,0,B|197:19|136:62,1,135.000003218651,10|0
148,104,127064,6,0,B|162:129|187:143,1,56.2499983236194,2|0
188,242,127419,2,0,B|167:261|138:267,1,56.2499983236194,0|8
291,326,127773,2,0,B|295:297|282:271,1,56.2499983236194,2|0
339,190,128127,2,0,B|368:187|395:199,1,56.2499983236194,8|0
306,62,128482,2,0,B|286:83|280:111,2,56.2499983236194,10|0|0
344,72,128836,1,0
384,64,128954,6,0,B|444:109|429:183,1,135.000003218651,2|0
472,136,129427,2,0,B|484:224,1,90.0000021457673,8|2
372,300,129899,1,0
416,280,130017,2,0,B|393:323|351:341,1,90.0000021457673,8|0
264,352,130372,2,0,B|224:287|149:295,1,135.000003218651,10|0
32,296,130844,6,0,B|55:337|98:354,1,90.0000021457673,2|0
120,224,131198,2,0,B|112:180,1,45.0000010728836,0|8
64,32,131553,1,2
40,104,131789,1,0
76,112,131907,2,0,B|110:80|156:77,1,90.0000021457673,8|0
236,48,132261,2,0,B|233:96|272:135|320:132,1,135.000003218651,10|0
468,168,132734,6,0,B|471:120|432:81|384:84,1,135.000003218651,2|0
400,208,133206,2,0,B|388:255|351:282,1,90.0000021457673,8|2
248,268,133679,1,0
248,268,133797,2,0,B|216:305|216:350,1,90.0000021457673,8|0
184,224,134151,2,0,B|152:186|152:141,1,90.0000021457673,10|0
71,128,134624,5,0
89,86,134742,1,0
127,61,134860,1,0
173,62,134978,1,0
211,86,135096,1,0
249,110,135214,1,0
295,111,135332,1,0
333,87,135450,1,0
352,45,135568,6,0,B|368:32,7,22.5000005364418
408,44,136041,2,0,B|428:36,8,22.5000005364418,0|0|0|0|0|0|0|0|4
428,152,136749,6,0,B|420:196,2,45.0000010728836,0|8|0
332,200,137222,1,10
314,241,137340,1,0
320,286,137458,1,0
351,320,137576,1,0
396,332,137694,2,0,B|351:311|308:323,1,90.0000021457673,0|10
108,360,138285,5,0
108,360,138403,2,0,B|152:380|195:368,1,90.0000021457673,2|0
217,362,138757,1,8
238,355,138875,1,0
156,268,139112,1,10
163,222,139230,1,0
145,181,139348,1,0
106,157,139466,1,0
60,156,139584,2,0,B|57:107|85:71,1,90.0000021457673,0|10
344,32,140293,5,2
308,44,140411,1,0
272,56,140529,1,0
236,68,140647,1,8
316,172,141001,1,10
352,184,141120,1,0
388,196,141238,1,0
424,208,141356,1,0
324,360,141710,1,10
312,324,141828,1,0
300,288,141946,1,0
104,360,142183,5,2
140,348,142301,1,0
176,336,142419,1,0
212,324,142537,1,8
132,220,142891,1,10
96,208,143009,1,0
60,196,143127,1,0
24,184,143246,1,0
124,32,143600,1,10
136,68,143718,1,0
148,104,143836,1,0
352,136,144072,6,0,B|303:139|264:100|267:52,1,135.000003218651,2|8
416,72,144545,2,0,B|444:108|441:157,1,90.0000021457673,0|10
432,324,145017,1,0
432,324,145135,2,0,B|404:288|407:239,1,90.0000021457673
336,304,145490,2,0,B|292:366|218:354,1,135.000003218651,10|0
176,280,145962,6,0,B|132:252|80:268|80:268|48:252,1,135.000003218651,2|8
48,252,146435,1,0
117,352,146671,1,10
117,352,146907,1,0
117,352,147025,2,0,B|121:264,1,90.0000021457673
93,89,147379,2,0,B|88:178,1,90.0000021457673,10|0
177,130,147852,6,0,B|175:100|188:75,1,56.2499983236194,2|0
345,91,148206,2,0,B|318:87|290:97,1,56.2499983236194,8|0
356,195,148561,2,0,B|374:219|378:246,1,56.2499983236194,10|0
242,325,148915,2,0,B|266:313|283:288,1,56.2499983236194,0|0
172,247,149269,2,0,B|143:239|124:220,2,56.2499983236194,10|0|0
256,192,149742,12,4,151631
256,192,151868,6,0,B|256:232,1,37.5,4|0
284,264,152104,2,0,B|310:294|348:294,1,75,8|6
416,232,152576,1,0
452,204,152694,2,0,B|422:176|423:138,1,75
348,108,153049,2,0,B|327:73|289:66,1,75,14|0
200,76,153521,5,2
60,187,153757,1,4
94,269,153994,1,8
232,160,154230,1,6
115,50,154466,1,0
40,101,154702,1,0
167,220,154938,1,14
134,139,155175,1,0
134,139,155293,1,0
134,139,155411,6,0,B|172:232,1,75,2|4
167,220,155765,1,0
171,231,155883,1,8
126,344,156120,2,0,B|219:306,1,75,6|0
240,320,156474,2,0,B|279:308|311:327,1,75
280,240,156828,2,0,B|311:214|313:176,1,75,14|0
378,245,157301,5,2
345,164,157537,1,4
397,334,157773,1,8
472,283,158009,1,6
280,224,158246,1,0
312,308,158482,1,8
452,197,158718,1,14
418,115,158954,1,0
400,104,159072,1,0
382,93,159190,6,0,B|368:28|304:24,1,112.5,2|4
220,40,159663,2,0,B|208:76|169:91,1,75,8|6
76,124,160135,1,0
64,132,160253,1,0
108,220,160490,1,0
120,228,160608,1,14
76,320,160844,1,0
76,320,161080,6,0,B|135:349|177:300,1,112.5,2|0
264,332,161553,2,0,B|306:283|365:312,1,112.5,12|0
456,328,162025,2,0,B|472:364,2,37.5
496,248,162498,2,0,B|480:176,1,75,14|0
396,140,162970,5,2
173,316,163324,1,12
249,42,163679,1,14
348,309,164033,1,0
112,151,164387,1,14
188,200,164624,1,0
244,128,164860,5,2
266,125,164978,1,0
288,122,165096,1,4
310,119,165214,1,8
332,116,165332,1,0
354,113,165450,1,0
377,110,165568,1,14
416,192,165805,5,0
96,192,166041,1,0
200,252,166277,1,14
221,282,166395,1,0
256,292,166513,1,2
291,282,166631,1,2
312,252,166749,5,4
256,168,166986,2,0,B|256:132,2,37.5,4|0|8
160,136,167458,1,6
312,252,167694,1,0
200,252,167931,1,0
352,136,168167,1,14
420,192,168403,1,0
420,192,168521,1,0
420,192,168639,6,0,B|372:236|403:293,1,112.5,2|4
403,293,169112,1,8
346,362,169348,2,0,B|272:346,1,75,6|0
212,288,169702,2,0,B|233:254|222:217,1,75
136,248,170057,2,0,B|115:282|126:319,1,75,14|0
136,340,170411,1,0
145,360,170529,6,0,B|72:376,1,75,2|4
221,216,171001,2,0,B|294:200,1,75,8|6
176,156,171474,1,0
176,156,171592,2,0,B|163:118|128:102,1,75
92,180,171946,2,0,B|79:218|44:234,1,75,14|0
136,248,172419,5,2
280,227,172655,1,4
312,312,172891,5,8
291,168,173127,1,6
376,136,173364,5,0
232,157,173600,1,8
200,72,173836,5,14
221,216,174072,1,0
292,272,174309,6,0,B|324:288|324:288|364:284|400:300,1,112.5,2|4
398,299,174781,1,8
346,371,175017,2,0,B|366:336|353:299,1,75,6|0
297,232,175372,2,0,B|284:195|304:160,1,75
224,132,175726,2,0,B|215:93|180:73,1,75,14|0
144,144,176198,6,0,B|209:146|227:84,1,112.5,2|0
296,124,176671,2,0,B|360:135|363:200,1,112.5,12|0
332,228,177143,1,0
253,229,177261,2,0,B|227:260|235:300,1,75
156,292,177616,2,0,B|141:329|105:343,1,75,14|0
256,192,178088,12,0,179978
184,108,180214,5,4
141,184,180450,5,0
188,256,180686,5,4
256,304,180923,5,0
324,256,181159,37,4
371,184,181395,37,4
328,108,181631,37,0
256,152,181868,37,6
