osu file format v5

[General]
AudioFilename: ArmCannon - Wily1.mp3
AudioLeadIn: 0
PreviewTime: 11690
Countdown: 0
SampleSet: Normal
StackLeniency: 0.7
Mode: 0
LetterboxInBreaks: 1

[Editor]
Bookmarks: 11706,22823,33911,55453,66269,75827,86847,108034,118796,166655,186403
DistanceSpacing: 1
BeatDivisor: 2
GridSize: 8

[Metadata]
Title:Woctor Dialy
Artist:ArmCannon
Creator:awp
Version:Normal
Source:
Tags:video game metal

[Difficulty]
HPDrainRate:3
CircleSize:4
OverallDifficulty:3
SliderMultiplier:1.4
SliderTickRate:1

[Events]
//Background and Video events
0,0,"armcannon2.jpg"
//Break Periods
2,23091,32554
2,55706,64886
2,76137,85498
2,108316,117450
2,167043,185075
//Storyboard Layer 0 (Background)
//Storyboard Layer 1 (Fail)
//Storyboard Layer 2 (Pass)
//Storyboard Layer 3 (Foreground)
//Storyboard Sound Samples
//Background Colour Transformations
3,100,163,162,255

[TimingPoints]
373,357.142857142857,4,1,0,100,1,0
11788.1536055212,352.941176470588,4,1,0,100,1,0
14246,350.877192982456,4,1,0,100,1,0
16372,352.422907488987,4,1,0,100,1,0
23098,681.818181818182,4,1,0,100,1,0
33994,336.794835812518,4,1,0,100,1,0
66378,621.761658031088,4,1,0,100,1,0
76239,670.391061452514,4,1,0,100,1,0
86938,330.305532617671,4,1,0,100,1,0
97482,331.491712707182,4,1,0,100,1,0
102778,337.552742616034,4,1,0,100,1,0
105460,333.333333333333,4,1,0,100,1,0
108116,674.157303370787,4,1,0,100,1,0
118890,375,4,1,0,100,1,0
154876,376.175548589342,4,1,0,100,1,0
160892,368.098159509202,4,1,0,100,1,0
163836,373.250388802488,4,1,0,100,1,0
166760,812.457684495599,4,1,0,100,1,0
179759,845.070422535211,4,1,0,100,1,0
186515,833.333333333333,4,1,0,100,1,0
189795,821.917808219178,4,1,0,100,1,0
193110,397.350993377483,4,1,0,100,1,1
196288,380.952380952381,4,1,0,100,1,0
199363,398.009950248756,4,1,0,100,1,0
205722,360.36036036036,4,1,0,100,1,0
215271,-50,4,1,0,100,0,0
216535,361.44578313253,4,1,0,100,1,0
218923,-50,4,1,0,100,0,0

[HitObjects]
72,80,11788,1,0
192,80,12141,1,0
304,80,12494,1,0
304,80,12670,1,0
248,240,13199,1,0
136,240,13552,1,0
136,240,13729,1,0
56,160,14082,6,0,C|56:240,2,70,0|0|4
208,80,14947,5,0
320,80,15298,1,0
320,80,15474,1,0
408,216,15824,2,0,C|264:216,3,140
104,264,17429,6,0,C|104:112,1,140,4|0
216,120,18134,1,0
216,120,18310,1,0
216,232,18662,6,0,C|368:232,1,140
440,304,19367,2,0,C|440:152,1,140
440,48,20072,1,4
272,48,20601,6,0,B|200:112|272:176,1,140
264,336,21482,1,4
96,336,22010,2,0,B|24:272|96:208,1,140,0|0
88,104,22715,1,0
88,104,22891,1,4
64,64,33994,6,0,B|64:240|272:240,1,280
256,72,35172,1,2
368,72,35509,1,2
448,152,35846,1,2
448,264,36183,1,2
296,336,36519,6,0,B|296:112|80:112,1,350
48,272,37867,2,2,B|48:360|136:360,1,140
136,248,38540,2,2,B|136:160|224:160,1,140,2|2
248,256,39214,1,0
384,328,39719,5,0
496,328,40056,1,0
496,328,40224,1,0
496,216,40561,1,2
496,104,40898,1,2
384,104,41235,1,2
384,216,41571,1,2
272,216,41908,6,0,B|272:80|112:80,1,210,4|0
72,208,42750,1,0
128,336,43087,5,0
128,336,43255,2,0,B|272:336|272:216,1,210,4|0
272,120,44097,1,0
168,56,44434,1,0
168,56,44603,6,0,B|104:160|168:256,1,210,4|0
240,336,45445,1,0
336,336,45781,1,0
336,336,45950,1,0
448,336,46287,2,0,B|448:112,1,210,0|2
336,48,47128,1,2
240,128,47465,6,0,B|240:280,2,140,2|0|0
144,72,48476,1,0
144,72,48644,1,0
24,72,48981,1,0
80,232,49486,2,0,B|-8:288|80:336,2,140
256,192,50833,12,4,55506
64,192,66326,5,0
64,192,66688,1,0
64,192,66999,1,8
200,192,67621,1,0
200,192,67932,1,0
200,192,68243,1,8
312,192,68709,6,0,L|360:304,1,105
376,352,69486,1,8
480,344,69953,6,0,L|432:232,1,105
416,184,70730,1,8
392,56,71352,6,0,L|472:56,2,70,0|0|8
248,56,72595,2,0,L|160:56,1,70
104,56,73217,1,8
104,192,73839,6,0,B|160:192|152:248|216:248,1,105
256,192,74616,12,4,75937
64,64,86938,6,0,B|168:104|64:152,1,140
64,232,87598,1,0
64,312,87928,1,0
144,312,88259,2,0,B|312:312|176:264|352:264,1,210
432,200,89084,1,0
344,152,89415,6,0,B|288:0|128:256|40:16,1,350
136,224,90901,1,0
256,296,91231,1,0
256,296,91397,1,0
440,40,92222,6,0,B|152:40,1,280,0|2
56,168,93544,2,0,B|352:168,1,280,0|2
256,192,94865,12,4,96682
48,192,97482,6,0,B|208:192,1,140
120,264,98144,1,8
208,312,98476,1,12
304,312,98807,2,0,B|464:312,1,140,0|0
368,240,99470,1,8
464,192,99802,1,12
424,48,100133,6,0,B|368:136|320:48,1,140
224,48,100796,1,8
128,48,101128,1,12
72,128,101459,2,0,B|128:216|176:128,1,140
272,128,102122,1,8
368,128,102454,1,12
400,216,102778,6,0,B|368:328|304:200|272:160|224:208|176:288,1,280,0|8
104,368,103790,1,12
104,240,104128,2,0,B|32:168|48:96|232:88,1,280,0|8
352,80,105140,1,12
472,72,105460,6,0,B|472:280|384:280,1,210
232,288,106459,1,0
104,288,106793,2,0,B|104:80|184:80,1,210
344,80,107793,1,0
256,192,108116,1,0
48,64,118890,6,0,B|104:112|0:144|40:200,1,140,0|8
40,336,119640,1,0
192,336,120015,1,8
344,336,120390,1,0
496,336,120765,1,8
496,184,121140,1,0
344,184,121515,1,8
192,184,121890,6,0,B|104:136|208:120|192:64,1,140,0|8
344,72,122640,1,0
496,72,123015,1,8
424,208,123390,1,0
272,208,123765,1,8
192,336,124140,1,0
344,336,124515,1,8
496,344,124890,6,0,B|408:344|448:288|360:264,1,140,0|8
264,368,125640,1,0
120,320,126015,1,8
80,168,126390,1,0
184,56,126765,1,8
336,88,127140,1,0
376,240,127515,1,8
224,216,127890,6,0,B|360:152,1,140,0|8
144,256,128827,1,0
144,256,129015,1,8
424,120,129765,1,8
208,40,130327,2,0,B|264:176,1,140
261,169,130890,6,0,B|200:232|296:264|296:312,1,140,0|8
56,320,131827,1,0
56,320,132015,1,8
56,168,132390,2,0,B|16:96|88:56|120:96,1,140,0|8
232,288,133327,1,0
232,288,133515,1,8
384,288,133890,2,0,B|424:352|488:288|480:232,1,140,0|8
384,48,134827,1,0
384,48,135015,1,8
232,48,135390,6,0,B|136:48|232:96|144:144,1,140,0|8
8,192,136140,2,0,B|56:264,1,70
96,312,136515,2,0,B|168:248,1,70,0|0
216,192,136890,6,0,B|248:136|272:232|352:184,1,140,0|8
472,40,137827,1,0
472,40,138015,1,8
472,168,138390,2,0,B|424:224|472:256|384:288,1,140,0|8
216,328,139327,1,0
216,328,139515,1,8
208,200,139890,6,0,B|232:240|296:208|280:144|248:136,1,140,0|8
176,56,140640,1,0
64,120,141015,1,8
40,240,141390,2,0,B|64:328|144:328|160:280,1,140,0|8
304,208,142327,2,0,B|368:272|432:208,1,140
432,136,142890,6,0,B|280:136,1,140
292,136,143452,1,0
152,136,143827,1,0
8,136,144202,1,0
88,248,144577,2,0,B|88:336,1,70
160,320,144952,2,0,B|160:248,1,70
232,248,145327,2,2,B|232:336,1,70
304,320,145702,2,2,B|304:248,1,70
400,64,146452,6,0,B|248:64,1,140
120,64,147202,1,0
216,160,147577,1,0
376,296,148140,6,2,B|296:296,1,70
232,296,148515,2,2,B|152:296,1,70
40,40,149452,5,0
176,40,149827,1,0
312,40,150202,1,0
448,40,150577,1,0
448,112,150765,2,0,B|392:184,1,70
336,168,151140,2,2,B|280:232,1,70
216,216,151515,2,2,B|168:280,1,70
472,344,152452,5,0
336,344,152827,1,0
200,344,153202,1,0
64,344,153577,1,0
64,272,153765,2,0,B|120:200,1,70
176,216,154140,2,2,B|232:152,1,70
296,168,154515,2,2,B|344:104,1,70
408,112,154876,5,4
416,248,155252,2,0,B|352:312|296:200|224:264|184:320|144:296,1,280
16,248,156380,1,0
16,104,156756,1,0
144,48,157133,2,0,B|216:32|256:144,1,140
376,64,157885,5,4
432,192,158261,2,0,B|480:256|392:328|328:216|224:256,1,280
104,312,159390,1,0
32,192,159766,1,0
112,80,160142,2,0,B|200:40|272:88,1,140
384,88,160892,6,0,B|480:88,1,70,4|0
456,160,161260,2,0,B|456:232,1,70
384,232,161628,2,0,B|384:304,1,70
312,304,161996,2,0,B|312:376,2,70
312,232,162548,1,0
240,232,162732,1,0
168,232,162916,2,0,B|168:328,1,70
96,304,163284,2,0,B|96:376,2,70
256,192,163836,12,4,166843
56,48,186515,6,0,B|144:48,1,70
232,48,187348,2,0,B|320:48,1,70
376,128,188181,2,0,B|296:128,1,70
192,128,189015,2,0,B|88:128,1,70
48,192,189795,5,0
48,192,190000,1,0
48,192,190205,1,8
48,192,190411,1,8
120,192,190616,1,0
120,192,190822,1,0
120,192,191027,1,8
120,192,191233,1,8
192,192,191438,5,0
192,192,191644,1,0
192,192,191849,1,8
192,192,192055,1,8
264,192,192260,1,8
264,192,192466,1,8
264,192,192671,1,8
264,192,192877,1,8
352,192,193110,5,4
432,192,193308,2,0,B|432:104,1,70
432,48,193706,2,0,B|352:48,1,70
208,48,194302,1,0
208,48,194500,1,2
56,48,194898,1,2
184,136,195295,1,2
32,136,195692,1,2
32,288,196090,6,0,B|248:288,1,210
392,288,197049,1,4
488,80,197621,2,0,B|272:80,1,210
120,80,198573,1,4
120,232,198954,5,0
120,304,199145,1,0
272,304,199562,2,0,B|360:304,1,70
392,240,199960,2,0,B|320:240,1,70
192,152,200557,1,0
192,152,200756,2,0,B|192:296,3,140,2|2|2|2
256,192,202547,12,0,204736
56,56,205722,5,0
56,168,206082,2,0,B|24:240|72:312|160:304,1,210
272,304,206983,2,0,B|440:304|232:136|448:120,1,280,0|0
256,56,208064,5,0
256,120,208244,1,0
256,184,208424,1,0
184,280,208785,2,0,B|96:240|48:216|168:192|200:160|96:112|112:56,1,280
256,56,209866,2,0,B|328:24|400:56,1,140
392,162,210586,2,0,B|320:128|256:159,1,140,0|0
256,288,211307,5,0
320,288,211487,1,0
384,288,211667,2,0,B|464:360|504:232|432:88,1,280
328,40,212749,2,0,B|232:176,1,140
144,32,213469,2,0,B|184:176,1,140
224,288,214190,1,4
96,288,214550,5,0
96,224,214731,1,0
96,160,214911,1,0
96,96,215091,1,0
192,152,215451,5,0
256,152,215631,1,4
288,48,215992,1,0
224,48,216172,1,0
160,48,216352,1,0
72,48,216535,5,0
72,192,216896,1,0
72,336,217257,1,0
256,336,217622,1,0
440,336,217983,1,0
440,192,218345,1,0
432,48,218703,1,0
256,48,219065,2,0,B|256:200,1,140,0|4
