osu file format v5

[General]
AudioFilename: ArmCannon - Wily1.mp3
AudioLeadIn: 0
PreviewTime: 11690
Countdown: 0
SampleSet: Normal
StackLeniency: 0.7
Mode: 0
LetterboxInBreaks: 1

[Editor]
Bookmarks: 11706,22823,33911,55453,66269,75827,86847,108034,118796,166655,186403
DistanceSpacing: 1.5
BeatDivisor: 2
GridSize: 8

[Metadata]
Title:Woctor Dialy
Artist:ArmCannon
Creator:awp
Version:Difficult
Source:
Tags:video game metal

[Difficulty]
HPDrainRate:6
CircleSize:5
OverallDifficulty:8
SliderMultiplier:2
SliderTickRate:1

[Events]
//Background and Video events
0,0,"armcannon2.jpg"
//Break Periods
2,23091,33244
2,55706,65407
2,76137,84874
2,108316,118140
2,167061,185767
//Storyboard Layer 0 (Background)
//Storyboard Layer 1 (Fail)
//Storyboard Layer 2 (Pass)
//Storyboard Layer 3 (Foreground)
//Storyboard Sound Samples
//Background Colour Transformations
3,100,163,162,255

[TimingPoints]
374,357.142857142857,4,1,0,100,1,0
11786.1536055212,352.941176470588,4,1,0,100,1,0
14246,350.877192982456,4,1,0,100,1,0
16372,352.422907488987,4,1,0,100,1,0
23098,681.818181818182,4,1,0,100,1,0
33994,336.794835812518,4,1,0,100,1,0
65652,-200,4,1,0,100,0,0
66378,621.761658031088,4,1,0,100,1,0
76239,670.391061452514,4,1,0,100,1,0
86938,330.305532617671,4,1,0,100,1,0
97482,331.491712707182,4,1,0,100,1,0
102778,337.552742616034,4,1,0,100,1,0
105460,333.333333333333,4,1,0,100,1,0
108116,674.157303370787,4,1,0,100,1,0
118890,375,4,1,0,100,1,0
154876,376.175548589342,4,1,0,100,1,0
160892,368.098159509202,4,1,0,100,1,0
163836,373.250388802488,4,1,0,100,1,0
166760,812.457684495599,4,1,0,100,1,0
179759,845.070422535211,4,1,0,100,1,0
186515,833.333333333333,4,1,0,100,1,0
189795,821.917808219178,4,1,0,100,1,0
193110,397.350993377483,4,1,0,100,1,1
196288,380.952380952381,4,1,0,100,1,0
199363,398.009950248756,4,1,0,100,1,0
205722,360.36036036036,4,1,0,100,1,0
215271,-50,4,1,0,100,0,0
216535,361.44578313253,4,1,0,100,1,0
218923,-50,4,1,0,100,0,0

[HitObjects]
80,80,11788,1,4
200,80,11962,1,0
256,184,12139,1,0
312,80,12315,1,0
360,192,12492,1,0
416,304,12668,1,0
96,304,13021,5,0
208,264,13197,1,0
96,216,13374,1,0
208,168,13550,1,0
96,120,13727,1,0
352,192,14080,6,0,B|200:176|336:88|176:96,1,200,0|0
48,280,14772,5,4
152,344,14947,1,0
224,240,15123,1,0
336,288,15298,1,0
424,200,15474,1,0
72,152,15824,2,0,B|96:272|200:312,1,200,0|0
440,152,16548,2,0,B|416:272|312:312,1,200,0|0
104,264,17429,6,0,C|104:144,1,100,4|0
104,40,17781,2,0,B|224:40,1,100
320,40,18134,2,0,B|440:40,1,100
256,128,18662,5,0
32,256,19015,1,0
256,376,19367,1,0
480,256,19720,1,0
256,64,20072,5,4
104,256,20424,5,2
232,256,20601,1,2
312,152,20777,1,2
392,256,20953,1,2
72,152,21482,5,4
440,152,21834,5,2
312,152,22010,1,2
232,48,22186,1,2
152,152,22363,1,2
296,352,22715,6,0,B|256:293|216:352,1,100,0|4
64,64,33994,6,0,B|312:64|40:240|392:240,1,400
56,192,35004,5,0
56,312,35172,2,0,B|264:312,1,200
496,312,35846,1,0
408,88,36183,1,8
408,208,36351,1,8
408,88,36519,6,8,B|32:88|32:224|256:224,1,500,8|0
488,160,37698,1,0
368,160,37867,2,8,B|248:336,1,200
72,160,38540,2,8,B|72:320|152:320|192:272,1,200,8|8
368,160,39214,1,4
144,40,39551,6,0,B|248:40,1,100
368,40,39887,1,0
304,104,40056,1,0
240,176,40224,1,0
80,352,40561,5,2
432,352,40898,1,2
432,32,41235,1,2
80,32,41571,1,2
168,240,41908,6,0,B|192:312|256:312|272:232|272:232|216:232,1,200,4|2
136,160,42413,1,2
232,160,42582,1,2
328,160,42750,1,2
296,240,43255,6,0,B|272:312|208:312|192:232|192:232|248:232,1,200,4|2
328,160,43761,1,2
232,160,43929,1,2
136,160,44097,1,2
376,48,44434,5,0
432,160,44603,2,0,B|488:232|392:328|224:328,1,300,4|0
24,248,45445,2,0,B|136:272|240:208,1,200
328,168,45950,1,0
120,40,46287,1,0
264,40,46792,6,2,B|264:144,1,100
144,136,47128,2,2,B|144:240,1,100
264,240,47465,2,0,B|264:352,2,100,4|0|0
264,40,48139,5,0
480,152,48476,1,0
360,152,48644,1,0
240,152,48812,2,0,B|152:72,2,100
24,336,49486,5,2
136,336,49654,1,2
256,336,49823,1,2
480,336,50160,1,4
72,40,50833,5,0
168,112,51002,1,0
256,192,51170,1,0
400,192,51338,6,2,B|400:304|272:352,1,200,2|2
112,192,52012,2,2,B|112:304|240:352,1,200
256,192,52517,12,4,55506
80,80,66157,6,0,B|128:104|192:72,1,100
264,48,66688,1,0
312,24,66844,1,0
360,48,66999,1,0
280,120,67310,5,0
224,168,67466,2,0,B|296:264,1,100,0|0
168,216,68087,2,0,B|240:312,1,100,0|0
312,192,68709,6,0,B|344:272|392:256,1,100,4|0
440,208,69175,2,0,B|424:152|352:144,1,100,0|0
200,192,69953,2,0,B|168:272|120:256,1,100,4|0
80,224,70419,2,0,B|112:144|160:160,1,100,0|0
200,280,71041,5,8
200,344,71196,1,8
280,280,71507,1,0
344,280,71662,2,0,B|416:280,2,50
344,152,72284,2,0,B|344:232,1,50
304,96,72751,2,0,B|256:52|216:96,2,100,0|0|0
256,240,73839,5,0
304,192,73994,1,0
256,144,74150,1,0
208,192,74305,1,4
256,192,74460,12,0,75937
24,120,85624,5,0
24,328,85959,1,0
224,328,86294,1,0
224,120,86630,1,0
64,64,86938,6,0,B|152:112|48:168|136:264,1,200
264,80,87598,1,0
312,160,87763,1,0
296,248,87928,1,0
360,304,88094,1,0
432,248,88259,1,0
400,160,88424,1,0
440,80,88589,1,0
352,80,88754,2,0,B|352:16|200:16|168:48,1,200
96,80,89250,1,0
88,168,89415,6,2,B|144:264|192:120|272:120,1,200,2|2
320,184,89910,1,0
376,256,90075,1,0
320,328,90241,2,2,B|96:328,1,200
120,328,90736,1,0
136,224,90901,1,0
224,248,91066,1,0
312,248,91231,1,0
336,160,91397,1,0
88,104,92057,5,0
88,192,92222,1,8
256,104,92718,5,0
256,192,92883,1,8
256,192,92966,1,8
424,104,93378,5,0
424,192,93544,1,8
424,192,93626,1,8
256,296,94039,5,0
256,192,94204,1,8
256,192,94287,1,8
256,192,94865,12,4,96682
56,72,97482,6,0,B|144:144,1,100
208,88,97813,2,0,B|312:88,1,100
384,128,98144,2,0,B|312:200,1,100
232,232,98476,2,0,B|112:232,1,100
56,280,98807,2,0,B|152:336,1,100
232,336,99139,2,0,B|352:336,1,100
424,336,99470,2,0,B|424:224,1,100
384,152,99802,2,0,B|296:208,1,100
256,128,100133,6,2,B|168:192|40:104|168:16|256:64,2,300
64,264,101625,1,0
128,320,101791,1,0
216,320,101957,1,0
304,320,102122,2,0,B|408:344|504:320,1,200
432,152,102778,6,0,B|376:224|328:136|304:128|232:128,1,200,0|0
160,128,103284,1,0
72,128,103453,2,0,B|72:248,1,100
160,232,103790,1,0
248,232,103959,1,0
336,232,104128,2,0,B|336:120|480:120,1,200
471,120,104634,1,0
471,120,104803,2,0,B|472:268|376:288,1,200
299,305,105309,1,0
208,312,105460,6,2,B|0:264|368:176|80:128,1,300
416,96,106460,1,0
480,232,106793,2,2,B|272:232|272:40,2,300
256,192,108116,1,4
96,96,118890,5,0
96,96,118983,1,0
96,96,119077,1,0
96,96,119171,1,0
96,160,119265,1,8
40,336,119640,5,0
176,192,120015,1,8
320,336,120390,1,0
464,192,120765,1,8
320,48,121140,1,0
320,120,121327,1,0
320,192,121515,1,8
192,192,121890,5,0
192,192,121983,1,0
192,192,122077,1,0
192,192,122171,1,0
136,192,122265,1,8
344,72,122640,2,0,B|136:72,1,200,0|8
344,312,123390,2,0,B|136:312,1,200,0|8
304,192,124140,1,0
200,192,124327,1,0
96,192,124515,1,8
256,312,124890,5,0
256,312,124983,1,0
256,312,125077,1,0
256,312,125171,1,0
256,256,125265,1,8
448,192,125640,2,0,B|448:120|376:120,1,100
288,120,126015,1,8
88,120,126390,2,0,B|88:192|160:192,1,100,0|0
240,192,126765,1,8
392,192,127046,1,0
392,192,127140,1,0
392,272,127327,1,0
392,352,127515,1,8
256,80,127890,5,0
256,80,127983,1,0
256,80,128077,1,0
256,80,128171,1,0
256,136,128265,1,8
256,360,128827,1,0
256,360,129015,1,8
16,192,129577,5,0
112,192,129765,1,8
208,192,129952,1,0
304,192,130140,1,0
400,192,130327,2,0,B|456:336|472:120,1,200
416,40,130890,6,0,C|384:72|368:56|328:96|312:80|264:128,1,200
80,88,131640,1,0
24,168,131827,1,0
24,264,132015,1,8
80,344,132202,1,0
144,264,132390,6,0,C|176:232|192:248|232:208|248:224|296:176,1,200,0|0
432,320,133140,1,0
488,240,133327,1,0
488,144,133515,1,8
432,64,133702,1,0
328,56,133890,6,0,C|304:104|328:104|304:152|328:152|304:208,1,200
112,192,134640,2,0,C|168:280,1,100
224,352,135015,1,8
320,352,135202,1,8
400,288,135390,6,0,C|376:240|400:240|376:192|400:192|376:136,1,200,0|0
192,136,136140,6,0,B|256:136|256:56,1,100
352,72,136515,2,8,B|424:72|424:144,1,100
392,224,136890,6,0,C|344:200|344:224|296:200|296:224|240:200,1,200,0|0
40,112,137640,2,0,B|40:232,1,100,0|8
40,212,137921,1,8
40,212,138015,1,8
256,312,138390,2,0,C|304:288|304:312|352:288|352:312|408:288,1,200,0|0
456,64,139140,2,0,B|352:64,1,100,0|8
356,64,139421,1,8
356,64,139515,1,8
104,72,139890,6,0,B|104:176,1,100
104,172,140171,1,0
104,172,140265,2,0,B|256:336|464:176,1,400
256,48,141390,2,0,B|256:160,1,100
256,148,141671,1,0
256,148,141765,2,0,B|296:240|336:248|352:192|352:192|368:248|408:240|448:144,1,300
360,48,142702,1,0
80,80,143452,6,0,B|80:288,1,200
312,336,144202,1,0
216,264,144390,1,0
216,144,144577,1,0
312,208,144765,1,0
416,272,144952,1,0
416,152,145140,1,0
312,88,145327,1,0
216,16,145515,1,0
112,80,145702,1,0
72,296,146265,6,0,B|112:344|160:296,1,100
256,224,146640,1,0
336,312,146827,1,0
400,208,147015,2,0,B|488:296,2,100
312,128,147577,1,0
56,56,148140,5,0
136,144,148327,1,0
136,264,148515,1,0
216,352,148702,1,0
464,352,149265,6,0,B|464:240,1,100
344,248,149640,1,0
224,248,149827,1,0
224,128,150015,2,0,B|224:24,2,100
288,28,150577,2,0,B|288:128,1,100
288,248,150952,1,0
224,352,151140,1,0
168,248,151327,1,0
96,144,151515,1,0
32,248,151702,1,0
256,192,152265,12,4,154515
32,192,155064,5,0
152,192,155252,1,0
272,192,155440,2,0,B|272:120|328:120,2,100
392,192,156004,1,0
488,264,156192,1,0
400,360,156380,1,0
272,360,156568,1,0
144,360,156756,1,0
16,360,156944,2,0,B|16:296|80:296,1,100
208,296,157321,2,0,B|208:232|144:232,2,100
328,296,157885,5,4
448,296,158073,2,0,B|448:192,1,100
384,88,158449,1,0
272,128,158637,1,0
384,152,158825,1,0
272,192,159013,2,0,B|160:192,1,100
48,192,159390,2,0,B|48:256|112:256,2,100
48,72,159954,1,0
168,72,160142,1,0
288,72,160330,2,0,B|408:72,2,100
288,192,160892,5,4
408,192,161076,2,0,B|448:304|288:304,1,200
176,304,161628,1,0
56,304,161812,1,0
56,184,161996,1,0
56,64,162180,1,0
176,64,162364,2,0,B|184:200|256:240,1,200
376,240,162916,1,0
496,240,163100,1,0
496,360,163284,1,0
376,360,163468,1,0
437,301,163652,5,0
256,192,163744,12,4,166861
96,48,186515,6,0,B|208:48,1,100
312,48,187348,2,0,B|424:48,1,100
416,168,188181,2,0,B|312:168,1,100,0|0
256,168,188806,1,0
192,168,189015,2,0,B|88:168,1,100
32,168,189795,5,0
32,224,190000,1,0
32,280,190205,1,8
32,336,190411,1,0
88,336,190616,1,0
88,280,190822,1,0
88,224,191027,1,8
88,168,191233,1,0
144,168,191438,5,0
200,168,191644,1,0
256,168,191849,1,8
312,168,192055,1,8
368,168,192260,1,0
424,168,192466,1,0
480,168,192671,1,8
480,168,192774,1,8
480,168,192877,1,8
480,168,192979,1,8
480,168,193082,5,4
480,264,193308,2,0,B|376:264,1,100,0|0
304,344,193706,1,0
224,264,193904,1,0
256,48,194302,1,0
381,51,194500,2,0,B|256:208,1,200
131,52,195295,2,0,B|255:208,1,200
32,192,196090,6,0,B|112:280|208:192,1,200
288,120,196668,1,0
368,192,196859,1,0
288,264,197049,1,4
480,192,197621,6,0,B|400:280|304:192,1,200
224,120,198192,1,0
144,192,198383,1,0
224,264,198573,1,4
256,48,198954,5,0
144,48,199145,1,0
56,248,199562,1,0
56,248,199661,1,0
56,248,199761,1,0
168,248,199960,1,0
112,344,200159,1,0
328,344,200557,2,0,B|432:344,1,100
432,120,201154,2,0,B|208:120,2,200
256,192,202547,12,0,204736
72,64,205722,5,4
184,64,205902,1,0
184,64,205992,1,0
184,64,206082,1,0
296,64,206262,1,0
296,64,206352,1,0
296,64,206442,1,0
408,64,206622,1,0
416,280,206983,5,0
416,280,207073,1,0
416,280,207163,1,0
304,280,207343,1,0
304,280,207433,1,0
304,280,207523,2,0,B|304:176,1,100
192,24,208064,6,0,C|192:128,2,100,4|0|4
64,192,208785,5,0
64,192,208875,1,0
64,192,208965,1,0
176,192,209145,1,0
176,192,209235,1,0
176,192,209325,2,0,B|176:296,1,100
80,96,209866,6,2,C|296:96,1,200
408,272,210586,2,2,C|168:272,1,200,2|2
352,104,211307,1,4
160,104,211487,1,4
200,200,211667,5,0
200,200,211758,1,0
200,200,211848,1,0
312,200,212028,1,0
312,200,212118,1,0
312,200,212208,1,0
256,296,212388,1,0
84,193,212749,6,2,C|229:55,1,200,2|2
430,192,213469,2,2,C|284:55,1,200,2|2
256,352,214190,1,4
112,192,214550,5,0
256,240,214731,1,0
400,192,214911,1,0
256,136,215091,1,0
160,192,215451,6,4,B|368:192,1,200
256,312,215992,1,0
256,192,216172,1,0
256,72,216352,1,0
80,48,216535,5,0
80,328,216896,1,0
432,328,217258,1,0
432,48,217619,1,0
472,192,217980,5,0
256,48,218342,1,0
40,192,218703,1,0
256,320,219065,2,0,B|256:96,1,200,0|4
