osu file format v9

[General]
AudioFilename: Arlie Ray.mp3
AudioLeadIn: 0
PreviewTime: 46574
Countdown: 0
SampleSet: Soft
StackLeniency: 0.7
Mode: 0
LetterboxInBreaks: 1

[Editor]
DistanceSpacing: 0.5
BeatDivisor: 4
GridSize: 8

[Metadata]
Title:Air on the G String (Remix)
Artist:Arlie Ray
Creator:gdeath
Version:Challenging
Source:
Tags:quintitem

[Difficulty]
HPDrainRate:7
CircleSize:4
OverallDifficulty:8
ApproachRate:8
SliderMultiplier:1.8
SliderTickRate:1

[Events]
//Background and Video events
0,0,"Arlie.png"
//Break Periods
2,90317,91257
2,182915,197084
//Storyboard Layer 0 (Background)
//Storyboard Layer 1 (Fail)
//Storyboard Layer 2 (Pass)
//Storyboard Layer 3 (Foreground)
//Storyboard Sound Samples
//Background Colour Transformations
3,100,163,162,255

[TimingPoints]
46653,472.44094488189,4,2,1,80,1,0
65904,-100,4,2,2,90,0,0
66377,-100,4,2,2,75,0,0
66849,-100,4,2,2,90,0,0
67322,-100,4,2,2,75,0,0
67794,-100,4,2,2,90,0,0
68267,-100,4,2,2,75,0,0
68739,-100,4,2,1,80,0,0
73464,-100,4,2,2,90,0,0
73936,-100,4,2,2,75,0,0
74408,-100,4,2,2,90,0,0
74881,-100,4,2,2,75,0,0
75353,-100,4,2,2,90,0,0
75826,-100,4,2,2,75,0,0
76180,-100,4,2,1,80,0,0
80668,-100,4,2,2,75,0,0
80904,-100,4,2,1,80,0,0
83385,-100,4,2,2,90,0,0
83857,-100,4,2,2,75,0,0
84330,-100,4,2,2,90,0,0
84802,-100,4,2,2,75,0,0
85275,-100,4,1,1,27,0,0
85865,-100,4,2,2,75,0,0
87164,-100,4,2,1,80,0,0
87873,-100,4,2,1,68,0,0
88109,-100,4,2,1,80,0,0
89054,-100,4,2,1,95,0,0
89333,-100,4,2,2,80,0,0
89527,-100,4,2,2,90,0,0
89763,-100,4,2,1,80,0,0
89999,-100,4,2,2,85,0,0
91889,-200,4,2,2,60,0,0
93778,-200,4,2,2,50,0,0
94015,-100,4,2,0,70,0,0
94251,-100,4,1,0,25,0,0
94487,-100,4,1,0,35,0,0
94723,-100,4,1,0,55,0,0
94960,-100,4,1,0,70,0,0
95196,-100,4,1,0,90,0,0
95668,-100,4,2,1,80,0,0
100275,-100,4,1,1,27,0,0
100983,-100,4,2,2,75,0,0
101338,-100,4,2,2,75,0,0
101810,-100,4,2,1,80,0,0
120826,-100,4,1,1,27,0,0
121298,-100,4,2,2,75,0,0
121652,-100,4,2,2,80,0,0
121889,-100,4,2,1,80,0,0
122243,-100,4,2,1,80,0,1
131101,-100,4,1,1,27,0,1
131692,-100,4,2,2,80,0,1
132755,-100,4,2,1,80,0,1
140550,-100,4,2,2,75,0,1
141023,-100,4,2,1,80,0,1
141495,-100,4,2,2,65,0,1
141967,-100,4,2,1,80,0,1
157204,-100,4,2,2,75,0,1
157440,-100,4,2,1,80,0,1
162282,-100,4,2,2,75,0,1
162755,-100,4,2,1,80,0,1
163227,-100,4,2,2,65,0,1
163700,-100,4,2,1,80,0,1
171259,-200,4,2,1,80,0,1
171967,-100,4,2,1,80,0,1
174566,-100,4,1,0,70,0,1
175038,-100,4,2,1,80,0,1
175275,-100,4,2,2,70,0,1
175511,-100,4,2,1,80,0,1
175983,-100,4,1,0,60,0,1
176456,-100,4,2,2,75,0,1
176928,-100,4,2,1,80,0,1
178464,-200,4,2,1,80,0,1
178818,-200,4,2,2,75,0,1
179054,-100,4,2,1,80,0,1
180708,-100,4,2,2,70,0,1
180944,-100,4,2,1,80,0,1
182125,-100,4,2,1,80,0,0
182243,-100,4,2,1,80,0,1
182597,-100,4,2,2,75,0,1
182715,-100,4,2,2,90,0,0
197715,-100,4,2,1,80,0,0
200078,-133.333333333333,4,2,1,80,0,0
202440,-100,4,2,1,80,0,0
203503,-200,4,2,1,80,0,0
204330,-200,4,1,1,30,0,0
204566,-100,4,1,1,27,0,0
204920,-100,4,2,2,75,0,0
205511,-100,4,2,1,80,0,0
211889,-100,4,2,2,75,0,0
212125,-100,4,2,1,80,0,0
215668,-100,4,2,2,75,0,0
215904,-100,4,2,1,80,0,0
216613,-100,4,2,2,75,0,0
216849,-100,4,2,1,80,0,0
218030,-200,4,2,1,80,0,0
218503,-100,4,2,2,75,0,0
218975,-100,4,2,2,80,0,0
219448,-100,4,2,2,75,0,0
219920,-100,4,2,2,80,0,0
220393,-100,4,2,1,80,0,0
222046,-100,4,1,1,30,0,0
222401,-100,4,2,2,75,0,0
222755,-100,4,2,2,75,0,0
222991,-100,4,2,1,80,0,0
224881,-100,4,2,2,75,0,0
225117,-100,4,2,1,80,0,0
226062,-100,4,2,2,80,0,0

[Colours]
Combo1 : 251,132,135
Combo2 : 98,153,255
Combo3 : 255,128,255

[HitObjects]
376,96,46652,1,0
328,232,46889,1,4
192,288,47125,2,0,B|128:296|96:280|96:280,1,90,8|2
240,240,47597,1,4
112,176,47834,1,4
248,224,48070,1,8
72,104,48306,1,2
248,208,48542,1,0
56,16,48778,1,4
368,48,49015,6,0,B|432:96|448:136|448:136,1,90,8|2
432,110,49369,1,0
432,110,49487,1,4
416,256,49723,1,4
288,320,49960,1,8
144,304,50196,2,0,B|128:344|128:344,2,45,2|0|0
144,304,50668,1,4
136,48,50904,6,0,B|176:24|256:16|256:16,1,90,8|2
192,208,51377,2,0,B|152:232|72:240|72:240,1,90,4|4
160,48,51849,6,0,B|204:32|284:41|284:41,1,90,8|2
136,328,52322,2,0,B|91:343|11:334|11:334,2,90,0|4|8
147,320,52912,1,0
155,312,53030,1,2
344,96,53267,5,4
344,96,53385,2,0,B|416:112|472:152|472:152,1,135,0|8
464,328,53975,1,2
456,320,54212,1,0
288,344,54448,1,4
280,336,54684,1,8
136,232,54920,1,2
128,224,55156,6,0,B|104:176|112:120|112:120,1,90,4|4
312,176,55629,2,0,B|336:224|328:280|328:280,1,90,8|2
128,192,56101,6,0,B|115:139|135:87|135:87,1,90,0|4
318,186,56574,2,0,B|330:238|310:290|310:290,1,90,8|2
144,328,57046,6,0,B|80:352|80:352,2,45,4|0|4
120,152,57519,2,0,B|80:120|80:120,2,45,8|0|2
288,96,57991,2,0,B|328:56|328:56,2,45,0|0|4
280,104,58345,1,0
272,112,58464,1,8
256,256,58700,2,0,B|272:304|320:328|320:328,2,90,2|4|4
112,24,59408,6,0,B|72:48|48:96|48:96,1,90,8|2
168,176,59881,2,0,B|167:129|137:84|137:84,1,90,0|4
0,128,60353,2,0,B|40:150|94:147|94:147,1,90,8|2
432,56,60826,5,4
400,168,61062,1,4
264,264,61298,1,8
40,264,61534,1,2
176,80,61771,5,0
208,64,61889,1,0
240,56,62007,1,4
240,56,62243,1,8
376,224,62479,1,2
376,224,62597,1,2
248,312,62834,1,2
224,304,62952,1,2
208,288,63070,1,0
192,280,63188,6,0,B|152:248|136:208|136:208,1,90,8|2
104,72,63660,1,4
240,24,63897,1,4
376,72,64133,2,0,B|424:64|472:16|472:16,2,90,8|2|0
248,128,64841,1,4
368,208,65078,1,8
248,160,65314,1,2
368,288,65550,1,4
240,192,65786,1,4
304,360,66023,5,2
208,24,66495,1,4
208,296,66967,1,2
304,88,67440,1,4
208,208,67912,1,2
304,176,68385,1,4
40,192,68857,5,8
25,201,69093,1,2
108,360,69330,1,0
118,375,69566,1,4
287,307,69802,1,8
302,297,70038,1,2
284,120,70275,1,4
274,105,70511,1,4
96,112,70747,5,8
96,112,70865,2,0,B|56:176|72:248|72:248,1,135,2|0
176,336,71456,1,4
320,352,71692,1,8
440,280,71928,1,2
448,136,72164,2,0,B|424:88|368:64|368:64,1,90,4|4
240,56,72637,1,2
240,56,72755,1,2
128,144,72991,1,2
128,144,73109,1,2
120,288,73345,5,0
128,296,73464,1,0
136,304,73582,2,0,B|168:336|232:352|232:352,1,90,2|0
216,160,74054,2,0,B|184:128|120:112|120:112,1,90,4|0
106,261,74527,6,0,B|126:301|183:336|183:336,1,90,2|0
227,148,74999,2,0,B|206:108|150:73|150:73,1,90,4|0
90,191,75471,6,0,B|92:236|128:292|128:292,1,90,2|0
247,140,75944,2,0,B|246:95|210:40|210:40,1,90,4|0
219,56,76298,1,0
219,56,76416,1,8
344,280,76652,5,2
344,280,76771,1,0
344,280,76889,2,0,B|296:304|240:304|240:304,1,90,0|4
128,176,77361,1,8
128,176,77597,2,0,B|94:134|82:79|82:79,1,90,2|4
184,248,78070,1,4
184,248,78306,2,0,B|218:206|269:183|269:183,1,90,8|2
424,144,78778,5,0
432,160,78897,1,0
440,176,79015,1,4
320,96,79251,1,8
288,80,79369,1,0
248,64,79487,1,2
288,360,79723,6,0,B|240:312|216:248|216:248,1,135,4|2
288,112,80196,6,0,B|270:177|227:230|227:230,1,135,8|2
64,248,80668,6,0,B|129:230|196:241|196:241,1,135,4|0
197,241,81141,1,8
197,241,81259,1,0
197,241,81377,1,2
336,128,81613,5,4
192,24,81849,2,0,B|248:40|296:88|296:88,1,90,4|8
376,216,82322,1,2
368,224,82558,1,2
368,224,82676,1,2
200,296,82912,1,2
200,296,83030,2,0,B|136:272|112:224|112:224,1,90,2|0
240,104,83503,6,0,B|280:64|344:48|344:48,1,90,2|0
448,176,83975,2,0,B|400:160|352:104|352:104,1,90,4|0
288,288,84448,2,0,B|232:264|168:288|168:288,1,90,2|0
56,168,84920,2,0,B|56:112|96:64|96:64,2,90,4|0|2
56,184,85511,1,2
56,200,85629,1,2
56,216,85747,1,2
56,232,85865,2,0,B|56:304|128:344|128:344,1,135,8|0
144,344,86338,2,0,B|200:344|264:384|264:384,1,90,2|8
248,368,86692,1,0
264,368,86810,2,0,B|320:360|360:288|360:288,1,90,8|0
392,136,87282,6,0,B|416:80|464:48|464:48,1,90,8|2
272,120,87755,2,0,B|280:176|336:208|336:208,1,90,0|2
136,208,88227,2,2,B|96:256|96:256,1,45
288,264,88582,2,2,B|352:256|352:256,1,45
224,120,88936,1,4
24,312,89172,1,8
296,296,89408,1,8
48,152,89645,1,2
184,384,89881,1,0
160,240,90117,5,4
312,96,92007,6,0,B|216:80|208:144|208:144|208:232|208:232|296:232|296:232|296:184|296:184|320:184|320:184,1,360,0|4
256,344,94369,5,0
256,336,94605,1,0
256,328,94841,1,0
256,320,95078,1,0
256,312,95314,1,0
144,48,95786,6,0,B|104:80|80:144|80:144,1,90,8|2
368,48,96259,2,0,B|408:80|432:144|432:144,1,90,0|4
136,232,96731,2,0,B|112:280|128:344|128:344,1,90,8|2
376,232,97204,2,0,B|400:280|384:344|384:344,1,90,4|4
256,48,97676,5,8
104,136,97912,1,2
200,288,98149,1,0
352,192,98385,1,4
216,72,98621,1,8
184,248,98857,1,2
312,128,99093,1,4
144,112,99330,1,4
224,272,99566,6,0,B|248:320|328:336|328:336,1,90,8|2
464,264,100038,2,0,B|440:192|384:144|384:144,1,135,0|2
376,136,100511,1,2
360,128,100629,1,2
344,120,100747,1,2
320,112,100865,1,2
296,104,100983,2,0,B|224:96|184:32|184:32,1,135,8|0
185,33,101456,1,4
24,352,101928,6,0,B|80:352|128:304|128:304,1,90,0|4
144,152,102401,1,8
160,184,102519,1,0
168,224,102637,1,2
320,112,102873,2,0,B|280:80|232:72|232:72,1,90,4|4
64,48,103345,1,8
96,80,103464,1,0
136,96,103582,1,2
296,184,103818,5,0
64,320,104054,1,4
368,336,104290,1,8
184,376,104527,1,2
200,272,104763,2,0,B|208:208|240:144|240:144,1,135,4|0
240,143,105235,5,8
496,32,105471,1,2
472,328,105708,1,0
136,208,105944,1,4
432,128,106180,1,8
440,120,106298,1,0
448,112,106416,1,2
120,104,106652,1,4
136,120,106771,1,0
152,136,106889,1,4
384,352,107125,6,0,B|288:328|288:328,1,90,8|2
152,352,107597,2,0,B|248:328|248:328,1,90,0|4
256,152,108070,5,8
256,120,108188,1,0
256,88,108306,1,2
256,56,108424,1,0
256,24,108542,2,0,B|256:216|256:216,1,180,4|8
256,204,109133,1,0
256,204,109251,1,2
88,280,109487,5,4
136,208,109723,2,0,B|144:160|144:112|144:112,1,90,4|8
384,80,110196,5,2
368,168,110432,2,0,B|360:216|328:256|328:256,1,90,0|4
72,64,110904,5,8
240,136,111141,1,2
248,312,111377,1,4
208,136,111613,1,4
104,280,111849,1,2
104,280,111967,1,2
16,120,112204,1,2
16,120,112322,1,2
192,120,112558,1,0
360,176,112794,1,8
376,192,112912,1,0
376,208,113030,1,2
392,216,113149,1,0
392,232,113267,1,4
400,248,113385,1,0
416,264,113503,1,4
256,352,113739,6,0,B|216:360|144:328|144:328,1,90,8|2
80,184,114212,1,0
224,288,114448,1,4
184,32,114684,1,8
272,216,114920,1,2
448,24,115156,1,4
360,96,115393,1,4
360,352,115629,5,8
344,344,115747,1,0
328,336,115865,1,2
152,296,116101,1,0
136,272,116219,1,0
128,232,116338,1,4
184,64,116574,1,8
136,40,116692,1,0
80,32,116810,1,2
352,128,117046,5,4
448,96,117282,1,4
288,320,117519,1,8
288,320,117637,1,0
288,320,117755,2,0,B|240:344|184:344|184:344,2,90,2|0|4
248,144,118464,2,0,B|184:104|184:104,2,45,8|0|2
120,264,118936,5,4
16,32,119172,1,4
56,208,119408,1,8
104,72,119645,1,2
16,144,119881,1,0
88,136,120117,1,4
216,264,120353,5,8
224,280,120471,2,0,B|272:312|336:304|336:304,1,90,0|4
328,304,120826,1,2
352,296,120944,1,2
368,288,121062,1,2
384,280,121180,1,2
400,272,121298,2,0,B|440:216|448:128|448:128,1,135,8|0
440,128,121771,1,4
440,128,122007,5,0
272,56,122243,1,8
272,56,122361,2,0,B|208:64|144:112|144:112,1,135,2|4
104,288,122952,1,4
272,352,123188,1,8
272,352,123306,2,0,B|344:312|376:232|376:232,1,135,2|4
384,80,123897,1,4
384,80,124133,2,0,B|424:40|464:0|464:0,1,90,8|2
192,176,124605,5,0
200,152,124723,1,0
208,128,124841,1,4
208,272,125078,2,0,B|264:264|296:224|296:224,1,90,8|2
103,39,125550,1,4
125,27,125668,1,0
148,16,125786,1,4
7,124,126023,2,0,B|58:152|120:135|120:135,1,90,8|2
304,352,126495,5,0
320,336,126613,1,0
336,320,126731,1,4
352,304,126849,1,0
368,288,126967,1,8
392,112,127204,1,2
216,128,127440,2,0,B|200:176|208:256|208:256,1,90,4|4
72,336,127912,5,8
104,320,128030,1,0
72,304,128149,1,2
96,128,128385,2,0,B|88:96|112:104|104:128|104:128,2,45,0|0|4
272,80,128857,1,8
288,96,128975,1,0
312,120,129093,1,2
152,200,129330,1,4
137,216,129448,1,0
115,242,129566,1,4
312,120,129802,5,8
115,242,130038,1,2
352,104,130275,2,0,B|344:72|368:80|360:104|360:104,2,45,0|0|4
72,256,130747,2,0,B|42:241|63:228|77:249|77:249,2,45,8|0|2
72,256,131101,1,2
88,272,131219,1,2
104,288,131338,1,2
128,296,131456,1,2
152,304,131574,1,2
176,304,131692,6,0,B|224:296|280:264|280:264,3,90,8|0|0|8
280,264,132519,1,0
304,256,132637,2,0,B|320:208|392:128|392:128,1,135,8|0
400,136,133109,1,4
400,136,133345,1,4
240,72,133582,1,8
200,72,133700,1,0
240,72,133818,1,2
200,72,133936,1,0
240,72,134054,1,4
200,72,134172,2,0,B|144:120|112:184|112:184,1,135,0|8
115,176,134645,5,0
200,336,134881,1,2
200,336,134999,1,2
376,312,135235,1,2
384,304,135353,1,2
392,296,135471,2,0,B|424:256|440:176|440:176,1,90,8|2
376,40,135944,5,4
32,232,136180,1,4
488,224,136416,1,8
216,264,136652,1,2
400,336,136889,1,0
248,160,137125,1,4
32,344,137361,6,0,B|48:315|60:338|37:349|37:349,2,45,8|0|2
104,176,137834,2,0,B|112:120|96:80|96:80,1,90,4|4
416,224,138306,2,0,B|368:256|328:256|328:256,1,90,8|2
56,304,138778,2,0,B|72:360|136:376|136:376,1,90,0|4
360,40,139251,2,0,B|376:96|360:144|360:144,1,90,8|2
96,88,139723,2,0,B|48:64|24:8|24:8,2,90,4|4|8
136,112,140668,5,4
168,136,141141,1,8
200,160,141613,1,4
232,184,142086,5,8
256,200,142322,1,2
280,216,142558,1,4
304,232,142794,1,4
328,248,143030,1,8
352,264,143267,1,2
352,264,143503,6,0,B|392:240|424:176|424:176,1,90,0|4
264,296,143975,2,0,B|328:280|368:248|368:248,1,90,8|2
176,288,144448,2,0,B|224:304|280:296|280:296,1,90,4|4
120,48,144920,6,0,B|80:56|56:40|24:48|24:48,1,90,8|2
392,104,145393,2,0,B|432:104|453:85|486:87|486:87,1,90,0|4
144,344,145865,2,0,B|106:327|96:300|65:288|65:288,1,90,8|2
392,344,146338,2,0,B|432:337|449:314|482:311|482:311,1,90,4|4
240,64,146810,5,8
224,80,146928,1,0
208,112,147046,1,2
168,312,147282,5,0
189,305,147401,1,0
219,284,147519,1,4
32,152,147755,5,8
38,172,147873,1,0
60,201,147991,1,2
392,320,148227,5,4
384,136,148464,1,4
224,56,148700,1,8
288,224,148936,1,2
152,336,149172,1,0
64,176,149408,1,4
232,112,149645,1,8
216,288,149881,1,2
48,232,150117,1,4
128,72,150353,1,4
296,128,150590,6,0,B|360:112|416:48|416:48,1,135,8|0
408,56,151062,1,0
400,232,151298,1,4
232,288,151534,2,0,B|176:272|120:208|120:208,1,135,8|0
122,211,152007,1,4
122,211,152243,1,4
122,211,152479,1,8
392,312,152952,5,0
248,336,153188,1,4
112,304,153424,2,0,B|64:280|32:224|32:224,2,90,8|2|4
240,240,154133,1,4
368,176,154369,2,0,B|408:160|480:160|480:160,1,90,8|2
392,32,154841,2,0,B|352:64|336:120|336:120,1,90,0|4
208,56,155314,2,0,B|160:64|112:56|112:56,2,90,8|2|4
96,144,156023,1,4
96,144,156259,6,0,B|144:200|216:232|216:232,1,135,8|2
336,176,156731,2,0,B|263:189|199:235|199:235,1,135,4|2
192,368,157204,2,0,B|216:298|208:220|208:220,1,135,4|0
208,232,157676,5,4
264,96,157912,1,4
400,56,158149,2,0,B|456:40|504:40|504:40,2,90,8|2|0
416,200,158857,1,4
312,296,159093,2,0,B|264:320|192:312|192:312,1,90,8|2
344,240,159566,2,0,B|336:200|288:160|288:160|272:160,1,90,4|4
152,200,160038,5,8
120,176,160156,1,0
104,144,160275,1,2
96,112,160393,1,0
104,80,160511,1,0
120,48,160629,1,0
152,24,160747,1,4
184,24,160865,1,0
216,32,160983,1,8
240,56,161101,1,0
248,88,161219,1,2
240,120,161338,1,0
216,144,161456,1,4
184,152,161574,1,0
152,152,161692,1,4
120,144,161810,1,0
96,112,161928,5,8
304,312,162401,1,4
408,48,162873,1,8
256,192,163345,1,4
392,168,163818,5,8
224,96,164054,1,2
56,176,164290,1,0
72,168,164408,1,0
88,160,164527,1,4
192,304,164763,5,8
355,221,164999,1,2
401,41,165235,1,4
397,58,165353,1,0
393,76,165471,1,4
216,48,165708,6,0,B|184:88|184:160|184:160,1,90,8|2
200,312,166180,2,0,B|160:344|88:344|88:344,1,90,0|4
216,48,166652,5,2
216,48,166771,1,2
200,312,167007,1,2
200,312,167125,1,2
160,136,167361,1,0
272,224,167597,1,8
160,224,167834,5,2
272,136,168070,1,4
280,128,168188,1,0
288,120,168306,1,4
456,64,168542,6,0,B|496:48|496:48,2,45,8|0|2
344,256,169015,1,0
328,272,169133,1,0
312,288,169251,1,4
64,336,169487,6,0,B|8:352|8:352,2,45,8|0|2
160,48,169960,1,4
192,64,170078,1,0
224,80,170196,1,4
440,304,170432,6,0,B|488:280|488:280,2,45,8|0|2
88,312,170904,1,0
128,288,171023,1,0
168,272,171141,1,4
456,48,171377,6,0,B|416:88|416:88,2,45,8|2|4
456,48,172086,5,4
400,216,172322,2,0,B|376:256|320:288|320:288,1,90,8|2
160,304,172794,1,0
160,304,173030,1,4
72,144,173267,2,0,B|88:96|128:64|128:64,1,90,8|2
304,72,173739,2,0,B|328:128|320:184|320:184,1,90,4|4
440,296,174212,5,8
112,336,174684,1,0
352,208,175156,5,8
176,168,175393,1,8
320,88,175629,1,8
232,72,175865,1,2
288,24,176101,5,0
224,360,176574,1,4
312,136,177046,5,0
280,136,177164,1,0
248,144,177282,1,4
224,168,177401,1,0
208,192,177519,1,8
208,224,177637,1,0
208,256,177755,1,2
224,288,177873,1,0
256,288,177991,1,4
288,288,178109,1,0
320,272,178227,1,4
320,240,178345,1,0
320,240,178464,2,0,B|328:248|328:248|328:240|328:240|336:248|336:248|336:240|336:240|344:248|344:248|344:240|344:240|352:248|352:248|352:240|352:240|352:240|352:240|360:240|360:240|352:240|352:240|360:240|360:240,1,90,8|4
320,240,179172,5,0
376,184,179408,1,8
328,104,179645,1,2
224,88,179881,1,4
160,200,180117,1,4
240,304,180353,1,8
384,296,180590,1,2
440,168,180826,1,8
344,40,181062,5,4
184,72,181298,1,8
88,224,181534,1,2
200,368,181771,1,4
448,328,182007,1,4
432,88,182243,1,8
112,32,182479,1,2
24,312,182715,1,4
112,40,197834,6,0,B|136:88|192:104|192:104,1,90,0|4
360,104,198306,2,0,B|336:152|280:184|280:184,1,90,8|2
424,296,198778,2,0,B|384:280|344:240|344:240,1,90,4|4
72,312,199251,2,0,B|120:336|184:328|184:328,1,90,8|2
144,72,199723,5,0
152,80,199841,1,0
160,88,199960,1,4
440,184,200196,2,0,B|464:160|472:112|472:112,1,67.4999979883433,8|2
216,264,200668,5,4
192,272,200786,1,0
168,280,200904,1,4
320,32,201141,2,0,B|312:64|288:96|288:96,1,67.4999979883433,8|2
392,344,201613,5,0
416,312,201731,1,0
448,288,201849,1,4
104,128,202086,2,0,B|128:160|184:184|184:184,1,67.4999979883433,8|2
168,176,202440,1,0
176,184,202558,2,0,B|232:192|288:224|288:224,1,90,4|4
280,224,202912,1,0
304,232,203030,2,0,B|360:224|400:176|400:176,1,90,8|2
400,160,203385,1,0
416,128,203503,6,0,B|456:80|496:64|496:64,2,90,0|8|2
384,120,204566,5,2
352,112,204684,1,2
320,112,204802,1,2
288,112,204920,2,0,B|208:112|160:56|88:112|88:112,1,180,8|4
56,272,205629,1,4
56,272,205865,1,8
216,352,206101,1,2
216,352,206219,1,0
216,352,206338,2,0,B|256:304|272:256|272:256,1,90,4|4
304,104,206810,1,8
304,104,207046,1,2
456,280,207282,5,8
448,288,207401,2,0,B|408:312|296:304|296:304,1,135,2|4
144,240,207991,1,0
80,72,208227,1,8
88,64,208345,2,0,B|136:40|224:32|224:32,1,135,2|4
376,120,208936,1,2
376,120,209172,1,4
400,296,209408,2,0,B|440:328|488:344|488:344,2,90,4|8|2
400,296,210117,5,0
304,336,210353,1,4
96,72,210590,1,8
112,168,210826,1,2
384,80,211062,1,4
352,64,211180,1,0
320,64,211298,1,4
296,48,211416,1,0
264,48,211534,2,0,B|264:40|264:40|256:40|256:40|256:48|256:48|256:56|264:56|264:56|272:48|272:48|272:56|272:56|272:40|272:40|264:64|264:64|280:48|280:48|264:32|264:32|192:64|192:64,1,180,8|8
208,64,212125,6,0,B|176:96|176:96,1,45,0|4
152,120,212361,2,0,B|88:152|88:152,1,45,0|8
96,168,212597,2,4,B|80:216|104:312|104:312,1,135,0|0
272,360,213188,1,4
432,272,213424,1,8
448,248,213542,1,0
456,216,213660,1,2
352,72,213897,1,0
232,208,214133,5,4
72,128,214369,1,8
72,128,214487,1,0
72,128,214605,1,2
128,296,214841,1,4
128,296,214960,1,0
128,296,215078,1,4
304,320,215314,1,8
304,320,215432,1,0
304,320,215550,1,2
344,144,215786,6,0,B|296:96|216:72|216:72,1,135,8|2
224,64,216259,1,8
360,184,216495,1,2
200,96,216731,2,0,B|160:112|64:120|64:120,1,135,8|2
64,136,217204,1,8
224,64,217440,1,2
264,200,217676,5,4
264,248,217912,1,4
264,288,218149,2,0,B|264:344|264:344,1,45,8|2
424,32,218621,6,0,B|456:72|464:112|464:112,1,90,4|0
80,296,219093,2,0,B|80:256|112:208|112:208,1,90,2|0
344,136,219566,2,0,B|328:176|272:192|272:192,1,90,4|0
384,320,220038,2,0,B|424:344|456:376|456:376,1,90,2|0
184,80,220511,5,2
184,80,220629,1,2
192,256,220865,1,2
216,280,220983,1,2
224,312,221101,1,0
248,336,221219,1,2
392,224,221456,2,0,B|424:176|488:144|488:144,2,90,4|4|8
368,240,222046,1,2
344,248,222164,1,2
320,256,222282,1,2
296,264,222401,2,0,B|224:240|176:200|176:200,1,135,8|0
168,208,222873,1,4
168,208,223109,5,0
336,56,223345,1,2
336,56,223464,1,2
112,344,223700,1,2
112,344,223818,2,0,B|80:304|72:256|72:256,2,90,2|0|4
112,344,224527,5,4
488,240,224763,1,8
168,200,224999,1,8
360,192,225235,1,4
312,32,225471,1,4
272,320,225708,1,8
144,64,225944,1,2
464,144,226180,1,4
