osu file format v5

[General]
AudioFilename: Shenmue_DreamingWhileIWake_OC_ReMix.mp3
AudioLeadIn: 0
PreviewTime: -1
Countdown: 0
SampleSet: Soft
StackLeniency: 0.7
Mode: 0
LetterboxInBreaks: 1
EditorDistanceSpacing: 0.800000011920929

[Metadata]
Title:Dreaming While I Wake
Artist:Arkimedes
Creator:Real1
Version:Lan Di (by gyt)
Source:Shenmue I & II
Tags:OCRemix

[Difficulty]
HPDrainRate:8
CircleSize:5
OverallDifficulty:7
SliderMultiplier:1.6
SliderTickRate:2

[Events]
//Background and Video events
0,0,"Shenmue-W07-1.jpg"
//Break Periods
2,58242,62398
2,71600,72033
2,75322,75756
2,82111,82763
2,157220,160501
2,169702,170136
2,173425,173859
2,180213,180866
//Storyboard Layer 0 (Background)
//Storyboard Layer 1 (Fail)
//Storyboard Layer 2 (Pass)
//Storyboard Layer 3 (Foreground)
//Storyboard Sound Samples
//Background Colour Transformations
3,100,163,162,255

[TimingPoints]
21036.1472541529,437.956204379562,4,2,0,60,1,0
54967,-100,4,2,0,51,0,0
55405,-100,4,2,0,41,0,0
55843,-100,4,2,0,31,0,0
56281,-100,4,2,0,21,0,0
56719,-100,4,2,0,11,0,0
58470,-100,4,1,0,60,0,0
82113,-100,4,1,0,41,0,0
105099,-100,4,1,0,69,0,0
105974,-100,4,2,0,71,0,0
147572,-100,4,2,0,40,0,0
152826,-100,4,2,0,31,0,0
154577,-100,4,2,0,21,0,0
155453,-100,4,2,0,18,0,0
157204,-100,4,1,0,50,0,0
179971,-100,4,2,0,46,0,0

[Colours]
Combo1 : 255,255,255
Combo2 : 31,31,31

[HitObjects]
96,192,21036,2,0,B|200:192,1,80
240,192,21474,1,0
304,192,21693,1,0
304,128,21912,6,0,B|112:128|112:128,1,160
144,256,22787,2,0,B|336:256,1,160
160,128,23882,6,0,B|256:128,1,80
304,160,24320,2,0,B|400:160,1,80,0|0
384,224,24758,2,0,B|288:224,1,80,0|2
240,256,25196,2,0,B|144:256,1,80,0|0
32,256,25853,5,2
64,192,26072,1,0
128,160,26291,2,8,B|160:256,1,80,8|0
224,256,26729,5,2
256,192,26948,1,0
320,160,27167,2,8,B|352:256,1,80,8|0
416,256,27605,5,0
448,192,27824,1,0
480,128,28043,1,0
448,64,28262,1,0
384,32,28481,1,0
320,64,28700,1,0
320,64,28809,1,0
320,64,28919,2,0,B|320:160,2,80,8|0|0
384,160,29795,2,4,B|352:192|320:128|384:64,1,160,4|0
96,96,31328,6,0,B|192:96,1,80
192,224,31985,2,0,B|96:224,1,80,0|2
112,224,32313,1,2
112,224,32423,1,8
288,304,33298,5,2
288,240,33517,1,0
288,176,33736,2,8,B|400:176,1,80,8|0
432,176,34174,5,2
432,240,34393,1,0
432,304,34612,2,8,B|336:304,1,80,8|0
288,304,35050,6,0,B|192:304,1,80
144,304,35488,1,0
80,304,35707,1,0
80,240,35926,2,0,B|80:128,1,80
80,96,36364,1,2
80,32,36583,2,0,B|176:32,1,80
224,32,37021,1,2
288,32,37240,1,2
352,32,37459,2,4,B|352:224,1,160,4|0
352,320,38335,5,0
352,320,38444,1,0
352,320,38554,2,2,B|256:320,1,80
208,320,38992,1,2
144,320,39211,2,2,B|32:320,1,80
64,256,39649,1,0
64,192,39868,1,0
64,128,40087,2,0,B|240:128,1,160
288,128,40744,1,2
288,128,40853,1,2
288,128,40963,1,4
256,192,41182,12,0,41839
448,288,42058,6,0,B|448:192,1,80
448,144,42496,1,0
448,80,42714,2,0,B|336:80,1,80
304,80,43152,1,2
240,80,43371,1,2
112,80,43809,6,0,B|112:176,1,80,0|0
112,224,44247,1,0
112,288,44466,2,0,B|208:288,1,80,0|4
400,288,45342,5,0
400,288,45452,1,0
400,288,45561,2,0,B|400:184,1,80
400,144,45999,1,0
400,80,46218,2,0,B|304:80,1,80
256,80,46656,1,2
192,80,46875,1,2
128,80,47094,2,0,B|128:272,1,160,0|0
240,304,47970,1,2
240,304,48079,1,2
240,304,48189,1,4
128,144,48846,6,0,B|224:144,1,80
272,144,49284,1,0
272,144,49393,1,0
272,144,49503,1,0
272,208,49722,2,0,B|176:208,1,80
128,208,50160,2,0,B|128:304,1,80
192,288,50598,2,0,B|288:288,1,80,0|0
336,288,51036,2,0,B|432:288,1,80,0|0
256,192,51474,12,6,52131
144,288,52568,6,0,B|240:288,1,80
288,288,53006,1,0
288,288,53116,1,0
288,288,53225,1,0
416,288,53663,1,0
416,224,53882,1,0
352,224,54101,2,0,B|256:224,1,80
208,224,54539,2,0,B|120:224,1,80,0|0
256,192,54977,12,4,55634
432,112,55853,6,0,B|336:112|368:240|400:176|464:160,1,160
304,176,56729,2,0,B|224:208|224:288|288:256|320:224,1,160
176,240,57605,2,0,B|96:272|96:352|160:320|192:288,1,160
224,192,63298,5,0
288,192,63517,1,0
288,192,63627,1,0
288,192,63736,1,0
288,192,63846,1,0
288,192,63955,1,4
256,192,64393,12,8,65269
208,192,65926,5,0
256,128,66145,1,0
320,160,66364,1,0
320,224,66583,1,0
256,256,66802,1,0
208,192,67021,1,0
208,192,67131,1,0
208,192,67240,1,0
208,192,67350,1,0
208,192,67459,1,4
256,192,67897,12,8,68773
256,192,69430,5,0
256,192,69539,1,0
256,192,69649,1,0
288,128,69868,1,0
288,256,70087,1,0
192,192,70306,1,0
256,192,70525,1,4
256,192,70634,1,4
256,192,70744,1,4
192,192,70963,2,0,B|16:192,1,160,0|0
320,288,72933,5,0
320,224,73152,2,0,B|320:128,1,80
320,80,73590,2,0,B|144:80,1,160
160,144,74247,1,0
160,144,74357,1,0
160,144,74466,1,0
160,208,74685,2,0,B|336:208,1,160
160,144,76656,5,0
160,80,76875,2,0,B|336:80,1,160
320,144,77532,1,0
320,208,77751,1,4
320,208,77860,1,4
320,208,77970,1,4
320,272,78189,2,4,B|144:272,1,160,0|0
256,192,79065,12,8,79722
192,80,80160,6,0,B|288:80,1,80
336,80,80598,1,0
336,80,80707,1,0
336,80,80817,1,0
336,144,81036,1,0
336,208,81255,1,4
336,272,81474,2,4,B|160:272,1,160,0|0
112,64,83663,6,0,B|224:64,1,80
256,64,84101,1,0
320,64,84320,2,0,B|416:64,1,80
400,320,85415,6,0,B|304:320,1,80
256,320,85853,2,0,B|64:320,1,160
96,64,87167,6,0,B|192:64,1,80
176,128,87605,1,0
240,128,87824,2,0,B|416:128,1,160
400,320,88919,2,0,B|288:320,1,80
256,320,89357,1,0
256,192,89795,2,0,B|88:192,1,160,4|0
256,192,90452,12,4,91109
112,32,92204,6,0,B|200:32,1,80
256,32,92641,2,0,B|448:32,1,160
416,352,94174,6,0,B|328:352,1,80
272,352,94612,2,0,B|176:352,1,80
128,352,95050,2,0,B|128:256,1,80
128,208,95488,2,0,B|128:144,1,40
128,168,95707,1,0
128,168,95817,1,0
128,96,96036,2,0,B|128:48,2,40
128,96,96364,2,0,B|128:0,1,80
240,80,97021,5,0
304,80,97240,2,0,B|416:80,1,80
448,80,97678,1,0
448,16,97897,1,0
384,16,98116,2,0,B|208:16,1,160
160,16,98773,1,0
160,80,98992,2,0,B|160:176,3,80
160,224,99868,1,0
224,224,100087,2,4,B|400:224,1,160,4|0
352,160,100744,6,0,B|304:160,2,40
416,160,101182,2,0,B|464:160,2,40
400,224,101620,6,0,B|224:224,1,160
240,288,102277,2,0,B|432:288,1,160
400,224,102933,1,0
400,160,103152,1,0
400,96,103371,6,0,B|336:112|336:176,1,80,0|0
336,208,103809,2,0,B|272:224|272:288,1,80
272,320,104247,2,0,B|208:336|208:400,1,80
160,336,104685,6,0,B|160:224,1,80
160,192,105123,1,0
160,128,105342,2,0,B|160:32,1,80,0|4
352,48,106218,5,0
288,48,106437,2,0,B|288:160,1,80
288,192,106875,2,0,B|288:288,1,80
352,272,107313,1,4
128,48,108408,5,0
192,48,108627,2,0,B|192:144,1,80,0|0
192,192,109065,2,4,B|192:288,1,80,0|0
448,272,110160,5,0
448,272,110269,1,0
448,272,110379,1,4
448,208,110598,1,0
448,144,110817,2,0,B|352:144,1,80
144,272,111912,5,0
144,208,112131,1,0
144,144,112350,1,0
144,80,112568,2,4,B|240:80,1,80,0|0
448,208,113663,5,0
448,208,113773,1,0
448,208,113882,1,4
448,144,114101,1,0
448,80,114320,2,0,B|352:80,1,80
144,208,115415,5,0
144,208,115525,1,0
144,208,115634,1,4
144,144,115853,1,0
144,80,116072,2,0,B|240:80,1,80
448,208,117167,5,0
448,208,117277,1,0
448,208,117386,1,4
448,144,117605,1,0
448,80,117824,2,0,B|352:80,1,80
144,208,118919,5,0
144,208,119028,1,0
144,208,119138,2,0,B|128:272|272:272,1,160
224,144,120014,1,0
224,144,120123,1,0
224,144,120233,2,0,B|288:112|304:256,1,160
160,144,121328,1,0
160,144,121437,1,0
160,144,121547,2,0,B|304:256,1,160,4|0
224,64,122641,5,2
272,112,122860,2,4,B|352:176,1,80,4|0
128,160,123517,5,2
176,208,123736,2,2,B|256:272,1,80,4|2
176,112,124174,5,2
224,160,124393,2,4,B|304:224,1,80,0|0
496,368,125926,5,0
448,336,126145,2,0,B|352:272,1,80
381,291,126474,1,0
381,291,126583,2,0,B|224:176,1,160
112,64,127678,5,0
160,112,127897,2,0,B|224:160|240:80,1,80
272,64,128335,1,0
320,112,128554,2,0,B|384:160|400:80,1,80
352,304,129430,5,2
352,240,129649,2,2,B|256:240,1,80
352,144,130306,5,2
352,144,130415,1,2
352,144,130525,2,2,B|448:144,1,80
240,144,131401,2,4,B|240:320,1,160,4|0
64,32,132933,5,0
112,80,133152,1,0
112,80,133262,1,0
112,80,133371,1,0
224,32,133809,5,2
272,80,134028,2,2,B|336:144,1,80,2|0
416,32,134685,5,0
448,96,134904,2,0,B|352:96,1,80
352,32,135342,1,0
288,32,135561,5,2
240,80,135780,2,2,B|176:144,1,80,2|0
64,192,136437,5,0
112,240,136656,1,0
112,240,136766,1,0
112,240,136875,1,0
224,192,137313,5,2
272,240,137532,2,2,B|336:304,1,80,2|0
416,192,138189,5,0
448,256,138408,2,0,B|352:256,1,80
352,192,138846,1,0
288,192,139065,5,2
240,240,139284,2,0,B|176:304,1,80,2|0
64,352,139941,5,0
112,304,140160,1,0
112,304,140269,1,0
112,304,140379,1,0
224,352,140817,5,2
272,304,141036,2,2,B|336:240,1,80,2|0
416,352,141693,5,0
448,288,141912,2,0,B|352:288,1,80
352,352,142350,1,0
288,352,142568,5,2
240,304,142787,2,0,B|176:240,1,80,2|0
64,192,143444,5,0
112,144,143663,1,0
112,144,143773,1,0
112,144,143882,1,0
224,192,144320,5,2
272,144,144539,2,2,B|336:80,1,80,2|0
400,192,145196,5,0
432,128,145415,2,0,B|336:128,1,80
336,192,145853,1,0
272,192,146072,5,2
224,144,146291,2,0,B|160:80,1,80,2|0
48,32,146948,5,0
112,32,147167,1,0
112,32,147277,1,0
112,32,147386,1,0
48,144,147824,5,2
112,144,148043,2,2,B|208:144,1,80,2|2
192,272,148700,5,0
192,336,148919,2,0,B|96:336,1,80
112,272,149357,1,0
112,208,149576,5,2
112,144,149795,2,0,B|224:144,1,80,2|0
256,32,150452,5,0
320,32,150671,1,0
320,32,150780,1,0
320,32,150890,1,0
256,144,151328,5,2
320,144,151547,2,2,B|416:144,1,80,2|0
400,272,152204,5,0
400,336,152423,2,0,B|304:336,1,80
320,272,152860,1,0
320,208,153079,5,2
320,144,153298,2,0,B|432:144,1,80,2|0
480,32,153955,5,0
416,32,154174,1,0
416,32,154284,1,0
416,32,154393,1,0
480,144,154831,5,2
416,144,155050,2,2,B|320:144,1,80,2|0
336,272,155707,5,0
336,336,155926,2,0,B|432:336,1,80
416,272,156364,1,0
416,208,156583,5,2
416,144,156802,2,0,B|304:144,1,80,2|0
288,192,161401,5,0
224,192,161620,1,0
224,192,161729,1,0
224,192,161839,1,0
224,192,161948,1,0
224,192,162058,1,4
256,192,162496,12,8,163371
304,192,164028,5,0
256,256,164247,1,0
192,224,164466,1,0
192,160,164685,1,0
256,128,164904,1,0
304,192,165123,1,0
304,192,165233,1,0
304,192,165342,1,0
304,192,165452,1,0
304,192,165561,1,4
256,192,165999,12,8,166875
256,192,167532,5,0
256,192,167641,1,0
256,192,167751,1,0
224,256,167970,1,0
224,128,168189,1,0
320,192,168408,1,0
256,192,168627,1,4
256,192,168737,1,4
256,192,168846,1,4
320,192,169065,2,0,B|512:192,1,160,0|0
192,96,171036,5,0
192,160,171255,2,0,B|192:256,1,80
192,304,171693,2,0,B|368:304,1,160
352,240,172350,1,0
352,240,172460,1,0
352,240,172569,1,0
352,176,172788,2,0,B|176:176,1,160
352,240,174759,5,0
352,304,174978,2,0,B|176:304,1,160
192,240,175635,1,0
192,176,175854,1,4
192,176,175963,1,4
192,176,176072,1,4
192,112,176292,2,4,B|368:112,1,160,0|0
256,192,177168,12,8,177824
320,304,178262,6,0,B|224:304,1,80
176,304,178700,1,0
176,304,178810,1,0
176,304,178919,1,0
176,240,179138,1,0
176,176,179357,1,4
176,112,179576,2,4,B|352:112,1,160,0|0
400,320,181766,6,0,B|288:320,1,80
256,320,182204,1,0
192,320,182423,2,0,B|96:320,1,80
112,64,183518,6,0,B|208:64,1,80
256,64,183956,2,0,B|448:64,1,160
416,320,185270,6,0,B|320:320,1,80
336,256,185708,1,0
272,256,185927,2,0,B|96:256,1,160
112,64,187021,6,0,B|224:64,1,80
256,64,187459,1,0
256,192,187897,12,4,188773
