osu file format v5

[General]
AudioFilename: Shenmue_DreamingWhileIWake_OC_ReMix.mp3
AudioLeadIn: 0
PreviewTime: -1
Countdown: 0
SampleSet: Soft
StackLeniency: 0.7
Mode: 0
LetterboxInBreaks: 1
EditorDistanceSpacing: 0.800000011920929

[Metadata]
Title:Dreaming While I Wake
Artist:Arkimedes
Creator:Real1
Version:Chai
Source:Shenmue I & II
Tags:OCRemix

[Difficulty]
HPDrainRate:8
CircleSize:5
OverallDifficulty:7
SliderMultiplier:1.6
SliderTickRate:2

[Events]
//Background and Video events
0,0,"Shenmue-W07-1.jpg"
//Break Periods
2,58455,62390
2,71381,72033
2,74665,75537
2,157185,160463
2,173206,173858
2,176490,177362
//Storyboard Layer 0 (Background)
//Storyboard Layer 1 (Fail)
//Storyboard Layer 2 (Pass)
//Storyboard Layer 3 (Foreground)
//Storyboard Sound Samples
//Background Colour Transformations
3,100,163,162,255

[TimingPoints]
21036.1472541529,437.956204379562,4,2,0,60,1,0
54967,-100,4,2,0,51,0,0
55405,-100,4,2,0,41,0,0
55843,-100,4,2,0,31,0,0
56281,-100,4,2,0,21,0,0
56719,-100,4,2,0,11,0,0
58470,-100,4,1,0,60,0,0
73684,-100,4,2,0,60,0,0
82113,-100,4,1,0,41,0,0
105099,-100,4,1,0,69,0,0
105974,-100,4,2,0,71,0,0
147572,-100,4,2,0,40,0,0
152826,-100,4,2,0,31,0,0
154577,-100,4,2,0,21,0,0
155453,-100,4,2,0,18,0,0
157204,-100,4,1,0,50,0,0
172309,-100,4,2,0,70,0,0
179971,-100,4,2,0,46,0,0

[Colours]
Combo1 : 255,255,255
Combo2 : 31,31,31

[HitObjects]
88,192,21474,5,0
152,192,21693,1,0
216,192,21912,1,0
280,192,22131,6,0,B|280:88,1,80,0|8
280,352,22787,1,4
48,48,23882,6,0,B|232:48,1,160
272,48,24539,1,0
272,48,24758,1,0
336,48,24977,2,0,B|336:136,1,80,0|2
168,224,25853,5,2
168,224,26072,1,0
168,224,26291,1,8
296,224,26729,5,2
296,224,26948,1,0
296,224,27167,1,8
120,152,27824,5,0
184,152,28043,1,0
120,152,28262,1,0
120,88,28481,1,0
120,152,28700,1,0
120,216,28919,6,0,B|120:320,1,80,0|2
472,352,29795,1,4
56,48,31328,5,0
120,48,31547,1,0
184,48,31766,2,0,B|184:136,1,80
184,192,32204,1,2
184,256,32423,1,2
184,320,32641,1,2
336,296,33298,5,2
336,232,33517,1,0
336,168,33736,1,8
336,168,34174,5,2
336,232,34393,1,0
336,296,34612,1,8
216,296,35050,5,0
152,296,35269,1,0
216,296,35488,1,0
152,296,35707,1,0
88,296,35926,2,0,B|88:64,1,160
88,72,36583,1,0
152,72,36802,1,0
216,72,37021,1,0
280,72,37240,1,0
344,72,37459,1,4
480,352,38335,5,0
480,288,38554,1,0
480,224,38773,1,0
480,160,38992,2,2,B|480:64,1,80
480,16,39430,2,0,B|384:16,1,80,0|2
336,16,39868,1,0
272,16,40087,1,0
208,16,40306,1,0
144,16,40525,1,2
80,16,40744,1,2
80,16,40963,1,6
72,312,41401,6,0,B|168:312,1,80,2|2
440,312,42058,6,0,B|440:136,1,160
440,88,42714,1,0
440,152,42933,1,0
440,88,43152,1,2
376,88,43371,1,2
376,152,43590,1,2
376,216,43809,2,0,B|288:216,1,80
232,216,44247,1,0
232,152,44466,1,4
480,352,45561,5,0
480,288,45780,1,0
480,224,45999,2,0,B|480:120,1,80
376,224,46656,1,0
312,224,46875,1,0
248,224,47094,2,0,B|248:136,1,80
248,80,47532,1,2
248,80,47751,1,2
312,80,47970,1,2
248,80,48189,1,4
144,240,48846,6,0,B|216:216|320:264|408:240,1,240
448,248,49722,2,0,B|472:176|424:136|448:72,1,160
376,88,50379,1,0
312,88,50598,1,0
248,88,50817,1,0
184,88,51036,1,2
120,88,51255,1,2
56,88,51474,1,6
104,304,52568,6,0,B|288:304,1,160
328,304,53225,1,0
392,304,53444,1,0
456,304,53663,1,0
456,240,53882,1,0
456,176,54101,1,0
456,48,54539,1,0
392,48,54758,2,0,B|304:48,1,80,0|4
192,48,55196,5,0
192,288,55634,1,0
392,160,56072,1,0
192,48,56510,1,0
192,288,56948,1,0
392,160,57386,1,0
192,48,57824,1,0
192,288,58262,1,0
256,192,63298,5,0
256,192,63517,1,0
320,192,63736,1,0
320,192,63955,1,4
256,192,64174,12,4,65269
72,48,65926,5,0
72,112,66145,1,0
72,48,66364,1,0
72,112,66583,1,0
72,176,66802,2,0,B|120:232|32:248|272:248,1,200,0|4
256,88,67897,5,2
256,88,68116,1,0
256,88,68335,1,8
344,56,68773,1,2
344,56,68992,1,0
344,56,69211,1,8
456,48,69430,5,0
416,96,69649,1,0
376,144,69868,1,0
336,192,70087,1,0
296,240,70306,1,0
256,288,70525,1,4
192,288,70744,1,4
192,224,70963,2,0,B|192:128,1,80,0|4
96,96,72933,5,0
160,96,73152,1,0
224,96,73371,2,0,B|384:376|496:96,1,400,0|4
456,344,76437,6,0,B|360:344,1,80
312,344,76875,1,0
312,280,77094,1,0
312,216,77313,1,0
312,152,77532,2,0,B|312:64,1,80
376,72,77970,1,4
256,32,78408,5,2
192,32,78627,1,0
128,32,78846,1,8
128,160,79284,5,2
192,160,79503,1,0
256,160,79722,1,8
192,272,80160,5,0
192,336,80379,1,0
256,336,80598,1,8
192,336,80817,1,0
128,336,81036,1,0
192,336,81255,1,0
256,336,81474,1,4
256,192,81693,12,4,83663
56,336,84101,5,0
416,336,84758,1,0
416,336,84977,1,0
232,184,85415,1,0
40,40,85853,5,0
320,264,86510,1,0
40,40,87167,5,0
32,280,87605,1,0
152,280,87824,1,0
392,280,88262,5,0
88,80,88919,5,0
328,80,89357,1,0
328,200,89576,1,0
88,200,90014,1,0
424,336,90671,5,4
424,272,90890,1,4
424,208,91109,1,4
96,64,92204,5,0
160,64,92423,2,0,B|248:64,1,80
368,64,93079,1,0
432,64,93298,1,0
432,320,94174,5,0
368,320,94393,2,0,B|280:320,1,80
160,320,95050,2,0,B|160:272,3,40
160,248,95488,2,0,B|160:200,1,40
160,176,95707,2,0,B|160:128,1,40
160,80,96036,2,0,B|208:80,3,40
160,264,97021,6,0,B|352:264,1,160
384,264,97678,5,0
384,200,97897,1,0
384,136,98116,1,0
384,72,98335,1,0
320,72,98554,2,0,B|152:72,1,160
72,336,99868,5,0
200,336,100306,1,4
200,208,100744,6,0,C|200:120,1,80
264,208,101182,2,0,C|264:104,1,80
256,192,101839,12,4,104247
56,48,104904,6,0,B|184:48,1,80
200,48,105342,1,0
264,48,105561,1,4
200,232,106218,6,0,B|376:232,1,160
424,232,106875,1,0
424,168,107094,1,0
424,104,107313,1,4
144,264,108408,5,0
144,200,108627,1,0
144,136,108846,1,0
144,200,109065,1,4
424,40,110160,5,0
424,104,110379,1,0
424,168,110598,1,0
424,232,110817,1,4
120,336,111912,5,0
168,288,112131,1,0
216,336,112350,1,0
168,288,112568,1,4
408,80,113663,5,0
456,40,113882,1,0
408,80,114101,1,0
360,40,114320,1,4
408,344,115415,5,0
456,296,115634,1,0
408,344,115853,1,0
360,296,116072,1,4
112,96,117167,5,0
176,96,117386,1,0
112,96,117605,1,0
112,160,117824,1,4
400,312,118919,5,0
400,248,119138,1,0
400,184,119357,1,2
208,184,120014,1,0
208,248,120233,1,0
456,48,121328,5,0
456,80,121437,1,0
456,112,121547,2,0,B|456:224,1,80,0|4
32,32,122641,5,2
32,96,122860,1,2
432,32,123517,5,2
432,96,123736,1,2
224,192,124174,5,4
224,256,124393,1,4
16,16,125926,5,0
16,80,126145,1,0
16,144,126364,1,0
16,208,126583,1,0
16,208,126802,1,4
264,144,127678,5,0
328,144,127897,1,0
328,144,128116,1,0
328,144,128335,1,0
392,144,128554,1,4
32,352,129430,5,2
32,288,129649,1,2
488,32,130306,5,2
488,96,130525,1,2
488,160,130744,1,2
256,192,131401,1,4
80,192,132933,5,0
144,192,133152,1,0
208,192,133371,1,0
448,40,133809,5,2
448,104,134028,1,2
448,168,134247,1,2
216,336,134685,5,0
216,272,134904,1,0
216,208,135123,1,0
456,48,135561,5,2
456,112,135780,1,2
456,176,135999,1,2
224,280,136437,6,0,B|120:280,1,80
144,280,136875,1,0
288,72,137313,5,2
288,136,137532,2,2,B|288:224,1,80
32,352,138189,5,0
96,352,138408,1,0
96,288,138627,1,0
376,352,139065,5,2
440,352,139284,1,2
440,288,139503,1,2
168,192,139941,5,0
168,128,140160,1,0
168,64,140379,1,0
456,64,140817,6,2,B|408:152,1,80
417,134,141255,1,2
216,336,141693,6,0,B|112:336,1,80
136,336,142131,1,0
384,192,142568,5,2
448,192,142787,1,2
384,192,143006,1,2
120,64,143444,5,0
120,128,143663,1,0
120,192,143882,1,0
408,328,144320,5,2
408,264,144539,1,2
408,328,144758,1,2
120,192,145196,5,0
120,192,145415,1,0
120,256,145634,1,0
400,104,146072,5,2
400,168,146291,1,2
400,104,146510,1,2
80,64,146948,5,0
120,112,147167,1,0
120,112,147386,1,0
480,192,147824,5,2
416,192,148043,1,2
480,192,148262,1,2
200,352,148700,6,0,B|96:352,1,80
56,352,149138,1,0
360,264,149576,5,2
360,200,149795,1,2
360,136,150014,1,2
56,40,150452,6,0,B|56:136,1,80
56,120,150890,1,0
312,280,151328,6,2,B|400:208,1,80
373,229,151766,1,2
88,336,152204,5,0
152,336,152423,1,0
216,336,152641,1,0
376,56,153079,5,2
376,120,153298,1,2
376,184,153517,1,2
80,56,153955,5,0
80,56,154174,1,0
80,56,154393,1,0
416,56,154831,5,2
416,56,155050,1,2
416,56,155269,1,2
168,272,155707,5,0
168,208,155926,1,0
168,272,156145,1,0
480,352,156583,5,2
480,288,156802,1,2
480,224,157021,1,2
256,72,161401,5,0
256,136,161620,1,4
256,200,161839,1,4
256,264,162058,1,4
160,296,162496,5,2
160,296,162714,1,0
160,296,162933,1,8
160,296,163371,5,2
160,296,163590,1,0
160,296,163809,1,8
224,296,164028,6,0,B|392:296,1,160
448,296,164685,2,0,B|448:208,1,80
448,152,165123,1,0
448,88,165342,1,0
448,24,165561,1,4
320,24,165999,5,2
256,24,166218,1,0
192,24,166437,1,8
192,152,166875,5,2
256,152,167094,1,0
320,152,167313,1,8
256,152,167532,6,0,B|256:264,1,80
256,296,167970,1,0
256,360,168189,1,0
256,296,168408,1,0
192,296,168627,2,0,B|72:296,1,80
48,296,169065,1,4
128,184,169503,5,2
128,184,169722,1,0
128,184,169941,1,8
240,184,170379,5,2
240,120,170598,1,0
240,184,170817,1,8
256,192,170926,12,4,173006
120,40,174758,5,0
184,40,174977,1,2
248,40,175196,1,2
312,40,175415,1,2
376,40,175634,1,0
440,40,175853,1,0
440,104,176072,2,0,C|440:192,1,80,0|4
40,352,178262,5,0
104,352,178481,1,0
168,352,178700,1,0
104,352,178919,1,2
40,352,179138,1,2
104,352,179357,1,2
168,352,179576,1,4
256,192,179685,12,2,181328
80,120,181766,5,0
144,120,181985,1,0
208,120,182204,2,0,B|304:120,1,80,0|2
56,344,183517,1,2
56,280,183736,1,2
56,216,183955,1,2
360,56,185050,5,0
360,120,185269,1,0
360,184,185488,1,0
360,120,185707,1,0
360,216,186036,1,4
112,312,186802,6,0,B|96:216|-40:264|112:56,1,240
208,104,187897,1,4
