osu file format v14

[General]
AudioFilename: stardust.mp3
AudioLeadIn: 0
PreviewTime: 520
Countdown: 0
SampleSet: None
StackLeniency: 0.7
Mode: 0
LetterboxInBreaks: 1
WidescreenStoryboard: 0

[Editor]
Bookmarks: 52212,72523,258982,340212
DistanceSpacing: 1.4
BeatDivisor: 4
GridSize: 8
TimelineZoom: 5.299997

[Metadata]
Title:Stardust
TitleUnicode:Stardust
Artist:Arkasia
ArtistUnicode:Arkasia
Creator:Liiraye
Version:Nebula dash
Source:
Tags:
BeatmapID:768830
BeatmapSetID:348524

[Difficulty]
HPDrainRate:7
CircleSize:4
OverallDifficulty:8
ApproachRate:8
SliderMultiplier:2.2
SliderTickRate:3

[Events]
//Background and Video events
0,0,"piccc.jpg",0,0
//Break Periods
2,177950,191770
//Storyboard Layer 0 (Background)
//Storyboard Layer 1 (Fail)
//Storyboard Layer 2 (Pass)
//Storyboard Layer 3 (Foreground)
//Storyboard Sound Samples

[TimingPoints]
51259,2857.14285714286,4,1,0,15,1,0
55922,2857.14285714286,4,1,0,15,1,0
58640,2857.14285714286,4,1,0,15,1,0
66160,2727.27272727273,4,1,0,20,1,0
72771,923.076923076923,4,1,0,35,1,0
72771,-200,4,1,0,35,0,0
73463,1276.59574468085,4,1,0,30,1,0
74101,-100,4,1,0,15,0,0
74435,2857.14285714286,4,1,0,30,1,0
80036,923.076923076923,4,1,0,35,1,0
80036,-200,4,1,0,35,0,0
80266,1276.59574468085,4,1,0,40,1,0
80904,1276.59574468085,4,1,0,15,1,0
81223,-100,4,1,0,35,0,0
81542,-100,4,1,0,15,0,0
81861,2727.27272727273,4,1,0,35,1,0
88224,-100,4,1,0,10,0,0
89136,461.538461538462,4,1,0,70,1,0
192520,-100,4,1,0,5,0,0
194366,-100,4,1,0,15,0,0
196212,-100,4,1,0,20,0,0
197136,-100,4,1,0,25,0,0
198059,-100,4,1,0,35,0,0
198982,-100,4,1,0,25,0,0
199443,-100,4,1,0,30,0,0
199905,-100,4,1,0,35,0,0
200828,-100,4,1,0,40,0,0
201751,-100,4,1,0,45,0,0
203597,-100,4,1,0,50,0,0
205443,-100,4,1,0,55,0,0
207289,-100,4,1,0,70,0,0
222059,-83.3333333333333,4,1,0,60,0,0
340212,-166.666666666667,4,1,0,60,0,0
360520,-166.666666666667,4,1,0,15,0,0
362366,-166.666666666667,4,1,0,60,0,0
367905,-166.666666666667,4,1,0,15,0,0

[HitObjects]
128,201,51259,6,0,B|161:232|207:232|207:232|315:120|436:214,1,343.75
477,54,55922,2,0,P|387:68|315:56,1,165
154,94,58640,6,0,B|122:130|120:160|120:160|39:160|-6:235|6:307|69:363|165:357|211:290|178:227|178:227|144:250|101:243,1,550
244,183,66160,6,0,B|264:221|262:252|262:252|352:220|402:288|402:288|389:335|346:344|316:322|316:322|286:324|255:355|210:329|187:308|174:275|184:232,1,513.333333333333
107,173,72771,6,0,L|92:161,4,13.75
199,113,73463,2,0,P|272:96|364:114,1,146.666666666667
451,182,74435,2,0,B|404:226|363:233|328:204|273:204|273:204|218:207|165:241|165:241|169:269|164:300|142:327|120:339,1,412.5
70,236,80036,6,0,B|69:236|53:235,1,13.75
108,150,80266,2,0,P|162:157|220:151,1,110
395,87,81223,6,0,P|362:72|327:64,1,73.3333333333333
320,146,81861,2,0,B|370:154|404:181|423:215|425:237|425:237|432:270|449:297|449:297|410:288|371:306|371:306|355:341|318:363|285:372|236:367|202:341|194:282,1,513.333333333333
212,96,89136,6,0,L|340:76,1,110
300,188,89482,2,0,L|468:164,1,165
184,344,90059,1,0,0:0:0:0:
110,323,90174,1,0,0:0:0:0:
60,264,90289,1,0,0:0:0:0:
50,187,90405,2,0,L|59:132,2,55
182,161,90751,2,0,L|196:215,1,55
139,34,90982,6,0,P|89:22|31:33,1,110
295,190,91328,2,0,P|376:197|441:149,1,165
252,28,91905,1,0,0:0:0:0:
204,88,92020,1,0,0:0:0:0:
182,161,92135,1,0,0:0:0:0:
188,236,92251,2,0,L|196:296,1,55
52,248,92482,2,0,L|59:193,1,55
60,194,92712,1,0,0:0:0:0:
60,194,92828,1,0,0:0:0:0:
459,194,93174,5,0,0:0:0:0:
459,194,93289,2,0,L|375:205,1,55
372,118,93520,2,0,L|317:124,1,55
281,45,93751,2,0,B|157:58|157:58|123:88,1,165
73,140,94212,1,0,0:0:0:0:
17,194,94328,1,0,0:0:0:0:
79,238,94443,1,0,0:0:0:0:
143,281,94559,1,0,0:0:0:0:
87,335,94675,1,0,0:0:0:0:
86,345,95020,5,0,0:0:0:0:
184,179,95251,1,0,0:0:0:0:
259,172,95366,1,0,0:0:0:0:
336,167,95482,1,0,0:0:0:0:
412,161,95597,2,0,L|417:93,1,55
416,106,95828,1,0,0:0:0:0:
416,106,95943,1,0,0:0:0:0:
313,71,96059,2,0,L|246:80,1,55
164,35,96289,2,0,L|97:44,1,55
36,145,96520,6,0,P|79:204|97:321,1,165
99,292,96982,1,0,0:0:0:0:
374,337,97212,1,0,0:0:0:0:
374,337,97328,1,0,0:0:0:0:
374,337,97443,2,0,L|384:256,1,55
226,147,97789,1,0,0:0:0:0:
226,147,97905,2,0,L|236:217,1,55
400,113,98135,2,0,L|331:115,1,55
219,30,98366,6,0,L|384:29,1,165
383,29,98828,1,0,0:0:0:0:
38,147,99059,2,0,B|125:164|125:164|285:144,1,220
255,147,99635,1,0,0:0:0:0:
255,147,99751,1,0,0:0:0:0:
386,36,99982,1,0,0:0:0:0:
462,256,100212,5,0,0:0:0:0:
387,234,100327,1,0,0:0:0:0:
310,244,100442,1,0,0:0:0:0:
233,254,100559,2,0,L|164:226,2,55
299,332,100905,2,0,B|326:331|326:331|365:317,1,55
146,316,101135,2,0,P|75:308|12:318,1,110
253,166,101482,2,0,P|308:170|363:162,1,110
176,60,101828,2,0,B|149:54|149:54|108:59,1,55
325,51,102059,6,0,P|400:46|471:52,1,110
435,47,102405,1,0,0:0:0:0:
435,47,102520,1,0,0:0:0:0:
268,251,102751,2,0,P|293:241|316:226,1,55
427,331,102982,2,0,P|466:259|486:179,1,165
461,106,103443,1,0,0:0:0:0:
393,68,103559,1,0,0:0:0:0:
316,68,103674,1,0,0:0:0:0:
249,106,103789,1,0,0:0:0:0:
214,175,103905,6,0,L|196:312,1,110
330,355,104251,2,0,L|352:191,1,165
350,181,104828,1,0,0:0:0:0:
350,181,104943,1,0,0:0:0:0:
83,241,105174,1,0,0:0:0:0:
157,260,105289,2,0,B|183:267|183:267|211:265,1,55
345,170,105520,2,0,B|319:163|319:163|290:164,1,55
177,145,105751,6,0,L|170:27,1,110
245,53,106097,1,0,0:0:0:0:
317,78,106212,2,0,B|360:88|360:88|444:75,1,110
177,145,106674,2,0,B|134:135|134:135|50:148,1,110
68,145,107020,1,0,0:0:0:0:
68,145,107135,1,0,0:0:0:0:
202,318,107366,1,0,0:0:0:0:
202,318,107482,1,0,0:0:0:0:
202,318,107597,6,0,P|282:325|354:317,1,110
437,205,107943,2,0,P|382:198|327:204,1,110
327,204,108289,1,0,0:0:0:0:
129,202,108520,2,0,P|125:147|125:92,1,110
183,40,108866,1,0,0:0:0:0:
260,36,108982,2,0,L|326:39,1,55
430,134,109212,2,0,L|375:131,1,55
250,154,109443,6,0,L|233:313,1,110
238,263,109789,1,0,0:0:0:0:
238,263,109905,1,0,0:0:0:0:
382,334,110135,1,0,0:0:0:0:
100,355,110366,2,0,L|84:175,1,165
85,190,110828,1,0,0:0:0:0:
411,68,111059,1,0,0:0:0:0:
411,68,111174,1,0,0:0:0:0:
411,68,111289,6,0,B|408:131|444:169|444:169|414:200|414:200|445:223|456:253|456:253|373:237|348:259|348:259|405:286|415:354,1,440
115,291,112559,1,0,0:0:0:0:
115,291,112674,1,0,0:0:0:0:
262,146,112905,1,0,0:0:0:0:
262,146,113020,1,0,0:0:0:0:
261,146,113135,6,0,P|312:128|362:148,1,110
168,225,113482,2,0,P|116:242|66:222,1,110
66,222,113828,1,0,0:0:0:0:
251,72,114059,1,0,0:0:0:0:
261,146,114174,1,0,0:0:0:0:
485,171,114405,1,0,0:0:0:0:
413,144,114520,1,0,0:0:0:0:
339,161,114635,1,0,0:0:0:0:
287,216,114751,2,0,L|274:280,1,55
166,311,114982,6,0,L|151:125,1,165
68,62,115443,2,0,P|41:108|36:163,1,110
268,291,115905,1,0,0:0:0:0:
287,216,116020,1,0,0:0:0:0:
278,139,116135,1,0,0:0:0:0:
234,75,116251,1,0,0:0:0:0:
304,44,116366,1,0,0:0:0:0:
381,44,116482,1,0,0:0:0:0:
450,76,116597,1,0,0:0:0:0:
406,140,116713,1,0,0:0:0:0:
397,217,116828,6,0,L|413:288,2,55
191,184,117174,2,0,P|136:186|82:198,1,110
217,318,117520,2,0,P|242:326|269:332,1,55
330,168,117751,2,0,L|328:58,1,110
328,58,118097,1,0,0:0:0:0:
328,58,118212,1,0,0:0:0:0:
110,95,118443,1,0,0:0:0:0:
110,95,118559,1,0,0:0:0:0:
110,95,118674,5,0,0:0:0:0:
246,70,118905,1,0,0:0:0:0:
145,167,119135,1,0,0:0:0:0:
242,85,119366,1,0,0:0:0:0:
39,180,119597,1,0,0:0:0:0:
256,168,119828,1,0,0:0:0:0:
113,107,120059,1,0,0:0:0:0:
209,255,120289,1,0,0:0:0:0:
451,141,120520,5,0,0:0:0:0:
347,230,120751,1,0,0:0:0:0:
458,258,120982,1,0,0:0:0:0:
331,112,121212,1,0,0:0:0:0:
460,145,121443,1,0,0:0:0:0:
286,174,121674,1,0,0:0:0:0:
414,58,121905,1,0,0:0:0:0:
208,16,122135,1,0,0:0:0:0:
208,16,122251,1,0,0:0:0:0:
208,16,122366,5,0,0:0:0:0:
81,175,122597,1,0,0:0:0:0:
204,24,122828,1,0,0:0:0:0:
174,131,123059,1,0,0:0:0:0:
69,53,123289,1,0,0:0:0:0:
337,130,123520,1,0,0:0:0:0:
312,20,123751,1,0,0:0:0:0:
182,126,123982,1,0,0:0:0:0:
182,126,124097,1,0,0:0:0:0:
182,126,124212,6,0,P|172:194|178:248,1,110
354,335,124559,2,0,P|356:280|350:225,1,110
350,225,124905,1,0,0:0:0:0:
317,91,125135,1,0,0:0:0:0:
390,66,125251,1,0,0:0:0:0:
463,87,125366,2,0,L|476:143,1,55
350,225,125597,2,0,L|274:210,1,55
219,221,125828,1,0,0:0:0:0:
154,263,125943,1,0,0:0:0:0:
117,331,126059,5,0,0:0:0:0:
54,164,126289,1,0,0:0:0:0:
120,343,126520,1,0,0:0:0:0:
154,189,126751,1,0,0:0:0:0:
37,299,126982,1,0,0:0:0:0:
238,345,127212,1,0,0:0:0:0:
114,263,127443,1,0,0:0:0:0:
365,230,127674,1,0,0:0:0:0:
365,230,127789,1,0,0:0:0:0:
365,230,127905,1,0,0:0:0:0:
226,117,128135,6,0,L|171:111,2,55
471,60,128597,2,0,B|479:114|479:114|474:168,1,110
248,231,129059,1,0,0:0:0:0:
349,119,129289,1,0,0:0:0:0:
81,30,129520,1,0,0:0:0:0:
80,30,129751,6,0,P|135:33|190:27,1,110
342,118,130097,2,0,P|287:114|232:120,1,110
232,120,130443,1,0,0:0:0:0:
56,285,130674,1,0,0:0:0:0:
46,208,130789,1,0,0:0:0:0:
218,44,131020,1,0,0:0:0:0:
232,120,131135,1,0,0:0:0:0:
222,197,131251,1,0,0:0:0:0:
202,272,131366,1,0,0:0:0:0:
276,252,131482,1,0,0:0:0:0:
351,241,131597,6,0,P|406:238|461:246,1,110
461,246,131943,1,0,0:0:0:0:
461,246,132059,1,0,0:0:0:0:
341,125,132289,2,0,P|286:127|231:119,1,110
232,120,132635,1,0,0:0:0:0:
37,124,132867,1,0,0:0:0:0:
49,199,132982,1,0,0:0:0:0:
90,263,133097,1,0,0:0:0:0:
154,305,133213,1,0,0:0:0:0:
230,317,133328,1,0,0:0:0:0:
305,307,133443,6,0,P|317:253|314:198,1,110
219,30,133789,2,0,P|177:100|185:184,1,165
499,271,134366,2,0,P|397:237|299:283,1,220
230,317,134943,1,0,0:0:0:0:
153,327,135059,1,0,0:0:0:0:
77,311,135174,1,0,0:0:0:0:
21,258,135289,6,0,L|13:87,1,165
13,93,135751,2,0,L|85:88,1,55
179,38,135982,2,0,L|251:33,1,55
357,69,136212,2,0,B|364:115|309:150|309:150|275:149|249:159|249:159|209:191|143:198,1,275
144,198,136905,1,0,0:0:0:0:
339,329,137135,6,0,P|448:320|371:242,1,275
371,242,137828,1,0,0:0:0:0:
210,164,138059,1,0,0:0:0:0:
144,124,138174,1,0,0:0:0:0:
140,282,138405,1,0,0:0:0:0:
213,300,138520,1,0,0:0:0:0:
284,276,138635,1,0,0:0:0:0:
331,216,138751,1,0,0:0:0:0:
338,141,138866,1,0,0:0:0:0:
302,75,138982,6,0,P|226:43|146:57,1,165
81,96,139443,1,0,0:0:0:0:
81,97,139559,2,0,P|72:70|67:43,2,55
177,171,139905,2,0,B|224:187|263:179|263:179|301:189|331:216,1,165
330,215,140366,1,0,0:0:0:0:
460,132,140597,1,0,0:0:0:0:
460,132,140712,1,0,0:0:0:0:
460,132,140828,5,0,0:0:0:0:
367,48,141059,1,0,0:0:0:0:
164,111,141289,1,0,0:0:0:0:
362,134,141520,1,0,0:0:0:0:
174,112,141751,1,0,0:0:0:0:
298,88,141982,1,0,0:0:0:0:
120,27,142212,1,0,0:0:0:0:
53,201,142443,2,0,L|6:178,3,27.5
52,200,142674,6,0,P|134:210|217:205,1,165
406,295,143135,2,0,P|422:303|436:314,2,36.6666666666667
406,295,143366,2,0,P|320:289|239:301,1,165
170,329,143828,1,0,0:0:0:0:
131,262,143943,1,0,0:0:0:0:
120,185,144059,1,0,0:0:0:0:
129,108,144174,1,0,0:0:0:0:
156,36,144289,2,0,L|229:21,1,55
338,55,144520,6,0,P|283:125|267:189,1,110
405,295,144866,2,0,P|415:240|413:186,1,110
413,186,145212,1,0,0:0:0:0:
129,108,145443,1,0,0:0:0:0:
99,179,145559,1,0,0:0:0:0:
287,168,145789,1,0,0:0:0:0:
364,170,145905,1,0,0:0:0:0:
436,193,146020,2,0,P|446:166|453:140,2,55
382,284,146366,6,0,P|328:295|273:294,1,110
192,232,146712,2,0,L|147:200,3,36.6666666666667
253,143,147059,2,0,L|257:21,1,110
256,33,148212,5,0,0:0:0:0:
164,232,148443,1,0,0:0:0:0:
236,260,148559,1,0,0:0:0:0:
312,252,148674,2,0,L|328:180,2,55
128,100,149136,1,0,0:0:0:0:
56,132,149251,1,0,0:0:0:0:
20,200,149366,1,0,0:0:0:0:
199,328,149597,1,0,0:0:0:0:
236,260,149712,1,0,0:0:0:0:
271,191,149828,1,0,0:0:0:0:
218,134,149943,1,0,0:0:0:0:
208,57,150059,6,0,P|297:44|420:66,1,165
462,120,150520,2,0,L|479:200,1,55
431,238,150751,1,0,0:0:0:0:
180,200,150982,1,0,0:0:0:0:
176,200,151097,1,0,0:0:0:0:
172,200,151212,1,0,0:0:0:0:
168,200,151328,1,0,0:0:0:0:
164,200,151443,1,0,0:0:0:0:
106,148,151559,1,0,0:0:0:0:
53,203,151674,1,0,0:0:0:0:
48,279,151789,1,0,0:0:0:0:
68,353,151905,6,0,P|147:360|282:350,1,165
480,195,152366,2,0,P|377:190|281:198,1,165
174,254,152828,2,0,L|161:186,1,55
277,78,153059,2,0,L|266:132,1,55
315,193,153289,1,0,0:0:0:0:
317,204,153404,1,0,0:0:0:0:
319,215,153519,1,0,0:0:0:0:
322,226,153635,1,0,0:0:0:0:
324,236,153750,1,0,0:0:0:0:
40,245,154097,6,0,L|70:172,1,55
14,132,154328,1,0,0:0:0:0:
83,100,154443,1,0,0:0:0:0:
36,38,154559,1,0,0:0:0:0:
46,35,154674,1,0,0:0:0:0:
56,33,154789,1,0,0:0:0:0:
66,31,154905,1,0,0:0:0:0:
76,29,155020,5,0,0:0:0:0:
153,30,155136,1,0,0:0:0:0:
221,64,155251,1,0,0:0:0:0:
269,123,155366,1,0,0:0:0:0:
279,199,155482,1,0,0:0:0:0:
269,275,155597,6,0,P|201:291|71:271,1,165
147,189,156059,2,0,L|154:124,2,55
269,123,156520,1,0,0:0:0:0:
345,110,156636,1,0,0:0:0:0:
421,120,156751,1,0,0:0:0:0:
488,157,156866,1,0,0:0:0:0:
481,234,156982,2,0,L|468:319,2,55
404,222,157328,1,0,0:0:0:0:
328,240,157443,6,0,P|299:164|301:82,1,165
210,29,157905,2,0,L|165:89,1,55
132,136,158136,1,0,0:0:0:0:
148,328,158366,1,0,0:0:0:0:
148,328,158482,1,0,0:0:0:0:
148,328,158597,1,0,0:0:0:0:
148,328,158712,1,0,0:0:0:0:
148,328,158828,5,0,0:0:0:0:
224,317,158943,1,0,0:0:0:0:
290,277,159059,1,0,0:0:0:0:
328,210,159174,1,0,0:0:0:0:
336,133,159289,1,0,0:0:0:0:
244,34,159520,6,0,L|288:80,1,55
336,133,159751,1,0,0:0:0:0:
455,35,159982,1,0,0:0:0:0:
181,173,160212,2,0,L|126:181,2,55
245,128,160559,1,0,0:0:0:0:
284,193,160674,1,0,0:0:0:0:
280,269,160789,1,0,0:0:0:0:
252,341,160905,2,0,L|184:348,1,55
284,192,161136,6,0,P|356:157|434:178,1,165
368,275,161597,2,0,L|373:332,1,55
446,354,161828,1,0,0:0:0:0:
460,112,162059,1,0,0:0:0:0:
390,144,162174,1,0,0:0:0:0:
320,176,162289,1,0,0:0:0:0:
250,209,162405,1,0,0:0:0:0:
180,176,162520,2,0,L|156:98,1,55
77,82,162751,2,0,L|53:4,1,55
313,45,162982,6,0,P|395:46|475:26,1,165
250,136,163443,2,0,P|167:134|87:154,1,165
33,242,163905,2,0,L|21:304,2,55
264,271,164366,2,0,L|284:209,1,55
409,66,164597,2,0,L|383:137|383:137,1,55
320,152,164828,1,0,0:0:0:0:
107,61,165174,5,0,0:0:0:0:
67,127,165289,2,0,L|69:181,2,55
256,65,165751,1,0,0:0:0:0:
256,65,165866,1,0,0:0:0:0:
256,65,165982,1,0,0:0:0:0:
256,65,166097,1,0,0:0:0:0:
256,65,166212,5,0,0:0:0:0:
328,88,166327,1,0,0:0:0:0:
375,148,166442,1,0,0:0:0:0:
382,223,166558,1,0,0:0:0:0:
345,289,166674,6,0,B|248:247|229:341|133:290,1,220
177,142,167366,1,0,0:0:0:0:
32,39,167597,2,0,L|50:120,1,55
60,168,167828,1,0,0:0:0:0:
312,185,168059,2,0,L|378:170,1,55
434,206,168289,1,0,0:0:0:0:
453,281,168405,1,0,0:0:0:0:
471,355,168520,1,0,0:0:0:0:
178,220,168866,5,0,0:0:0:0:
178,220,168982,2,0,L|171:158,2,55
249,249,169328,1,0,0:0:0:0:
323,230,169443,2,0,L|334:284,2,55
364,164,169789,1,0,0:0:0:0:
360,86,169905,1,0,0:0:0:0:
305,31,170020,1,0,0:0:0:0:
227,23,170136,2,0,L|158:40,1,55
257,132,170366,6,0,P|286:225|302:314,1,165
48,351,170828,2,0,P|64:270|89:191,1,165,0|0,0:1|0:1,0:1:0:0:
138,98,171289,2,0,L|205:89,1,55
343,207,171520,2,0,L|288:199,1,55
172,242,171751,1,0,0:0:0:0:
207,309,171866,1,0,0:0:0:0:
272,348,171981,1,0,0:0:0:0:
348,346,172097,1,0,0:0:0:0:
412,304,172212,6,0,P|439:227|437:145,1,165
361,73,172674,2,0,L|299:72,1,55
217,26,172905,2,0,L|155:25,1,55
59,250,173136,2,0,L|147:243,1,55
187,177,173366,2,0,L|275:170,1,55
373,312,173597,2,0,L|381:243,1,55
241,172,173828,2,0,L|247:226,1,55
383,129,174059,6,0,P|353:54|279:21,1,165
178,71,174520,2,0,L|122:55,2,55
234,124,174866,1,0,0:0:0:0:
222,200,174982,2,0,L|184:264,2,55
295,177,175328,1,0,0:0:0:0:
366,204,175443,1,0,0:0:0:0:
390,277,175559,1,0,0:0:0:0:
365,349,175674,1,0,0:0:0:0:
291,372,175789,1,0,0:0:0:0:
217,346,175905,6,0,P|168:308|51:295,1,165
44,186,176366,2,0,L|36:131,1,55
78,65,176597,1,0,0:0:0:0:
318,88,176828,1,0,0:0:0:0:
331,163,176943,1,0,0:0:0:0:
324,240,177059,2,0,L|264:263,1,55
179,171,177289,1,0,0:0:0:0:
254,157,177404,1,0,0:0:0:0:
331,163,177519,1,0,0:0:0:0:
404,188,177635,1,0,0:0:0:0:
468,230,177750,1,0,0:0:0:0:
312,272,192520,6,0,L|384:256,2,73.3333333333333
216,232,192982,2,0,L|104:224,2,73.3333333333333
312,168,193443,2,0,L|384:144,1,73.3333333333333
381,144,193751,1,0,0:0:0:0:
232,96,193905,2,0,L|216:16,2,73.3333333333333
84,164,194366,6,0,P|66:205|62:262,2,73.3333333333333
211,224,194828,2,0,P|228:269|237:317,2,73.3333333333333
132,286,195289,2,0,L|121:365,1,73.3333333333333
121,358,195597,1,0,0:0:0:0:
329,332,195751,2,0,L|428:328,2,73.3333333333333
409,196,196212,5,0,0:0:0:0:
409,196,196366,2,0,P|424:134|423:92,1,73.3333333333333
166,61,196674,1,0,0:0:0:0:
166,61,196828,2,0,P|170:98|181:133,1,73.3333333333333
320,283,197136,1,0,0:0:0:0:
320,283,197289,2,0,P|260:255|228:251,1,73.3333333333333
49,264,197597,1,0,0:0:0:0:
48,264,197751,2,0,P|49:300|57:336,1,73.3333333333333
292,170,198059,5,0,0:0:0:0:
292,170,198212,2,0,L|298:77,1,73.3333333333333
40,99,198520,2,0,P|60:130|94:156,2,73.3333333333333
150,57,198982,1,0,0:0:0:0:
222,47,199136,1,0,0:0:0:0:
294,36,199289,1,0,0:0:0:0:
384,74,199443,2,0,L|397:157,2,73.3333333333333
248,148,199905,5,0,0:0:0:0:
242,169,200059,1,0,0:0:0:0:
236,190,200212,1,0,0:0:0:0:
336,244,200366,1,0,0:0:0:0:
341,265,200520,1,0,0:0:0:0:
346,286,200674,1,0,0:0:0:0:
231,301,200828,5,0,0:0:0:0:
187,306,200982,1,0,0:0:0:0:
142,311,201136,1,0,0:0:0:0:
61,217,201289,1,0,0:0:0:0:
104,221,201443,1,0,0:0:0:0:
149,226,201597,1,0,0:0:0:0:
172,140,201751,6,0,L|161:62,2,73.3333333333333
278,111,202212,2,0,L|284:20,2,73.3333333333333
389,106,202674,2,0,L|410:26,2,73.3333333333333
401,199,203136,1,0,0:0:0:0:
411,241,203289,1,0,0:0:0:0:
422,283,203443,1,0,0:0:0:0:
331,346,203597,6,0,P|294:346|258:351,1,73.3333333333333
186,368,203905,1,0,0:0:0:0:
320,264,204059,2,0,P|283:264|247:269,1,73.3333333333333
131,290,204366,1,0,0:0:0:0:
311,178,204520,2,0,P|274:178|238:183,1,73.3333333333333
165,197,204828,1,0,0:0:0:0:
303,92,204982,2,0,P|266:92|230:97,1,73.3333333333333
113,114,205289,1,0,0:0:0:0:
29,196,205443,6,0,P|26:287|33:311,2,73.3333333333333
144,221,205905,1,0,0:0:0:0:
213,243,206059,1,0,0:0:0:0:
282,265,206212,1,0,0:0:0:0:
399,255,206366,2,0,P|395:311|388:349,2,73.3333333333333
402,181,206828,1,0,0:0:0:0:
344,135,206982,2,0,L|242:124,1,73.3333333333333
194,37,207289,6,0,L|177:107,1,55
79,208,207520,1,0,0:0:0:0:
143,175,207636,1,0,0:0:0:0:
214,175,207751,2,0,L|278:194,2,55
173,312,208212,2,0,L|254:306,1,55
328,331,208443,2,0,L|391:325,1,55
487,225,208674,2,0,L|390:237,1,55
266,190,208905,2,0,L|326:178,1,55
434,130,209136,6,0,L|412:22,1,110
412,22,209482,1,0,0:0:0:0:
318,77,209597,2,0,L|244:80,1,55
186,28,209828,1,0,0:0:0:0:
22,134,210059,1,0,0:0:0:0:
28,142,210174,1,0,0:0:0:0:
34,150,210289,1,0,0:0:0:0:
41,158,210405,1,0,0:0:0:0:
47,166,210520,5,0,0:0:0:0:
115,144,210636,1,0,0:0:0:0:
186,138,210751,1,0,0:0:0:0:
256,147,210866,1,0,0:0:0:0:
320,177,210982,6,0,P|334:257|333:343,1,165
434,254,211443,2,0,P|433:171|447:90,1,165
381,37,211905,2,0,L|302:26,1,55
256,147,212136,2,0,L|335:136,1,55
347,244,212366,1,0,0:0:0:0:
351,276,212482,1,0,0:0:0:0:
355,309,212597,2,0,L|352:372,2,55
205,251,213174,6,0,L|136:272,1,55
88,233,213405,1,0,0:0:0:0:
88,233,213521,1,0,0:0:0:0:
227,48,213751,1,0,0:0:0:0:
227,48,213866,1,0,0:0:0:0:
227,48,213982,1,0,0:0:0:0:
227,48,214097,1,0,0:0:0:0:
227,48,214212,5,0,0:0:0:0:
253,114,214327,1,0,0:0:0:0:
280,180,214442,1,0,0:0:0:0:
297,248,214558,1,0,0:0:0:0:
283,318,214674,2,0,P|202:335|99:315,1,165
29,242,215136,2,0,P|109:225|219:248,1,165
451,204,215597,2,0,P|378:242|297:248,1,165
59,107,216059,2,0,P|131:68|212:62,1,165
378,192,216520,6,0,P|378:274|398:354,1,165
233,224,216982,2,0,P|232:141|212:61,1,165
433,42,217443,2,0,P|388:110|377:191,1,165
87,359,217905,2,0,P|131:290|142:209,1,165
86,165,218366,5,0,0:0:0:0:
84,154,218481,1,0,0:0:0:0:
82,143,218596,1,0,0:0:0:0:
80,132,218712,1,0,0:0:0:0:
113,56,218828,5,0,0:0:0:0:
140,37,218943,1,0,0:0:0:0:
170,24,219059,1,0,0:0:0:0:
203,19,219174,1,0,0:0:0:0:
290,65,219289,5,0,0:0:0:0:
259,103,219404,1,0,0:0:0:0:
240,149,219519,1,0,0:0:0:0:
236,198,219635,1,0,0:0:0:0:
362,232,219751,5,0,0:0:0:0:
301,205,219866,1,0,0:0:0:0:
236,198,219981,1,0,0:0:0:0:
171,210,220097,1,0,0:0:0:0:
113,240,220212,2,0,L|96:292,1,55
228,350,220443,2,0,L|223:295,1,55
171,210,220674,5,0,0:0:0:0:
134,169,220789,1,0,0:0:0:0:
121,116,220904,1,0,0:0:0:0:
135,64,221020,1,0,0:0:0:0:
172,24,221135,1,0,0:0:0:0:
224,8,221250,1,0,0:0:0:0:
278,18,221366,1,0,0:0:0:0:
320,53,221481,1,0,0:0:0:0:
340,103,221597,1,0,0:0:0:0:
333,157,221712,1,0,0:0:0:0:
302,201,221828,2,0,L|295:288,1,55
176,230,222059,6,0,P|170:186|168:143,2,87.9999973144532
300,87,222520,2,0,P|343:82|385:70,2,87.9999973144532
98,51,222982,2,0,P|78:88|61:143,2,87.9999973144532
218,71,223443,1,0,0:0:0:0:
251,152,223597,1,0,0:0:0:0:
289,231,223751,1,0,0:0:0:0:
403,201,223905,6,0,L|425:99,2,87.9999973144532
314,309,224366,2,0,L|384:374,2,87.9999973144532
181,232,224828,2,0,L|85:252,2,87.9999973144532
257,135,225289,1,0,0:0:0:0:
171,117,225443,1,0,0:0:0:0:
85,101,225597,1,0,0:0:0:0:
48,218,225751,6,0,P|46:284|51:320,2,87.9999973144532
171,117,226212,2,0,P|175:59|174:24,2,87.9999973144532
362,224,226674,2,0,P|409:248|446:259,2,87.9999973144532
220,304,227135,2,0,P|177:315|137:332,2,87.9999973144532
249,183,227597,6,0,L|252:78,2,87.9999973144532
428,124,228059,1,0,0:0:0:0:
366,29,228212,1,0,0:0:0:0:
251,19,228366,1,0,0:0:0:0:
156,78,228520,2,0,P|113:77|69:72,2,87.9999973144532
174,191,228982,2,0,P|217:191|261:196,2,87.9999973144532
63,159,229443,5,0,0:0:0:0:
174,191,229597,1,0,0:0:0:0:
261,117,229751,1,0,0:0:0:0:
461,204,229905,5,0,0:0:0:0:
377,214,230059,1,0,0:0:0:0:
294,222,230212,1,0,0:0:0:0:
105,221,230366,1,0,0:0:0:0:
28,305,230520,1,0,0:0:0:0:
135,344,230674,1,0,0:0:0:0:
246,315,230828,2,0,P|288:325|330:338,2,87.9999973144532
174,191,231289,5,0,0:0:0:0:
160,103,231443,1,0,0:0:0:0:
144,16,231597,1,0,0:0:0:0:
287,83,231751,1,0,0:0:0:0:
279,170,231905,1,0,0:0:0:0:
270,257,232059,1,0,0:0:0:0:
146,341,232212,1,0,0:0:0:0:
233,347,232366,1,0,0:0:0:0:
321,350,232520,1,0,0:0:0:0:
415,273,232674,2,0,P|409:212|402:168,2,87.9999973144532
270,257,233135,6,0,L|149:241,1,87.9999973144532
120,182,233443,1,0,0:0:0:0:
345,107,233597,2,0,L|329:228,1,87.9999973144532
270,257,233905,1,0,0:0:0:0:
195,32,234059,2,0,L|316:48,1,87.9999973144532
345,107,234367,1,0,0:0:0:0:
120,182,234520,2,0,P|129:139|132:95,2,87.9999973144532
115,188,234982,6,0,P|120:144|120:100,2,87.9999973144532
321,225,235443,2,0,P|316:268|311:312,1,87.9999973144532
311,312,235751,1,0,0:0:0:0:
311,312,235905,2,0,P|190:193|204:362,1,439.999986572266
357,188,236828,6,0,P|411:181|458:183,2,87.9999973144532
183,265,237289,2,0,P|122:268|73:267,2,87.9999973144532
220,110,237751,2,0,L|212:-2,2,87.9999973144532
277,240,238212,1,0,0:0:0:0:
351,282,238366,1,0,0:0:0:0:
429,325,238520,1,0,0:0:0:0:
431,172,238674,6,0,P|437:114|446:73,2,87.9999973144532
351,282,239135,2,0,P|359:325|362:369,2,87.9999973144532
182,217,239597,2,0,P|105:211|65:217,2,87.9999973144532
291,139,240059,1,0,0:0:0:0:
232,74,240212,1,0,0:0:0:0:
170,11,240366,1,0,0:0:0:0:
67,126,240520,6,0,P|53:178|48:234,2,87.9999973144532
232,74,240982,2,0,P|309:53|358:48,2,87.9999973144532
211,237,241443,2,0,P|214:290|221:337,2,87.9999973144532
395,191,241905,2,0,P|435:175|470:149,2,87.9999973144532
191,153,242366,6,0,L|69:129,2,87.9999973144532
291,257,242828,1,0,0:0:0:0:
174,335,242982,1,0,0:0:0:0:
72,256,243135,1,0,0:0:0:0:
107,128,243289,2,0,P|106:72|96:10,2,87.9999973144532
169,247,243751,2,0,P|170:303|180:365,2,87.9999973144532
277,123,244212,5,0,0:0:0:0:
387,50,244366,1,0,0:0:0:0:
469,153,244520,1,0,0:0:0:0:
363,233,244674,1,0,0:0:0:0:
420,299,244828,1,0,0:0:0:0:
478,364,244982,1,0,0:0:0:0:
347,348,245135,1,0,0:0:0:0:
363,233,245289,1,0,0:0:0:0:
379,119,245443,1,0,0:0:0:0:
290,53,245597,2,0,P|331:19|376:11,2,87.9999973144532
237,124,246059,5,0,0:0:0:0:
139,152,246212,1,0,0:0:0:0:
52,134,246366,1,0,0:0:0:0:
210,204,246520,1,0,0:0:0:0:
198,291,246674,1,0,0:0:0:0:
149,364,246828,1,0,0:0:0:0:
273,260,246982,1,0,0:0:0:0:
357,283,247135,1,0,0:0:0:0:
427,336,247289,1,0,0:0:0:0:
466,218,247443,2,0,L|474:117,2,87.9999973144532
318,167,247905,6,0,P|276:159|232:165,1,87.9999973144532
150,197,248212,1,0,0:0:0:0:
284,56,248366,2,0,P|353:71|394:69,1,87.9999973144532
458,66,248674,1,0,0:0:0:0:
405,206,248828,2,0,L|399:306,1,87.9999973144532
397,381,249135,1,0,0:0:0:0:
225,321,249289,2,0,L|329:305,1,87.9999973144532
399,293,249597,1,0,0:0:0:0:
329,238,249751,5,0,0:0:0:0:
289,159,249905,1,0,0:0:0:0:
317,75,250059,1,0,0:0:0:0:
401,52,250212,1,0,0:0:0:0:
386,150,250366,1,0,0:0:0:0:
289,159,250520,1,0,0:0:0:0:
206,126,250674,1,0,0:0:0:0:
105,223,250828,2,0,L|17:248,2,87.9999973144532
286,209,251289,1,0,0:0:0:0:
353,109,251443,1,0,0:0:0:0:
427,200,251597,6,0,P|408:278|163:134,2,527.999983886719
427,200,253597,1,0,0:0:0:0:
312,55,253751,5,0,0:0:0:0:
225,35,253905,2,0,P|115:35|33:56,1,175.999994628906
51,49,254366,1,0,0:0:0:0:
101,168,254520,2,0,L|112:267,2,87.9999973144532
192,117,254982,2,0,P|222:86|262:68,1,87.9999973144532
297,184,255289,5,0,0:0:0:0:
192,118,255443,2,0,P|188:85|188:25,1,87.9999973144532
262,68,255751,1,0,0:0:0:0:
143,255,255905,2,0,P|90:269|44:272,1,87.9999973144532
211,322,256212,2,0,P|298:315|384:330,1,175.999994628906
384,330,256674,1,0,0:0:0:0:
428,215,256828,2,0,L|421:116,1,87.9999973144532
200,151,257135,6,0,P|243:147|287:139,2,87.9999973144532
414,48,257597,2,0,P|370:40|328:29,2,87.9999973144532
211,43,258059,2,0,P|124:44|43:77,1,175.999994628906
103,191,258520,2,0,P|108:254|106:295,2,87.9999973144532
218,144,258982,5,0,0:0:0:0:
303,127,259135,1,0,0:0:0:0:
389,141,259289,2,0,P|404:100|412:57,1,87.9999973144532
259,270,259597,1,0,0:0:0:0:
317,334,259751,1,0,0:0:0:0:
403,350,259905,2,0,P|446:343|488:330,1,87.9999973144532
132,237,260212,1,0,0:0:0:0:
44,241,260366,2,0,P|28:199|24:156,2,87.9999973144532
133,142,260828,5,0,0:0:0:0:
251,82,260982,1,0,0:0:0:0:
381,68,261135,2,0,L|492:92,1,87.9999973144532
358,271,261443,1,0,0:0:0:0:
235,222,261597,1,0,0:0:0:0:
132,141,261751,2,0,P|104:108|82:70,1,87.9999973144532
311,27,262059,1,0,0:0:0:0:
326,157,262212,1,0,0:0:0:0:
282,282,262366,2,0,P|266:322|245:361,1,87.9999973144532
115,252,262674,6,0,P|274:147|85:173,2,527.999983886719
73,86,264674,6,0,L|85:173,1,87.9999973144532
183,184,264982,1,0,0:0:0:0:
183,184,265135,2,0,L|305:162,1,87.9999973144532
386,73,265443,1,0,0:0:0:0:
453,206,265597,1,0,0:0:0:0:
413,284,265751,1,0,0:0:0:0:
346,341,265905,1,0,0:0:0:0:
209,272,266059,1,0,0:0:0:0:
128,305,266212,1,0,0:0:0:0:
39,296,266366,6,0,P|19:258|20:214,2,87.9999973144532
128,197,266828,2,0,P|139:109|114:24,1,175.999994628906
115,26,267289,1,0,0:0:0:0:
234,84,267443,1,0,0:0:0:0:
321,91,267597,1,0,0:0:0:0:
408,80,267751,2,0,L|425:181,2,87.9999973144532
287,233,268212,6,0,L|277:320,2,87.9999973144532
186,150,268674,2,0,P|104:121|25:155,1,175.999994628906
25,155,269136,1,0,0:0:0:0:
62,285,269289,1,0,0:0:0:0:
148,299,269443,1,0,0:0:0:0:
234,283,269597,2,0,P|318:278|365:286,2,87.9999973144532
124,205,270059,5,0,0:0:0:0:
158,124,270212,1,0,0:0:0:0:
240,92,270366,1,0,0:0:0:0:
327,102,270520,2,0,L|343:11,1,87.9999973144532
342,15,270828,1,0,0:0:0:0:
449,142,270982,2,0,L|460:336,1,175.999994628906
320,274,271443,2,0,P|236:258|185:265,2,87.9999973144532
353,158,271905,6,0,L|370:55,2,87.9999973144532
197,115,272366,2,0,L|180:12,2,87.9999973144532
61,179,272829,1,0,0:0:0:0:
38,264,272983,1,0,0:0:0:0:
55,349,273136,1,0,0:0:0:0:
226,311,273289,1,0,0:0:0:0:
334,242,273443,1,0,0:0:0:0:
160,210,273597,1,0,0:0:0:0:
263,127,273751,6,0,L|383:114,1,87.9999973144532
420,108,274059,1,0,0:0:0:0:
248,130,274212,2,0,L|368:117,1,87.9999973144532
438,106,274520,1,0,0:0:0:0:
230,134,274674,2,0,L|350:121,1,87.9999973144532
455,103,274982,1,0,0:0:0:0:
215,138,275136,2,0,L|335:125,1,87.9999973144532
470,100,275443,1,0,0:0:0:0:
419,189,275597,6,0,L|427:312,1,87.9999973144532
429,347,275905,1,0,0:0:0:0:
418,174,276059,2,0,L|426:297,1,87.9999973144532
430,363,276366,1,0,0:0:0:0:
302,294,276520,2,0,L|201:278,1,87.9999973144532
127,266,276828,1,0,0:0:0:0:
231,104,276982,2,0,P|318:98|406:98,1,175.999994628906
266,197,277443,5,0,0:0:0:0:
266,197,277597,2,0,P|222:199|178:200,1,87.9999973144532
170,22,277905,1,0,0:0:0:0:
170,22,278059,2,0,P|180:83|186:126,1,87.9999973144532
21,168,278366,1,0,0:0:0:0:
21,168,278520,2,0,P|95:143|129:138,1,87.9999973144532
378,112,278828,1,0,0:0:0:0:
377,112,278982,2,0,P|334:117|290:118,1,87.9999973144532
273,31,279289,5,0,0:0:0:0:
290,117,279443,1,0,0:0:0:0:
264,201,279597,1,0,0:0:0:0:
188,246,279751,1,0,0:0:0:0:
99,247,279905,1,0,0:0:0:0:
138,168,280059,2,0,L|148:62,1,87.9999973144532
348,61,280366,1,0,0:0:0:0:
360,66,280520,1,0,0:0:0:0:
374,69,280674,1,0,0:0:0:0:
386,75,280828,1,0,0:0:0:0:
396,84,280982,1,0,0:0:0:0:
402,94,281136,5,0,0:0:0:0:
405,181,281289,1,0,0:0:0:0:
380,265,281443,1,0,0:0:0:0:
301,356,281597,1,0,0:0:0:0:
268,274,281751,1,0,0:0:0:0:
259,186,281905,1,0,0:0:0:0:
204,51,282059,1,0,0:0:0:0:
116,41,282212,1,0,0:0:0:0:
33,71,282366,1,0,0:0:0:0:
118,188,282520,2,0,L|102:298,2,87.9999973144532
311,83,282982,5,0,0:0:0:0:
398,75,283136,1,0,0:0:0:0:
473,31,283289,1,0,0:0:0:0:
441,209,283443,1,0,0:0:0:0:
365,164,283597,1,0,0:0:0:0:
277,169,283751,1,0,0:0:0:0:
199,348,283905,1,0,0:0:0:0:
284,325,284059,1,0,0:0:0:0:
326,248,284212,1,0,0:0:0:0:
226,100,284366,2,0,L|220:12,2,87.9999973144532
131,209,284828,5,0,0:0:0:0:
131,209,284982,1,0,0:0:0:0:
131,209,285136,1,0,0:0:0:0:
288,173,285289,5,0,0:0:0:0:
288,173,285443,1,0,0:0:0:0:
288,173,285597,1,0,0:0:0:0:
92,89,285751,5,0,0:0:0:0:
92,89,285905,1,0,0:0:0:0:
92,89,286059,1,0,0:0:0:0:
352,56,286212,5,0,0:0:0:0:
352,56,286366,1,0,0:0:0:0:
352,56,286520,1,0,0:0:0:0:
271,304,286674,5,0,0:0:0:0:
271,304,286828,1,0,0:0:0:0:
271,304,286982,1,0,0:0:0:0:
397,304,287136,2,0,P|466:303|507:309,2,87.9999973144532
147,292,287597,2,0,P|76:142|205:251,1,439.999986572266
132,208,288520,5,0,0:0:0:0:
122,120,288674,1,0,0:0:0:0:
113,32,288828,1,0,0:0:0:0:
245,27,288982,1,0,0:0:0:0:
327,62,289136,1,0,0:0:0:0:
407,98,289290,1,0,0:0:0:0:
344,213,289443,1,0,0:0:0:0:
273,266,289597,1,0,0:0:0:0:
202,318,289751,1,0,0:0:0:0:
219,198,289905,2,0,L|208:93,2,87.9999973144532
273,266,290366,5,0,0:0:0:0:
356,293,290520,1,0,0:0:0:0:
440,317,290674,1,0,0:0:0:0:
208,317,290828,1,0,0:0:0:0:
124,341,290982,1,0,0:0:0:0:
41,368,291136,1,0,0:0:0:0:
113,198,291289,1,0,0:0:0:0:
195,168,291443,1,0,0:0:0:0:
279,143,291597,1,0,0:0:0:0:
373,175,291751,2,0,L|448:219,2,87.9999973144532
292,233,292212,6,0,P|470:163|277:149,2,527.999983886719
217,186,294212,5,0,0:0:0:0:
130,204,294366,2,0,L|120:298,1,87.9999973144532
24,225,294674,1,0,0:0:0:0:
16,137,294828,1,0,0:0:0:0:
9,49,294982,2,0,B|142:61|142:61|111:11,1,175.999994628906
92,141,295443,1,0,0:0:0:0:
188,255,295597,1,0,0:0:0:0:
335,282,295751,1,0,0:0:0:0:
429,165,295905,6,0,P|438:122|439:78,2,87.9999973144532
256,158,296366,2,0,P|213:160|170:172,2,87.9999973144532
335,282,296828,2,0,P|345:324|360:366,2,87.9999973144532
332,193,297289,1,0,0:0:0:0:
368,112,297443,1,0,0:0:0:0:
406,32,297597,1,0,0:0:0:0:
234,45,297751,6,0,P|191:47|147:43,2,87.9999973144532
368,112,298212,2,0,P|449:112|475:115,2,87.9999973144532
175,195,298674,2,0,P|107:200|40:192,2,87.9999973144532
263,203,299136,1,0,0:0:0:0:
344,234,299289,1,0,0:0:0:0:
426,264,299443,1,0,0:0:0:0:
447,154,299597,6,0,P|455:93|455:35,2,87.9999973144532
277,281,300059,2,0,P|270:324|270:368,2,87.9999973144532
121,142,300520,2,0,P|96:139|21:143,2,87.9999973144532
359,160,300982,2,0,P|402:159|446:153,2,87.9999973144532
255,74,301443,2,0,P|190:56|151:54,1,87.9999973144532
169,54,301751,1,0,0:0:0:0:
207,171,301905,1,0,0:0:0:0:
176,253,302059,1,0,0:0:0:0:
100,297,302212,1,0,0:0:0:0:
65,204,302366,6,0,B|126:147|207:170|207:170|205:235|225:281|278:318|351:310|399:292|422:255,1,439.999986572266
417,158,303289,1,0,0:0:0:0:
303,142,303443,1,0,0:0:0:0:
189,129,303597,1,0,0:0:0:0:
105,273,303751,1,0,0:0:0:0:
219,273,303905,1,0,0:0:0:0:
333,270,304059,1,0,0:0:0:0:
364,42,304212,1,0,0:0:0:0:
249,45,304366,1,0,0:0:0:0:
134,45,304520,1,0,0:0:0:0:
48,136,304674,2,0,P|34:183|30:225,2,87.9999973144532
194,130,305136,5,0,0:0:0:0:
219,240,305289,1,0,0:0:0:0:
305,314,305443,1,0,0:0:0:0:
481,292,305597,1,0,0:0:0:0:
451,181,305751,1,0,0:0:0:0:
374,96,305905,1,0,0:0:0:0:
172,53,306059,1,0,0:0:0:0:
122,155,306212,1,0,0:0:0:0:
140,268,306366,1,0,0:0:0:0:
305,314,306520,2,0,P|358:332|384:350,2,87.9999973144532
270,196,306982,6,0,P|271:130|282:70,1,87.9999973144532
296,23,307289,1,0,0:0:0:0:
427,160,307443,2,0,P|444:200|450:243,1,87.9999973144532
444,332,307751,1,0,0:0:0:0:
234,272,307905,2,0,P|175:272|122:287,1,87.9999973144532
62,304,308212,1,0,0:0:0:0:
185,151,308366,2,0,P|228:156|272:152,1,87.9999973144532
356,125,308674,1,0,0:0:0:0:
292,62,308828,5,0,0:0:0:0:
220,15,308981,1,0,0:0:0:0:
134,20,309135,1,0,0:0:0:0:
67,75,309289,1,0,0:0:0:0:
150,103,309443,1,0,0:0:0:0:
188,182,309597,1,0,0:0:0:0:
157,264,309751,1,0,0:0:0:0:
291,269,309905,2,0,L|383:289,2,87.9999973144532
86,187,310366,1,0,0:0:0:0:
150,103,310520,1,0,0:0:0:0:
235,64,310674,6,0,B|347:11|414:121|414:121|386:164|389:214|389:214|327:209|306:147|306:147|252:192|190:168,2,527.999983886719
235,64,312674,5,0,0:0:0:0:
131,106,312828,1,0,0:0:0:0:
64,34,312982,2,0,P|33:113|77:186,1,175.999994628906
158,238,313443,2,0,P|177:306|179:343,1,87.9999973144532
85,353,313751,1,0,0:0:0:0:
283,364,313905,2,0,P|332:367|370:362,2,87.9999973144532
291,266,314366,6,0,P|296:223|296:179,1,87.9999973144532
296,179,314674,1,0,0:0:0:0:
170,69,314828,2,0,P|140:151|157:237,1,175.999994628906
157,237,315289,1,0,0:0:0:0:
291,266,315443,2,0,P|334:268|378:266,1,87.9999973144532
180,333,315751,2,0,P|137:328|93:329,1,87.9999973144532
93,329,316059,1,0,0:0:0:0:
80,180,316212,6,0,P|73:137|70:93,2,87.9999973144532
235,103,316674,2,0,P|248:61|268:21,2,87.9999973144532
296,280,317136,1,0,0:0:0:0:
296,280,317289,2,0,P|358:303|408:313,1,87.9999973144532
396,168,317597,2,0,P|439:159|483:159,2,87.9999973144532
191,249,318059,5,0,0:0:0:0:
141,176,318212,1,0,0:0:0:0:
113,92,318366,2,0,P|111:46|120:-5,1,87.9999973144532
243,131,318674,1,0,0:0:0:0:
330,128,318828,1,0,0:0:0:0:
412,92,318982,2,0,P|455:58|473:30,1,87.9999973144532
254,40,319289,1,0,0:0:0:0:
243,131,319443,1,0,0:0:0:0:
263,216,319597,2,0,P|279:256|306:291,1,87.9999973144532
399,197,319905,5,0,0:0:0:0:
263,216,320059,1,0,0:0:0:0:
142,270,320212,2,0,P|106:293|75:325,1,87.9999973144532
45,155,320520,1,0,0:0:0:0:
176,168,320674,1,0,0:0:0:0:
302,130,320828,2,0,P|344:118|380:94,1,87.9999973144532
386,283,321136,1,0,0:0:0:0:
263,237,321289,1,0,0:0:0:0:
134,266,321443,2,0,P|95:287|63:317,1,87.9999973144532
295,327,321751,6,0,P|284:118|136:266,2,527.999983886719
243,225,323751,1,0,0:0:0:0:
283,118,323905,1,0,0:0:0:0:
381,59,324059,2,0,P|400:98|412:140,2,87.9999973144532
198,47,324520,1,0,0:0:0:0:
110,54,324674,1,0,0:0:0:0:
24,73,324828,1,0,0:0:0:0:
99,199,324982,1,0,0:0:0:0:
185,217,325136,1,0,0:0:0:0:
272,225,325289,1,0,0:0:0:0:
367,297,325443,6,0,P|398:267|423:231,2,87.9999973144532
220,301,325905,2,0,P|116:298|33:331,1,175.999994628906
49,321,326366,1,0,0:0:0:0:
82,194,326520,2,0,L|98:91,1,87.9999973144532
244,95,326828,2,0,P|320:86|369:65,2,87.9999973144532
189,229,327289,6,0,P|198:310|218:355,2,87.9999973144532
343,229,327751,2,0,P|425:203|468:129,1,175.999994628906
468,129,328212,1,0,0:0:0:0:
352,63,328366,2,0,L|247:46,1,87.9999973144532
112,181,328674,2,0,L|228:168,2,87.9999973144532
112,325,329136,6,0,L|25:311,2,87.9999973144532
251,268,329597,2,0,P|337:263|416:302,1,175.999994628906
416,302,330059,1,0,0:0:0:0:
442,156,330212,2,0,P|401:82|376:65,1,87.9999973144532
328,170,330520,2,0,P|284:171|241:166,2,87.9999973144532
304,85,330982,5,0,0:0:0:0:
223,48,331136,1,0,0:0:0:0:
137,64,331289,1,0,0:0:0:0:
46,144,331443,1,0,0:0:0:0:
126,180,331597,1,0,0:0:0:0:
211,160,331751,1,0,0:0:0:0:
319,213,331905,5,0,0:0:0:0:
362,289,332059,1,0,0:0:0:0:
321,366,332212,1,0,0:0:0:0:
191,246,332366,1,0,0:0:0:0:
211,160,332520,1,0,0:0:0:0:
274,98,332674,1,0,0:0:0:0:
403,125,332828,6,0,L|416:250,1,87.9999973144532
419,283,333136,1,0,0:0:0:0:
402,111,333289,2,0,L|411:198,1,87.9999973144532
421,300,333597,1,0,0:0:0:0:
401,97,333751,2,0,L|410:184,1,87.9999973144532
423,315,334059,1,0,0:0:0:0:
400,83,334212,2,0,L|409:170,1,87.9999973144532
425,330,334520,1,0,0:0:0:0:
296,311,334674,6,0,L|176:298,1,87.9999973144532
139,292,334982,1,0,0:0:0:0:
311,314,335135,2,0,L|191:301,1,87.9999973144532
121,290,335443,1,0,0:0:0:0:
161,190,335597,2,0,P|169:129|182:78,1,87.9999973144532
198,17,335905,1,0,0:0:0:0:
304,138,336059,2,0,P|313:225|310:313,1,175.999994628906
119,324,336520,5,0,0:0:0:0:
119,324,336674,2,0,P|75:326|31:322,1,87.9999973144532
216,136,336982,1,0,0:0:0:0:
216,136,337136,2,0,P|259:133|303:137,1,87.9999973144532
69,184,337443,1,0,0:0:0:0:
69,184,337597,2,0,P|66:140|70:96,1,87.9999973144532
241,281,337905,1,0,0:0:0:0:
241,281,338059,2,0,P|245:324|242:368,1,87.9999973144532
140,270,338366,5,0,0:0:0:0:
177,190,338520,1,0,0:0:0:0:
258,156,338674,1,0,0:0:0:0:
345,168,338828,1,0,0:0:0:0:
409,228,338982,1,0,0:0:0:0:
412,316,339136,1,0,0:0:0:0:
290,255,339289,1,0,0:0:0:0:
310,93,339443,2,0,L|413:86,1,87.9999973144532
165,58,339751,1,0,0:0:0:0:
101,203,339905,2,0,L|15:184,1,87.9999973144532
199,324,340212,6,0,L|250:321,2,43.9999986572266
122,279,340674,2,0,L|71:276,2,43.9999986572266
232,156,341136,2,0,L|238:104,2,43.9999986572266
283,227,341597,1,0,0:0:0:0:
283,227,341751,2,0,L|351:232,1,43.9999986572266
409,263,342059,6,0,L|419:323,2,43.9999986572266
426,176,342520,2,0,L|469:165,2,43.9999986572266
414,88,342982,1,0,0:0:0:0:
414,88,343136,2,0,L|401:15,1,43.9999986572266
320,26,343443,1,0,0:0:0:0:
320,26,343597,2,0,L|311:74,1,43.9999986572266
250,133,343905,6,0,L|183:147,2,43.9999986572266
345,229,344366,1,0,0:0:0:0:
313,311,344520,2,0,L|268:322,1,43.9999986572266
412,186,344828,1,0,0:0:0:0:
449,265,344982,2,0,L|450:323,1,43.9999986572266
261,242,345289,2,0,L|260:198,2,43.9999986572266
180,278,345751,5,0,0:0:0:0:
40,169,346059,5,0,0:0:0:0:
40,169,346212,2,0,L|32:91,2,43.9999986572266
178,141,346674,1,0,0:0:0:0:
243,116,346828,1,0,0:0:0:0:
307,88,346982,1,0,0:0:0:0:
377,89,347136,2,0,L|435:119,2,43.9999986572266
368,224,347597,6,0,L|343:188,3,43.9999986572266
244,263,348212,2,0,L|248:307,3,43.9999986572266
107,242,348828,2,0,L|125:202,3,43.9999986572266
241,91,349443,5,0,0:0:0:0:
241,91,349597,2,0,L|261:147,2,43.9999986572266
133,64,350059,1,0,0:0:0:0:
133,64,350212,2,0,L|68:56,2,43.9999986572266
354,52,350674,1,0,0:0:0:0:
354,52,350828,2,0,L|418:22,2,43.9999986572266
331,191,351289,5,0,0:0:0:0:
351,258,351443,1,0,0:0:0:0:
369,325,351597,2,0,L|365:389,1,43.9999986572266
214,296,351905,1,0,0:0:0:0:
144,301,352058,1,0,0:0:0:0:
73,307,352212,2,0,L|7:283,1,43.9999986572266
136,180,352520,1,0,0:0:0:0:
137,109,352674,1,0,0:0:0:0:
140,38,352828,2,0,L|155:-10,1,43.9999986572266
234,30,353136,5,0,0:0:0:0:
388,113,353443,5,0,0:0:0:0:
430,174,353597,2,0,L|436:230,1,43.9999986572266
341,320,353905,1,0,0:0:0:0:
318,248,354059,1,0,0:0:0:0:
294,177,354212,1,0,0:0:0:0:
243,231,354366,1,0,0:0:0:0:
194,287,354520,1,0,0:0:0:0:
128,250,354674,1,0,0:0:0:0:
62,212,354828,1,0,0:0:0:0:
32,280,354982,5,0,0:0:0:0:
154,130,355289,1,0,0:0:0:0:
154,130,355443,2,0,L|144:65,2,43.9999986572266
254,102,355905,2,0,L|256:52,1,43.9999986572266
350,95,356212,1,0,0:0:0:0:
324,141,356366,1,0,0:0:0:0:
314,193,356520,1,0,0:0:0:0:
320,245,356674,1,0,0:0:0:0:
335,295,356828,6,0,L|360:350,1,43.9999986572266
283,349,357136,2,0,L|233:355,1,43.9999986572266
188,305,357443,2,0,L|179:253,2,43.9999986572266
120,326,357905,2,0,L|116:372,2,43.9999986572266
72,273,358366,2,0,L|78:212,1,43.9999986572266
104,194,358674,6,0,L|96:129,2,43.9999986572266
147,206,359136,2,0,L|213:204,3,43.9999986572266
234,195,359751,1,0,0:0:0:0:
268,168,359905,1,0,0:0:0:0:
278,125,360059,1,0,0:0:0:0:
273,81,360212,1,0,0:0:0:0:
249,43,360366,1,0,0:0:0:0:
156,25,360520,5,0,0:0:0:0:
156,25,360982,1,0,0:0:0:0:
156,25,361212,2,0,L|79:33,1,65.9999979858399
90,31,361905,1,0,0:0:0:0:
45,155,362366,6,0,L|36:212,2,43.9999986572266
79,183,362828,2,0,L|86:234,2,43.9999986572266
120,197,363289,2,0,L|136:252,2,43.9999986572266
163,205,363751,2,0,L|190:249,2,43.9999986572266
194,173,364212,6,0,P|235:145|286:128,1,87.9999973144532
310,150,364674,2,0,P|365:138|415:101,1,87.9999973144532
427,96,365136,2,0,P|442:157|450:209,1,87.9999973144532
440,225,365597,1,0,0:0:0:0:
390,298,365905,5,0,0:0:0:0:
347,310,366059,2,0,L|288:310,2,43.9999986572266
331,288,366520,2,0,L|272:266,2,43.9999986572266
330,261,366982,2,0,L|290:221,2,43.9999986572266
341,237,367443,2,0,L|323:182,2,43.9999986572266
433,224,367905,5,0,0:0:0:0:
433,224,368443,1,0,0:0:0:0:
433,224,368674,2,0,L|449:140,1,65.9999979858399
445,159,369443,1,0,0:0:0:0:
402,92,369905,5,0,0:0:0:0:
402,92,370443,1,0,0:0:0:0:
402,92,370674,2,0,L|342:61,1,65.9999979858399
343,61,371443,1,0,0:0:0:0:
292,75,371751,2,0,L|177:112,1,109.999996643067
163,119,372289,1,0,0:0:0:0:
139,131,372443,2,0,L|142:183,2,43.9999986572266
229,198,372982,2,0,L|246:244,2,43.9999986572266
