osu file format v5

[General]
AudioFilename: 01. Arisa - Sincerità.mp3
AudioLeadIn: 0
PreviewTime: -1
Countdown: 1
SampleSet: Normal
StackLeniency: 0.7
Mode: 0
LetterboxInBreaks: 1

[Metadata]
Title:Sincerita
Artist:Arisa
Creator:lele94
Version:Normal
Source:
Tags:

[Difficulty]
HPDrainRate:5
CircleSize:5
OverallDifficulty:5
SliderMultiplier:1.4
SliderTickRate:2

[Events]
//Background and Video events
0,0,"arisasinceritcover.jpg"
//Break Periods
2,15200,16810
2,32025,33156
2,80939,83723
2,164417,167201
//Storyboard Layer 0 (Background)
//Storyboard Layer 1 (Failing)
//Storyboard Layer 2 (Passing)
//Storyboard Layer 3 (Foreground)
//Storyboard Sound Samples
//Background Colour Transformations
3,100,163,162,255

[TimingPoints]
0,521.739130434783,4,1,0,20,1,0

[Colours]
Combo1 : 255,255,0
Combo2 : 5,240,5
Combo3 : 64,128,128
Combo4 : 255,0,128

[HitObjects]
96,80,1565,1,10
208,80,2086,1,10
152,176,2608,1,10
376,280,4043,1,10
296,200,4565,1,10
384,128,5087,1,10
288,64,5608,2,10,B|232:128|232:128|176:48|176:48|128:112|128:112|80:56,1,315
296,304,8217,1,10
360,208,8739,1,10
256,152,9261,1,10
344,80,9783,5,10
232,48,10304,2,2,B|128:72|128:72|56:144|56:144|88:240|88:240|144:280,1,350
288,248,12260,1,10
344,152,12782,1,10
248,96,13304,1,10
144,48,13826,2,10,B|264:56|264:56|344:120|344:120|272:248,1,350
88,80,18000,5,10
168,160,18521,1,10
248,80,19043,1,10
248,80,19565,2,10,B|320:80|320:80|400:168|400:168|320:240|320:240|256:256|256:256|256:240,2,350
160,80,22565,1,2
160,200,23086,1,8
232,264,25043,1,10
328,208,25565,1,10
368,104,26086,1,10
264,56,26608,2,10,B|192:120|192:120|128:40|128:40|96:88,1,245
136,96,29217,5,10
88,168,29739,1,10
168,248,30260,1,10
248,248,30652,2,14,B|336:176|336:176|288:136,1,175
352,256,34956,5,2
408,160,35478,1,2
352,64,36000,1,2
128,64,37043,1,2
208,136,37565,1,2
96,136,38086,1,2
64,240,38608,1,2
176,256,39130,1,2
288,264,39651,1,2
384,320,40173,1,2
376,96,41086,5,10
264,96,41608,1,10
152,96,42130,1,10
64,208,42782,1,10
144,208,43173,1,10
392,312,44347,1,10
392,88,45391,1,10
280,88,45913,1,10
280,200,46434,1,10
280,312,46956,1,10
64,48,48000,5,8
256,48,48913,1,8
360,240,50086,1,10
320,136,50608,1,10
264,232,51130,1,10
200,136,51651,1,12
208,288,53086,1,10
320,288,53608,1,10
320,176,54130,1,10
72,264,55826,1,8
328,96,57260,5,10
216,96,57782,1,10
120,152,58304,1,10
208,224,58826,1,10
448,184,60000,1,8
152,264,61434,1,10
264,264,61956,2,2,B|296:296|296:296|312:264|312:264|328:296|328:296|352:264|352:264|368:296|368:296|384:264|384:264|408:296|408:296|416:272,1,280
384,200,64173,1,10
392,88,64695,1,10
280,88,65217,1,10
72,128,66130,5,10
72,240,66652,1,10
152,312,67173,1,10
240,240,67695,1,10
352,240,68217,1,10
440,312,69391,1,10
440,112,70304,1,10
216,112,71347,1,10
120,168,71869,1,10
216,224,72391,5,10
328,224,72913,1,10
328,336,73434,1,10
104,96,75000,1,10
216,96,75521,1,10
328,96,76043,1,10
328,208,76565,1,10
408,320,77217,1,8
352,320,77478,2,2,B|320:304|320:304|304:336|304:336|272:312|272:312|248:328|248:328|208:304|208:304|184:328|184:328|160:304,1,245
112,200,79173,1,10
120,88,79695,5,10
232,88,80217,1,10
344,88,80739,1,10
352,264,84913,5,10
128,264,85956,1,10
128,264,86478,1,8
376,264,87652,1,10
368,152,88173,1,10
256,152,88695,1,10
256,264,89217,1,10
144,264,89739,1,10
144,152,90260,1,10
312,176,91695,1,10
392,176,92217,5,10
384,64,92739,1,10
272,64,93260,1,10
160,64,93782,1,10
160,176,94304,1,10
104,152,95869,1,10
240,152,96521,1,10
352,152,97043,1,10
328,232,97434,1,14
