osu file format v14

[General]
AudioFilename: FINALLY.mp3
AudioLeadIn: 0
PreviewTime: 5701
Countdown: 1
SampleSet: Soft
StackLeniency: 0.7
Mode: 0
LetterboxInBreaks: 1
WidescreenStoryboard: 1

[Editor]
Bookmarks: 8274
DistanceSpacing: 0.8
BeatDivisor: 4
GridSize: 4
TimelineZoom: 1

[Metadata]
Title:Finally
TitleUnicode:Finally
Artist:Ariel
ArtistUnicode:Ariel
Creator:aaronzzz
Version:ZONROX
Source:TV Commercial
Tags:Ariel 7.50 nalang tipid-pack holy shit m8
BeatmapID:677235
BeatmapSetID:298862

[Difficulty]
HPDrainRate:7
CircleSize:5
OverallDifficulty:7.5
ApproachRate:9
SliderMultiplier:3.49999990463257
SliderTickRate:2

[Events]
//Background and Video events
0,0,"BARIELG.jpg",0,0
Video,0,"Finally Ariel_(720p).avi"
//Break Periods
//Storyboard Layer 0 (Background)
//Storyboard Layer 1 (Fail)
//Storyboard Layer 2 (Pass)
//Storyboard Layer 3 (Foreground)
//Storyboard Sound Samples

[TimingPoints]
-226,500,4,2,0,100,1,0
5274,500,4,2,0,100,1,1
21270,500,4,2,0,100,1,0

[Colours]
Combo1 : 255,255,255
Combo2 : 0,202,0

[HitObjects]
80,56,274,5,8,0:0:0:0:
424,56,524,1,4,0:3:0:0:
256,324,774,1,8,0:0:0:0:
200,56,1024,5,8,3:0:0:0:
144,112,1149,1,8,3:0:0:0:
128,180,1274,1,4,3:0:0:0:
132,256,1399,2,0,B|192:280|192:280|216:336,1,87.4999976158143
280,304,1649,2,0,B|289:282|289:282|349:254,1,87.4999976158143,0|8,0:0|0:0,0:0:0:0:
396,204,1899,1,0,0:0:0:0:
372,136,2024,2,0,P|304:88|208:132,1,174.999995231629,4|8,0:0|0:0,0:0:0:0:
144,100,2399,2,0,P|132:192|192:256,1,174.999995231629,8|8,0:0|0:0,0:0:0:0:
224,316,2774,2,0,P|316:264|296:156,1,174.999995231629,8|8,0:0|0:0,0:0:0:0:
448,128,3274,5,4,3:0:0:0:
368,112,3399,1,0,0:3:0:0:
296,76,3524,1,0,0:0:0:0:
220,72,3649,1,0,0:0:0:0:
176,132,3774,1,4,0:0:0:0:
188,208,3899,1,0,0:0:0:0:
256,244,4024,1,0,0:0:0:0:
260,312,4149,5,0,0:0:0:0:
204,352,4274,1,4,0:3:0:0:
136,336,4399,1,0,0:0:0:0:
88,276,4524,1,0,0:0:0:0:
76,208,4649,1,0,0:0:0:0:
72,136,4774,2,0,B|72:68|72:68|116:24|192:16|216:60,2,179.999995231629,12|0|4,0:0|0:0|0:3,0:0:0:0:
250,238,5524,2,0,B|196:224|196:224|144:112,1,174.999995231628,0|8,0:0|0:0,0:0:0:0:
364,288,6024,2,0,B|304:188|304:188|228:168,1,174.999995231628
176,136,6399,1,0,0:0:0:0:
184,56,6524,5,0,0:0:0:0:
116,16,6649,2,0,P|56:56|96:124,1,87.4999976158142,0|8,0:0|0:0,0:0:0:0:
116,184,6899,2,0,P|176:144|136:76,1,87.4999976158142
92,16,7149,2,0,P|40:56|80:124,1,87.4999976158142
136,188,7399,2,0,P|188:144|148:72,1,87.4999976158142
184,56,7649,1,0,0:0:0:0:
260,20,7774,1,8,0:0:0:0:
300,96,7899,1,0,0:0:0:0:
216,136,8024,6,0,P|204:208|284:252,1,174.999995231628
356,236,8399,1,0,0:0:0:0:
404,292,8524,1,0,0:0:0:0:
360,352,8649,1,0,0:0:0:0:
288,348,8774,6,0,L|260:260,1,87.4999976158142,8|0,0:0|0:0,0:0:0:0:
152,232,9024,2,0,L|104:344,1,87.4999976158142
56,224,9274,2,0,B|32:184|32:184|68:140,1,87.4999976158142
112,112,9524,1,0,0:0:0:0:
172,80,9649,2,0,B|208:52|208:52|220:-12,1,87.4999976158142,0|8,0:0|0:0,0:0:0:0:
284,12,9899,1,0,0:0:0:0:
292,84,10024,2,0,B|244:160|244:160|300:248,1,174.999995231628
360,232,10399,1,0,0:0:0:0:
284,228,10524,1,0,0:0:0:0:
372,224,10649,1,0,0:0:0:0:
268,240,10774,1,8,0:0:0:0:
376,212,10899,1,0,0:0:0:0:
256,260,11024,2,0,B|224:304|224:304|100:304,1,174.999995231628,0|4,0:0|0:3,0:0:0:0:
188,60,11524,2,0,L|188:260,1,174.999995231628
328,168,12024,2,0,L|180:56,1,174.999995231628,0|4,0:0|0:3,0:0:0:0:
216,304,12524,2,0,L|332:164,1,174.999995231628,0|8,0:0|0:0,0:0:0:0:
376,112,12899,1,8,0:0:0:0:
320,64,13024,1,8,0:3:0:0:
276,120,13149,1,4,3:3:0:0:
232,176,13274,6,0,L|144:280,2,87.4999976158142,4|0|0,3:2|0:0|0:2,0:0:0:0:
276,112,13649,2,0,P|304:76|240:20,1,87.4999976158143
60,136,14024,2,0,B|196:136|196:136|196:192,1,174.999995231628
312,176,14524,6,0,B|312:132|312:132|488:132|488:132|489:152|469:151,2,174.999995231628,0|8|0,0:0|0:0|0:0,0:0:0:0:
292,248,15149,1,0,0:0:0:0:
224,276,15274,1,0,0:0:0:0:
168,224,15399,1,0,0:0:0:0:
151,149,15524,2,0,B|144:68|144:68|96:36|60:72,2,174.999995231628,0|8|0,0:0|0:0|0:0,0:0:0:0:
164,216,16149,5,0,0:0:0:0:
216,268,16274,1,0,0:0:0:0:
284,276,16399,1,0,0:0:0:0:
356,260,16524,2,0,P|456:184|456:132,1,174.999995231628,0|8,0:0|0:0,0:0:0:0:
316,24,17024,2,0,P|216:100|216:152,1,174.999995231628,0|4,0:0|0:0,0:0:0:0:
356,260,17524,1,0,0:0:0:0:
316,24,17774,1,8,0:0:0:0:
356,256,18024,2,0,P|264:248|204:300,1,174.999995231629
352,256,18524,1,0,0:0:0:0:
204,300,18774,2,0,P|120:232|124:128,1,174.999995231628,8|0,0:0|0:0,0:0:0:0:
120,104,19149,1,0,0:0:0:0:
176,56,19274,1,0,0:0:0:0:
252,56,19399,1,0,0:0:0:0:
312,112,19524,5,0,0:0:0:0:
408,216,19774,1,8,0:0:0:0:
312,112,20024,2,0,B|408:144|408:144|408:296,1,174.999995231628
380,280,20399,1,0,0:0:0:0:
320,320,20524,1,8,0:0:0:0:
264,280,20649,1,8,0:0:0:0:
268,208,20774,1,2,0:0:0:0:
332,172,20899,1,2,0:0:0:0:
409,154,21024,2,0,P|376:76|296:48,1,174.999995231629,8|4,3:0|0:0,0:0:0:0:
96,216,21524,5,0,0:0:0:0:
296,48,21774,1,4,0:0:0:0:
100,216,22020,2,4,P|100:308|172:292,1,174.999995231628,6|0,0:0|0:0,0:0:0:0:
224,268,22395,1,8,0:0:0:0:
276,212,22520,1,8,0:0:0:0:
288,140,22645,1,4,0:3:0:0:
260,72,22770,1,4,0:3:0:0:
188,48,22895,1,0,0:0:0:0:
120,80,23020,1,4,0:0:0:0:
96,148,23145,1,4,0:0:0:0:
148,196,23270,2,8,B|160:163|160:163|212:163,1,87.4999976158142,8|0,0:0|0:0,0:0:0:0:
260,96,23520,2,0,B|293:121|293:121|277:165,1,87.4999976158142,8|0,0:0|0:0,0:0:0:0:
296,280,23770,2,0,B|260:276|260:276|240:224,1,87.4999976158142,8|0,0:0|0:0,0:0:0:0:
256,192,24024,12,0,25274,0:0:0:0:
256,192,25520,12,4,29270,0:0:0:0:
