osu file format v14

[General]
AudioFilename: FINALLY.mp3
AudioLeadIn: 0
PreviewTime: 5701
Countdown: 1
SampleSet: Soft
StackLeniency: 0.7
Mode: 0
LetterboxInBreaks: 1
WidescreenStoryboard: 1

[Editor]
Bookmarks: 5774,8024
DistanceSpacing: 0.8
BeatDivisor: 4
GridSize: 4
TimelineZoom: 1

[Metadata]
Title:Finally
TitleUnicode:Finally
Artist:Ariel
ArtistUnicode:Ariel
Creator:aaronzzz
Version:With essence of Downy
Source:TV Commercial
Tags:Ariel 7.50 nalang tipid-pack holy shit m8
BeatmapID:677234
BeatmapSetID:298862

[Difficulty]
HPDrainRate:6
CircleSize:4
OverallDifficulty:6
ApproachRate:7
SliderMultiplier:2.2
SliderTickRate:2

[Events]
//Background and Video events
0,0,"BARIELG.jpg",0,0
Video,0,"Finally Ariel_(720p).avi"
//Break Periods
//Storyboard Layer 0 (Background)
//Storyboard Layer 1 (Fail)
//Storyboard Layer 2 (Pass)
//Storyboard Layer 3 (Foreground)
//Storyboard Sound Samples

[TimingPoints]
-226,500,4,2,0,80,1,0
5274,500,4,2,0,80,1,1
21274,500,4,2,0,80,1,0

[Colours]
Combo1 : 255,255,255
Combo2 : 0,202,0

[HitObjects]
168,164,274,5,0,0:0:0:0:
232,220,524,2,0,B|276:260|360:216,1,110,0|8,0:0|0:0,0:0:0:0:
368,152,1024,1,8,3:0:0:0:
396,72,1274,2,0,P|320:48|252:68,1,110,4|0,3:0|0:0,0:0:0:0:
288,144,1774,2,0,P|333:173|344:226,1,110,8|0,0:0|0:0,0:0:0:0:
412,268,2274,1,0,0:0:0:0:
412,272,2399,2,8,P|372:328|304:336,1,110
334,339,2774,2,0,P|240:308|224:280,1,110,8|8,0:0|0:0,0:0:0:0:
176,248,3274,2,0,P|132:256|112:248,2,55
184,200,3649,2,0,P|144:188|136:160,2,55
204,160,4024,2,0,P|180:136|184:112,2,55
248,136,4399,2,0,P|232:108|244:84,2,55
248,136,4774,1,0,0:0:0:0:
392,196,5024,5,8,3:0:0:0:
400,212,5149,1,8,3:0:0:0:
408,232,5274,2,0,P|368:308|316:320,1,110
256,320,5774,2,0,P|180:280|168:228,1,110,8|0,0:0|0:0,0:0:0:0:
152,176,6274,2,0,P|192:100|244:88,1,110
316,92,6774,5,8,0:0:0:0:
208,88,7024,1,0,0:0:0:0:
320,92,7274,2,0,P|364:132|376:188,1,110,0|8,0:0|0:0,0:0:0:0:
376,256,7774,2,0,B|336:312|336:312|272:324,1,110,8|0,0:0|0:0,0:0:0:0:
220,316,8274,1,0,0:0:0:0:
164,256,8524,1,0,0:0:0:0:
132,180,8774,2,0,P|136:112|192:56,2,110,8|0|0,0:0|0:0|0:0,0:0:0:0:
192,232,9524,1,0,0:0:0:0:
256,172,9774,1,8,0:0:0:0:
328,232,10024,6,0,B|388:272|432:208|432:208|432:84,1,220
376,44,10774,1,8,0:0:0:0:
288,56,11024,2,0,B|287:56|264:100|264:100|228:40|152:52|112:96|128:160,1,220
184,236,11774,2,0,B|216:192|216:192|196:140,2,110,8|0|0,0:0|0:0|0:0,0:0:0:0:
116,284,12524,1,0,0:0:0:0:
36,256,12774,1,8,0:0:0:0:
24,176,13024,1,8,0:0:0:0:
40,152,13149,1,12,0:0:0:0:
56,128,13274,2,0,B|88:80|88:80|160:80,1,110,4|0,0:0|0:0,0:0:0:0:
196,132,13774,5,0,0:0:0:0:
248,184,14024,2,0,B|272:212|272:212|332:208|360:268|352:316|328:344|272:360,1,220
268,284,14774,5,8,0:0:0:0:
188,256,15024,1,0,0:0:0:0:
136,192,15274,1,0,0:0:0:0:
132,112,15524,2,8,L|8:136,1,110,0|8,0:0|0:0,0:0:0:0:
64,208,16024,2,0,L|173:221,1,110
248,164,16524,1,0,0:0:0:0:
320,224,16774,1,8,0:0:0:0:
404,176,17024,2,0,B|420:252|376:292|376:292|268:320,1,220
232,248,17774,1,8,0:0:0:0:
188,172,18024,2,0,P|87:186|80:288,1,220
156,328,18774,1,8,0:0:0:0:
152,244,19024,2,0,B|96:176|96:176|40:168|16:108|28:64|72:44,1,220,0|8,0:0|0:0,0:0:0:0:
112,104,19774,5,8,0:0:0:0:
192,96,20024,2,0,P|288:136|388:88,1,220,8|0,0:0|0:0,0:0:0:0:
448,152,20774,1,8,0:0:0:0:
424,224,21024,1,8,0:0:0:0:
412,244,21149,1,8,0:0:0:0:
396,268,21274,2,0,P|340:300|288:288,1,110,4|0,0:0|0:0,0:0:0:0:
236,188,21774,2,0,P|292:220|344:208,1,110,4|0,0:0|0:0,0:0:0:0:
396,104,22274,2,0,P|340:136|288:124,1,110,4|0,0:0|0:0,0:0:0:0:
220,100,22774,1,0,0:0:0:0:
144,132,23024,1,0,0:0:0:0:
112,208,23274,2,0,P|156:272|204:256,1,110
240,212,23774,2,0,P|296:200|340:240,1,110
256,192,24274,12,0,25524,0:0:0:0:
256,192,25774,12,4,29274,0:0:0:0:
