osu file format v14

[General]
AudioFilename: FINALLY.mp3
AudioLeadIn: 0
PreviewTime: 5701
Countdown: 1
SampleSet: None
StackLeniency: 0.7
Mode: 0
LetterboxInBreaks: 1
WidescreenStoryboard: 1

[Editor]
Bookmarks: 8274,27520,28520
DistanceSpacing: 0.5
BeatDivisor: 4
GridSize: 4
TimelineZoom: 1.1

[Metadata]
Title:Finally
TitleUnicode:Finally
Artist:Ariel
ArtistUnicode:Ariel
Creator:aaronzzz
Version:Swak 1 wash Only FINALLY
Source:TV Commercial
Tags:Ariel 7.50 nalang tipid-pack holy shit m8
BeatmapID:677252
BeatmapSetID:298862

[Difficulty]
HPDrainRate:6
CircleSize:4.5
OverallDifficulty:7
ApproachRate:10
SliderMultiplier:3.5
SliderTickRate:2

[Events]
//Background and Video events
0,0,"BARIELG.jpg",0,0
Video,0,"Finally Ariel_(720p).avi"
//Break Periods
//Storyboard Layer 0 (Background)
//Storyboard Layer 1 (Fail)
//Storyboard Layer 2 (Pass)
//Storyboard Layer 3 (Foreground)
//Storyboard Sound Samples

[TimingPoints]
-226,500,4,2,0,100,1,0
5274,500,4,2,0,100,1,1
5774,-100,4,2,0,100,0,1
15774,-50,4,2,0,100,0,1
16274,-100,4,2,0,100,0,1
16774,-50,4,2,0,100,0,1
21270,500,4,2,0,100,1,0
22520,-50,4,2,0,100,0,0
30145,-50,4,2,0,5,0,0

[Colours]
Combo1 : 255,255,255
Combo2 : 0,202,0

[HitObjects]
56,328,274,5,0,3:0:0:0:
464,40,524,1,8,3:0:0:0:
312,240,774,1,0,0:0:0:0:
136,136,1024,1,8,3:0:0:0:
108,92,1149,1,2,3:0:0:0:
128,44,1274,2,0,P|228:28|320:44,1,175,2|0,3:0|3:0,3:0:0:0:
384,340,1774,2,0,P|284:356|192:340,1,175
96,216,2274,5,8,0:0:0:0:
96,216,2399,2,0,P|196:192|288:224,1,175,8|0,0:0|0:0,0:0:0:0:
312,232,2774,2,0,L|368:128,1,87.5,8|0,0:0|0:0,0:0:0:0:
352,104,3024,2,0,L|392:304,1,175,8|0,0:0|3:0,0:0:0:0:
324,308,3399,1,0,3:0:0:0:
256,320,3524,1,0,3:0:0:0:
188,308,3649,1,0,3:0:0:0:
124,280,3774,1,0,3:0:0:0:
68,236,3899,1,0,3:0:0:0:
84,204,4024,1,0,3:0:0:0:
92,168,4149,1,0,3:0:0:0:
92,132,4274,1,0,3:0:0:0:
88,96,4399,1,0,3:0:0:0:
100,88,4524,1,0,3:0:0:0:
116,80,4649,1,0,3:0:0:0:
132,76,4774,2,0,P|241:80|284:109,1,87.5,8|0,3:0|3:0,3:0:0:0:
296,208,5024,2,0,P|188:224|140:204,1,87.5,2|0,3:0|3:0,3:0:0:0:
428,72,5274,5,0,0:0:0:0:
411,158,5399,1,0,0:0:0:0:
395,244,5524,1,0,0:0:0:0:
428,72,5774,5,4,0:0:0:0:
128,332,6024,1,0,0:0:0:0:
96,56,6274,1,0,0:0:0:0:
105,143,6399,1,0,0:0:0:0:
114,230,6524,1,0,0:0:0:0:
472,44,6774,5,4,0:0:0:0:
215,345,7024,1,0,0:0:0:0:
138,306,7149,1,0,0:0:0:0:
114,225,7274,1,0,0:0:0:0:
156,151,7399,1,0,0:0:0:0:
238,130,7524,1,0,0:0:0:0:
40,336,7774,5,4,0:0:0:0:
312,24,8024,1,0,0:0:0:0:
399,24,8149,1,0,0:0:0:0:
458,74,8274,1,0,0:0:0:0:
472,160,8399,1,0,0:0:0:0:
440,236,8524,1,0,0:0:0:0:
40,36,8774,5,4,0:0:0:0:
304,351,9024,1,0,0:0:0:0:
387,353,9149,1,0,0:0:0:0:
463,318,9274,1,0,0:0:0:0:
360,160,9399,1,0,0:0:0:0:
360,160,9524,1,0,0:0:0:0:
36,348,9774,5,4,0:0:0:0:
380,136,10024,1,0,0:0:0:0:
337,61,10149,1,0,0:0:0:0:
257,32,10274,1,0,0:0:0:0:
176,61,10399,1,0,0:0:0:0:
133,135,10524,1,0,0:0:0:0:
444,204,10774,5,4,0:0:0:0:
96,215,11024,1,0,0:0:0:0:
139,217,11086,1,0,0:0:0:0:
183,219,11149,1,0,0:0:0:0:
227,221,11211,1,0,0:0:0:0:
270,224,11274,1,0,0:0:0:0:
314,226,11336,1,0,0:0:0:0:
357,220,11399,1,0,0:0:0:0:
400,212,11461,1,0,0:0:0:0:
443,204,11524,1,0,0:0:0:0:
40,40,11774,5,4,0:0:0:0:
472,352,12024,1,0,0:0:0:0:
428,348,12086,1,0,0:0:0:0:
384,344,12149,1,0,0:0:0:0:
341,340,12211,1,0,0:0:0:0:
297,336,12274,1,0,0:0:0:0:
40,32,12524,1,0,0:0:0:0:
83,35,12586,1,0,0:0:0:0:
127,39,12649,1,0,0:0:0:0:
170,43,12711,1,0,0:0:0:0:
214,47,12774,5,4,0:0:0:0:
396,248,13024,1,8,3:0:0:0:
420,172,13149,1,2,3:0:0:0:
476,232,13274,1,4,3:0:0:0:
72,320,13524,6,0,L|176:308,1,87.5
152,180,13774,2,0,L|248:200,1,87.5,2|0,0:0|0:0,0:0:0:0:
388,340,14024,2,0,L|292:320,1,87.5
416,148,14274,1,4,0:0:0:0:
352,76,14399,1,0,0:0:0:0:
256,68,14524,1,0,0:0:0:0:
160,76,14649,1,0,0:0:0:0:
96,148,14774,2,0,L|68:244,1,87.5,2|0,0:0|0:0,0:0:0:0:
416,148,15024,2,0,L|444:244,1,87.5
392,322,15274,6,0,L|308:349,1,87.5,4|0,0:0|0:0,0:0:0:0:
185,16,15523,2,0,L|130:83,1,87.5
186,221,15774,2,0,P|92:268|0:220,1,175,2|0,0:0|0:0,0:0:0:0:
315,157,16024,2,0,P|408:108|501:157,1,175
394,320,16274,2,0,L|409:201,1,87.5,4|0,0:0|0:0,0:0:0:0:
117,63,16524,2,0,L|102:182,1,87.5
142,310,16774,2,0,B|254:226|254:226|256:192,1,175,2|0,0:0|0:0,0:0:0:0:
369,73,17024,2,0,B|257:157|257:157|256:192,1,175
0,0,17274,6,0,B|44:88|44:88|52:48|52:48|0:72|-40:72,1,175,4|0,0:0|0:0,0:0:0:0:
512,384,17524,2,0,B|468:296|468:296|460:336|460:336|512:312|552:312,1,175
24,384,17774,2,0,P|-16:416|8:352,1,175,2|0,0:0|0:0,0:0:0:0:
488,8,18024,2,0,P|528:-24|504:40,1,175
448,284,18274,2,0,B|500:296|464:308|464:308|480:336|508:336|528:316|564:348|496:352|456:364|476:392|512:392|572:396|464:372,1,175,4|0,0:0|0:0,0:0:0:0:
56,116,18524,2,0,B|4:104|40:92|40:92|24:64|-4:64|-24:84|-60:52|8:48|48:36|28:8|-8:8|-68:4|40:28,1,175
0,340,18774,2,0,B|50:336|50:336|42:392|42:392|110:384,1,175
504,48,19024,2,0,B|455:53|455:53|463:-3|463:-3|395:5,1,175
255,253,19274,5,4,0:0:0:0:
194,191,19399,1,0,0:0:0:0:
256,130,19524,1,2,0:0:0:0:
317,192,19649,1,0,0:0:0:0:
152,88,19774,1,4,0:0:0:0:
359,88,19899,1,0,0:0:0:0:
359,295,20024,1,2,0:0:0:0:
152,295,20149,1,0,0:0:0:0:
256,8,20274,1,4,0:0:0:0:
439,192,20399,1,0,0:0:0:0:
255,375,20524,1,2,0:0:0:0:
72,191,20649,1,0,0:0:0:0:
512,0,20774,1,4,0:0:0:0:
0,4,20899,1,0,0:0:0:0:
0,384,21024,1,4,0:0:0:0:
512,384,21149,1,0,0:0:0:0:
0,0,21270,5,4,0:0:0:0:
0,168,21520,2,0,P|72:72|76:72,1,87.5
512,168,21770,2,0,P|440:72|436:72,1,87.5
0,304,22020,2,0,P|72:400|76:400,1,87.5
512,304,22270,2,0,P|440:400|436:400,1,87.5
168,0,22520,2,0,L|364:0,1,175
344,384,22770,2,0,L|148:384,1,175
256,8,23020,1,0,0:0:0:0:
439,192,23145,1,0,0:0:0:0:
255,375,23270,1,0,0:0:0:0:
72,191,23395,1,0,0:0:0:0:
386,61,23520,1,0,0:0:0:0:
385,321,23645,1,0,0:0:0:0:
125,320,23770,1,0,0:0:0:0:
126,61,23895,1,0,0:0:0:0:
8,192,24020,5,0,0:0:0:0:
8,192,24051,1,0,0:0:0:0:
34,192,24082,1,0,0:0:0:0:
34,192,24113,1,0,0:0:0:0:
60,192,24145,1,0,0:0:0:0:
60,192,24176,1,0,0:0:0:0:
86,192,24207,1,0,0:0:0:0:
86,192,24238,1,0,0:0:0:0:
113,192,24270,1,0,0:0:0:0:
113,192,24301,1,0,0:0:0:0:
139,192,24332,1,0,0:0:0:0:
139,192,24363,1,0,0:0:0:0:
165,192,24395,1,0,0:0:0:0:
165,192,24426,1,0,0:0:0:0:
191,192,24457,1,0,0:0:0:0:
191,192,24488,1,0,0:0:0:0:
218,192,24520,1,0,0:0:0:0:
218,192,24551,1,0,0:0:0:0:
244,192,24582,1,0,0:0:0:0:
244,192,24613,1,0,0:0:0:0:
270,192,24645,1,0,0:0:0:0:
270,192,24676,1,0,0:0:0:0:
296,192,24707,1,0,0:0:0:0:
296,192,24738,1,0,0:0:0:0:
323,192,24770,1,0,0:0:0:0:
323,192,24801,1,0,0:0:0:0:
349,192,24832,1,0,0:0:0:0:
349,192,24863,1,0,0:0:0:0:
375,192,24895,1,0,0:0:0:0:
375,192,24926,1,0,0:0:0:0:
401,192,24957,1,0,0:0:0:0:
401,192,24988,1,0,0:0:0:0:
428,192,25020,1,0,0:0:0:0:
428,192,25051,1,0,0:0:0:0:
454,192,25082,1,0,0:0:0:0:
454,192,25113,1,0,0:0:0:0:
480,192,25145,1,0,0:0:0:0:
480,192,25176,1,0,0:0:0:0:
506,192,25207,1,0,0:0:0:0:
506,192,25238,1,0,0:0:0:0:
512,192,25270,1,0,0:0:0:0:
512,192,25301,1,0,0:0:0:0:
512,0,25520,5,4,0:0:0:0:
0,4,25645,1,0,0:0:0:0:
0,384,25770,1,4,0:0:0:0:
512,384,25895,1,0,0:0:0:0:
0,384,26020,5,0,0:0:0:0:
512,384,26145,1,4,0:0:0:0:
512,4,26270,1,0,0:0:0:0:
0,0,26395,1,4,0:0:0:0:
0,384,26520,5,4,0:0:0:0:
512,380,26645,1,0,0:0:0:0:
512,0,26770,1,4,0:0:0:0:
0,0,26895,1,0,0:0:0:0:
512,0,27020,5,4,0:0:0:0:
0,4,27145,1,0,0:0:0:0:
0,384,27270,1,4,0:0:0:0:
512,384,27395,1,0,0:0:0:0:
0,384,27520,5,4,0:0:0:0:
512,380,27645,1,0,0:0:0:0:
512,0,27770,1,4,0:0:0:0:
0,0,27895,1,0,0:0:0:0:
0,0,28020,5,4,0:0:0:0:
512,4,28145,1,0,0:0:0:0:
512,384,28270,1,4,0:0:0:0:
0,384,28395,1,0,0:0:0:0:
256,8,28520,1,4,0:0:0:0:
439,192,28645,1,0,0:0:0:0:
255,375,28770,1,2,0:0:0:0:
72,191,28895,1,0,0:0:0:0:
377,192,29020,1,0,0:0:0:0:
195,296,29145,1,4,0:0:0:0:
195,86,29270,1,4,0:0:0:0:
256,192,29395,12,0,30145,0:0:0:0:
